osu file format v14

[General]
AudioFilename: dj TAKA vs DJ TOTTO feat.Ai - IX - IX.mp3
AudioLeadIn: 0
PreviewTime: 71665
Countdown: 1
SampleSet: Soft
StackLeniency: 0.7
Mode: 0
LetterboxInBreaks: 0
WidescreenStoryboard: 0

[Editor]
DistanceSpacing: 1
BeatDivisor: 4
GridSize: 8
TimelineZoom: 2

[Metadata]
Title:IX
TitleUnicode:IX
Artist:dj TAKA VS DJ TOTTO feat AI
ArtistUnicode:dj TAKA VS DJ TOTTO feat AI
Creator:Rucker
Version:Extra
Source:
Tags:
BeatmapID:823643
BeatmapSetID:376174

[Difficulty]
HPDrainRate:7
CircleSize:4
OverallDifficulty:8
ApproachRate:9.4
SliderMultiplier:2.79999990463257
SliderTickRate:1

[Events]
//Background and Video events
0,0,"bg.jpg",0,0
//Break Periods
2,11714,13338
2,14138,15308
2,16562,18186
//Storyboard Layer 0 (Background)
//Storyboard Layer 1 (Fail)
//Storyboard Layer 2 (Pass)
//Storyboard Layer 3 (Foreground)
//Storyboard Sound Samples

[TimingPoints]
605,303.030303030303,4,2,0,100,1,0
605,-100,4,2,0,5,0,0
1817,-200,4,2,0,80,0,0
7877,-166.666666666667,4,2,0,80,0,0
9089,-142.857142857143,4,2,0,80,0,0
10301,-100,4,2,0,80,0,0
50301,-200,4,2,0,80,0,0
59998,-100,4,2,0,80,0,0
70908,-200,4,2,0,80,0,0
71817,-100,4,2,0,80,0,0
119241,-200,4,2,0,5,0,0

[HitObjects]
256,192,605,12,0,1741,0:0:0:0:
80,336,1817,6,0,B|80:264|80:264|248:264|248:56|64:56,1,419.999985694885
360,40,3029,2,0,B|440:88|464:168|432:296|368:352|368:352|296:304,1,419.999985694885
208,256,4089,1,0,0:0:0:0:
208,256,4241,2,0,B|136:256|136:256|136:352|16:352|16:256|16:256|16:112,1,419.999985694885
120,88,5453,1,0,0:0:0:0:
224,40,5756,1,0,0:0:0:0:
336,48,6059,1,0,0:0:0:0:
424,120,6362,1,0,0:0:0:0:
336,192,6665,6,0,P|320:264|256:264,1,139.999995231629
176,192,7271,6,0,P|192:120|256:120,1,139.999995231629
368,192,7877,2,0,P|336:280|264:280,1,167.999989151001
144,192,8483,2,0,P|176:104|248:104,1,167.999989151001
400,192,9089,2,0,P|360:296|256:296,1,195.999987342835
112,192,9695,2,0,P|152:87|256:88,1,195.999987342835
440,192,10301,2,0,P|368:344|144:288,1,419.999985694885
144,288,10832,1,0,0:0:0:0:
136,272,10908,1,0,0:0:0:0:
136,256,10983,1,0,0:0:0:0:
128,240,11059,1,0,0:0:0:0:
128,224,11135,1,0,0:0:0:0:
120,208,11211,1,0,0:0:0:0:
120,192,11286,1,0,0:0:0:0:
112,176,11362,1,0,0:0:0:0:
112,160,11438,1,0,0:0:0:0:
104,144,11514,1,0,0:0:0:0:
256,192,13938,5,0,0:0:0:0:
256,64,15908,5,0,0:0:0:0:
256,320,16362,1,0,0:0:0:0:
256,192,18786,5,0,0:0:0:0:
80,192,19847,5,0,0:0:0:0:
432,192,20150,1,0,0:0:0:0:
160,256,20453,1,0,0:0:0:0:
160,256,20529,1,0,0:0:0:0:
160,256,20604,2,0,L|120:168,1,69.9999976158143
352,128,20756,2,0,L|392:215,1,69.9999976158143
160,256,20908,2,0,L|120:168,1,69.9999976158143
352,128,21060,2,0,L|392:215,1,69.9999976158143
448,256,21211,5,0,0:0:0:0:
256,328,21362,1,0,0:0:0:0:
384,184,21514,1,0,0:0:0:0:
336,368,21665,1,0,0:0:0:0:
152,200,21817,1,0,0:0:0:0:
360,272,21968,1,0,0:0:0:0:
192,336,22120,1,0,0:0:0:0:
312,136,22271,1,0,0:0:0:0:
328,328,22423,5,0,0:0:0:0:
144,144,22574,1,0,0:0:0:0:
72,320,22726,2,0,P|144:336|152:288,1,139.999995231629
320,88,23029,1,0,0:0:0:0:
320,80,23180,2,0,B|320:32|320:32|424:32|464:96|400:160|400:160|376:160,1,279.999990463257
176,144,23635,5,0,0:0:0:0:
336,304,23786,1,0,0:0:0:0:
88,232,23938,1,0,0:0:0:0:
312,72,24089,1,0,0:0:0:0:
224,336,24241,1,0,0:0:0:0:
96,128,24392,1,0,0:0:0:0:
48,328,24544,1,0,0:0:0:0:
216,112,24695,1,0,0:0:0:0:
376,296,24847,5,0,0:0:0:0:
112,240,24998,1,0,0:0:0:0:
384,152,25150,1,0,0:0:0:0:
136,112,25301,1,0,0:0:0:0:
136,112,25377,1,0,0:0:0:0:
136,112,25453,1,0,0:0:0:0:
72,248,25605,1,0,0:0:0:0:
88,280,25680,1,0,0:0:0:0:
120,296,25756,1,0,0:0:0:0:
152,304,25832,1,0,0:0:0:0:
184,296,25908,1,0,0:0:0:0:
216,280,25983,1,0,0:0:0:0:
248,288,26059,5,0,0:0:0:0:
344,128,26211,1,0,0:0:0:0:
120,168,26362,1,0,0:0:0:0:
304,32,26514,1,0,0:0:0:0:
272,256,26665,1,0,0:0:0:0:
192,104,26817,1,0,0:0:0:0:
408,64,26968,1,0,0:0:0:0:
336,216,27120,1,0,0:0:0:0:
208,48,27271,5,0,0:0:0:0:
120,224,27423,1,0,0:0:0:0:
64,96,27574,2,0,P|144:64|136:104,1,139.999995231629
120,296,27877,1,0,0:0:0:0:
176,160,28029,2,0,B|80:208|80:208|80:304|184:328|232:264,1,279.999990463257
368,336,28483,5,0,0:0:0:0:
408,312,28559,1,0,0:0:0:0:
424,264,28635,1,0,0:0:0:0:
416,216,28711,1,0,0:0:0:0:
384,176,28786,2,0,L|320:72,1,69.9999976158143
232,96,28938,2,0,L|280:168,1,69.9999976158143
200,240,29089,1,0,0:0:0:0:
152,216,29165,1,0,0:0:0:0:
96,216,29241,1,0,0:0:0:0:
40,232,29317,1,0,0:0:0:0:
8,272,29392,5,0,0:0:0:0:
16,256,29468,1,0,0:0:0:0:
24,240,29544,1,0,0:0:0:0:
32,224,29620,1,0,0:0:0:0:
40,208,29695,1,0,0:0:0:0:
256,64,30605,5,0,0:0:0:0:
120,288,30908,5,0,0:0:0:0:
120,288,31059,1,0,0:0:0:0:
104,136,31211,1,0,0:0:0:0:
264,232,31362,1,0,0:0:0:0:
240,64,31514,1,0,0:0:0:0:
120,216,31665,1,0,0:0:0:0:
272,336,31817,1,0,0:0:0:0:
392,160,31968,1,0,0:0:0:0:
408,304,32120,6,0,P|344:272|272:312,1,139.999995231629
192,88,32423,2,0,L|344:128,1,139.999995231629
160,288,32726,2,0,P|96:232|96:160,1,139.999995231629
440,48,33029,2,0,L|376:208,1,139.999995231629
216,56,33332,5,0,0:0:0:0:
216,56,33483,1,0,0:0:0:0:
56,136,33635,1,0,0:0:0:0:
216,56,33786,1,0,0:0:0:0:
320,208,33938,1,0,0:0:0:0:
432,88,34089,1,0,0:0:0:0:
216,144,34241,1,0,0:0:0:0:
424,224,34392,1,0,0:0:0:0:
256,336,34544,6,0,P|288:256|240:240,1,139.999995231629
56,152,34847,2,0,L|200:88,1,139.999995231629
384,48,35150,2,0,P|408:128|464:136,1,139.999995231629
360,304,35453,1,0,0:0:0:0:
360,304,35529,1,0,0:0:0:0:
360,304,35604,1,0,0:0:0:0:
160,336,35756,5,0,0:0:0:0:
32,256,35908,1,0,0:0:0:0:
208,280,36059,1,0,0:0:0:0:
80,200,36211,1,0,0:0:0:0:
224,208,36362,1,0,0:0:0:0:
96,128,36514,1,0,0:0:0:0:
216,136,36665,1,0,0:0:0:0:
88,56,36817,1,0,0:0:0:0:
352,48,36968,5,0,0:0:0:0:
304,104,37120,1,0,0:0:0:0:
288,176,37271,1,0,0:0:0:0:
296,248,37423,1,0,0:0:0:0:
480,128,37574,1,0,0:0:0:0:
432,184,37726,1,0,0:0:0:0:
416,256,37877,1,0,0:0:0:0:
424,328,38029,1,0,0:0:0:0:
208,328,38180,5,0,0:0:0:0:
208,328,38332,1,0,0:0:0:0:
48,256,38483,1,0,0:0:0:0:
48,256,38635,1,0,0:0:0:0:
144,120,38786,1,0,0:0:0:0:
144,120,38938,1,0,0:0:0:0:
272,208,39089,1,0,0:0:0:0:
272,208,39241,1,0,0:0:0:0:
424,64,39392,5,0,0:0:0:0:
408,96,39468,1,0,0:0:0:0:
408,128,39544,1,0,0:0:0:0:
416,160,39620,1,0,0:0:0:0:
432,192,39695,2,0,L|408:272,1,69.9999976158143
344,336,39847,5,0,0:0:0:0:
328,328,39923,1,0,0:0:0:0:
312,320,39998,1,0,0:0:0:0:
296,312,40074,1,0,0:0:0:0:
256,312,40150,1,0,0:0:0:0:
216,328,40226,1,0,0:0:0:0:
176,312,40301,1,0,0:0:0:0:
152,272,40377,1,0,0:0:0:0:
160,232,40453,1,0,0:0:0:0:
120,96,40604,5,0,0:0:0:0:
336,80,40756,1,0,0:0:0:0:
184,216,40908,1,0,0:0:0:0:
288,48,41059,1,0,0:0:0:0:
344,232,41211,1,0,0:0:0:0:
104,176,41362,1,0,0:0:0:0:
344,160,41514,1,0,0:0:0:0:
256,272,41665,1,0,0:0:0:0:
160,96,41817,5,0,0:0:0:0:
352,48,41968,1,0,0:0:0:0:
456,224,42120,1,0,0:0:0:0:
304,320,42271,1,0,0:0:0:0:
424,152,42423,1,0,0:0:0:0:
456,336,42574,1,0,0:0:0:0:
312,224,42726,1,0,0:0:0:0:
176,136,42877,1,0,0:0:0:0:
288,40,43029,5,0,0:0:0:0:
432,112,43180,1,0,0:0:0:0:
264,240,43332,1,0,0:0:0:0:
440,264,43483,1,0,0:0:0:0:
304,160,43635,1,0,0:0:0:0:
408,40,43786,1,0,0:0:0:0:
200,72,43938,1,0,0:0:0:0:
248,272,44089,1,0,0:0:0:0:
80,192,44241,5,0,0:0:0:0:
128,56,44392,1,0,0:0:0:0:
288,144,44544,1,0,0:0:0:0:
192,296,44695,1,0,0:0:0:0:
136,144,44847,1,0,0:0:0:0:
304,48,44998,1,0,0:0:0:0:
384,208,45150,1,0,0:0:0:0:
216,128,45301,1,0,0:0:0:0:
384,64,45453,5,0,0:0:0:0:
240,216,45604,1,0,0:0:0:0:
160,56,45756,1,0,0:0:0:0:
112,240,45908,1,0,0:0:0:0:
8,104,46059,1,0,0:0:0:0:
208,144,46211,1,0,0:0:0:0:
128,312,46362,1,0,0:0:0:0:
16,200,46514,1,0,0:0:0:0:
184,96,46665,5,0,0:0:0:0:
272,248,46817,1,0,0:0:0:0:
112,352,46968,1,0,0:0:0:0:
96,184,47120,1,0,0:0:0:0:
224,312,47271,1,0,0:0:0:0:
32,280,47423,1,0,0:0:0:0:
280,136,47574,1,0,0:0:0:0:
56,88,47726,1,0,0:0:0:0:
184,248,47877,1,0,0:0:0:0:
288,64,48029,1,0,0:0:0:0:
448,112,48180,5,0,0:0:0:0:
440,128,48256,1,0,0:0:0:0:
432,144,48332,1,0,0:0:0:0:
424,160,48408,1,0,0:0:0:0:
416,176,48483,1,0,0:0:0:0:
408,192,48559,1,0,0:0:0:0:
400,208,48635,1,0,0:0:0:0:
400,216,48938,1,0,0:0:0:0:
184,320,49241,5,0,0:0:0:0:
64,208,49392,1,0,0:0:0:0:
224,160,49544,1,0,0:0:0:0:
128,264,49695,1,0,0:0:0:0:
80,107,49846,1,0,0:0:0:0:
248,144,49998,1,0,0:0:0:0:
264,136,50074,1,0,0:0:0:0:
280,128,50150,1,0,0:0:0:0:
296,120,50226,1,0,0:0:0:0:
312,112,50301,2,0,B|400:112|400:112|400:176|464:176|464:176|464:272,1,279.999990463257
256,336,51363,5,0,0:0:0:0:
256,336,51438,1,0,0:0:0:0:
256,336,51514,2,0,B|208:280|208:280|168:312|120:280|120:280|64:328,1,209.999992847443
80,168,52120,2,0,P|16:192|16:240,2,104.999996423721
160,80,52726,2,0,P|120:24|72:24,2,104.999996423721
256,152,53332,2,0,L|256:32,2,104.999996423721
312,240,53938,5,0,0:0:0:0:
312,64,54089,2,0,P|352:112|344:144,1,69.9999976158143
312,240,54392,1,0,0:0:0:0:
496,144,54544,2,0,P|448:183|416:175,1,69.9999976158143
312,240,54847,1,0,0:0:0:0:
232,344,54998,1,0,0:0:0:0:
120,272,55150,2,0,L|48:320,1,69.9999976158143
208,280,55453,1,0,0:0:0:0:
96,208,55605,2,0,L|24:256,1,69.9999976158143
64,128,55908,5,0,0:0:0:0:
240,48,56059,1,0,0:0:0:0:
192,160,56211,1,0,0:0:0:0:
352,72,56362,2,0,L|432:96,1,69.9999976158143
256,240,56665,1,0,0:0:0:0:
416,152,56816,2,0,L|496:176,1,69.9999976158143
280,344,57120,1,0,0:0:0:0:
432,280,57271,1,0,0:0:0:0:
248,280,57423,1,0,0:0:0:0:
112,336,57574,5,0,0:0:0:0:
80,304,57650,1,0,0:0:0:0:
72,264,57726,1,0,0:0:0:0:
88,224,57801,1,0,0:0:0:0:
120,200,57877,1,0,0:0:0:0:
112,184,57953,1,0,0:0:0:0:
104,168,58029,1,0,0:0:0:0:
96,160,58104,1,0,0:0:0:0:
88,144,58180,1,0,0:0:0:0:
120,112,58256,1,0,0:0:0:0:
128,72,58332,1,0,0:0:0:0:
104,40,58408,1,0,0:0:0:0:
136,8,58483,1,0,0:0:0:0:
176,0,58559,1,0,0:0:0:0:
216,16,58635,1,0,0:0:0:0:
240,48,58711,1,0,0:0:0:0:
256,56,58786,6,0,L|224:104,1,34.9999988079071
416,144,58938,2,0,L|392:80,1,34.9999988079071
224,208,59089,2,0,L|272:184,1,34.9999988079071
368,280,59241,2,0,L|328:312,1,34.9999988079071
280,128,59392,2,0,L|288:176,1,34.9999988079071
248,336,59544,2,0,L|288:320,1,34.9999988079071
144,184,59695,1,0,0:0:0:0:
128,192,59771,1,0,0:0:0:0:
112,200,59847,1,0,0:0:0:0:
96,208,59923,1,0,0:0:0:0:
80,216,59998,5,0,0:0:0:0:
80,336,60150,1,0,0:0:0:0:
192,280,60301,1,0,0:0:0:0:
80,216,60453,1,0,0:0:0:0:
80,336,60604,1,0,0:0:0:0:
192,280,60756,1,0,0:0:0:0:
176,128,60908,1,0,0:0:0:0:
32,272,61059,1,0,0:0:0:0:
328,352,61211,5,0,0:0:0:0:
384,240,61362,1,0,0:0:0:0:
464,336,61514,1,0,0:0:0:0:
328,352,61665,1,0,0:0:0:0:
384,240,61817,1,0,0:0:0:0:
464,336,61968,1,0,0:0:0:0:
472,144,62120,1,0,0:0:0:0:
264,288,62271,1,0,0:0:0:0:
320,64,62423,5,0,0:0:0:0:
288,56,62498,1,0,0:0:0:0:
280,88,62574,1,0,0:0:0:0:
248,112,62650,1,0,0:0:0:0:
216,104,62726,1,0,0:0:0:0:
72,56,62877,1,0,0:0:0:0:
56,88,62953,1,0,0:0:0:0:
56,120,63029,1,0,0:0:0:0:
40,152,63104,1,0,0:0:0:0:
64,176,63180,1,0,0:0:0:0:
96,192,63256,1,0,0:0:0:0:
112,224,63332,1,0,0:0:0:0:
112,256,63408,1,0,0:0:0:0:
96,288,63483,1,0,0:0:0:0:
208,360,63635,5,0,0:0:0:0:
352,336,63786,1,0,0:0:0:0:
352,336,63862,1,0,0:0:0:0:
352,336,63938,1,0,0:0:0:0:
352,336,64014,1,0,0:0:0:0:
360,328,64089,1,0,0:0:0:0:
368,320,64165,1,0,0:0:0:0:
376,304,64241,1,0,0:0:0:0:
376,288,64317,1,0,0:0:0:0:
400,256,64392,1,0,0:0:0:0:
416,216,64468,1,0,0:0:0:0:
408,176,64544,1,0,0:0:0:0:
384,136,64620,1,0,0:0:0:0:
352,112,64695,1,0,0:0:0:0:
296,96,64771,1,0,0:0:0:0:
240,112,64847,6,0,L|96:56,1,139.999995231629
109,61,65150,1,0,0:0:0:0:
184,248,65301,2,0,L|32:192,1,139.999995231629
52,199,65604,1,0,0:0:0:0:
256,336,65756,1,0,0:0:0:0:
256,120,65908,1,0,0:0:0:0:
272,272,66059,6,0,L|416:328,1,139.999995231629
402,322,66362,1,0,0:0:0:0:
328,136,66513,2,0,L|480:192,1,139.999995231629
459,184,66816,1,0,0:0:0:0:
256,48,66968,1,0,0:0:0:0:
256,336,67120,1,0,0:0:0:0:
48,192,67271,5,0,0:0:0:0:
64,152,67347,1,0,0:0:0:0:
96,120,67423,1,0,0:0:0:0:
128,96,67498,1,0,0:0:0:0:
168,80,67574,1,0,0:0:0:0:
208,88,67650,1,0,0:0:0:0:
248,112,67726,1,0,0:0:0:0:
288,128,67801,1,0,0:0:0:0:
328,128,67877,1,0,0:0:0:0:
368,120,67953,1,0,0:0:0:0:
408,104,68029,1,0,0:0:0:0:
416,144,68104,1,0,0:0:0:0:
432,184,68180,1,0,0:0:0:0:
424,224,68256,1,0,0:0:0:0:
400,256,68332,1,0,0:0:0:0:
368,280,68408,1,0,0:0:0:0:
328,288,68483,1,0,0:0:0:0:
288,280,68559,1,0,0:0:0:0:
248,256,68635,1,0,0:0:0:0:
224,216,68711,1,0,0:0:0:0:
256,192,68786,1,0,0:0:0:0:
296,192,68862,1,0,0:0:0:0:
328,216,68938,1,0,0:0:0:0:
336,256,69014,1,0,0:0:0:0:
312,288,69089,1,0,0:0:0:0:
280,320,69165,1,0,0:0:0:0:
240,336,69241,1,0,0:0:0:0:
200,336,69317,1,0,0:0:0:0:
160,320,69392,1,0,0:0:0:0:
128,296,69468,1,0,0:0:0:0:
112,256,69544,1,0,0:0:0:0:
88,224,69620,1,0,0:0:0:0:
56,200,69695,5,0,0:0:0:0:
88,152,69771,1,0,0:0:0:0:
136,120,69847,1,0,0:0:0:0:
192,112,69923,1,0,0:0:0:0:
248,128,69998,1,0,0:0:0:0:
288,168,70074,1,0,0:0:0:0:
336,200,70150,1,0,0:0:0:0:
392,184,70226,1,0,0:0:0:0:
432,144,70301,1,0,0:0:0:0:
424,88,70377,1,0,0:0:0:0:
384,48,70453,1,0,0:0:0:0:
328,40,70529,1,0,0:0:0:0:
280,72,70604,1,0,0:0:0:0:
264,128,70680,1,0,0:0:0:0:
280,184,70756,1,0,0:0:0:0:
320,224,70832,1,0,0:0:0:0:
376,232,70908,2,0,B|496:232|496:360|384:360|384:360|248:360,1,349.999988079071
128,264,71817,5,0,0:0:0:0:
112,248,71892,1,0,0:0:0:0:
96,232,71968,1,0,0:0:0:0:
80,216,72044,1,0,0:0:0:0:
64,200,72120,5,0,0:0:0:0:
280,128,72271,1,0,0:0:0:0:
128,64,72423,1,0,0:0:0:0:
216,224,72574,1,0,0:0:0:0:
216,224,72650,1,0,0:0:0:0:
216,224,72726,1,0,0:0:0:0:
304,40,72877,1,0,0:0:0:0:
144,152,73029,1,0,0:0:0:0:
360,224,73180,1,0,0:0:0:0:
432,80,73332,5,0,0:0:0:0:
464,272,73483,1,0,0:0:0:0:
280,168,73635,1,0,0:0:0:0:
216,336,73786,1,0,0:0:0:0:
216,336,73862,1,0,0:0:0:0:
216,336,73938,1,0,0:0:0:0:
120,224,74089,1,0,0:0:0:0:
32,344,74241,1,0,0:0:0:0:
40,320,74317,1,0,0:0:0:0:
48,304,74392,1,0,0:0:0:0:
56,280,74468,1,0,0:0:0:0:
64,256,74544,5,0,0:0:0:0:
160,136,74695,1,0,0:0:0:0:
160,136,74847,1,0,0:0:0:0:
360,40,74998,1,0,0:0:0:0:
272,176,75150,1,0,0:0:0:0:
272,176,75301,1,0,0:0:0:0:
448,232,75453,1,0,0:0:0:0:
448,232,75529,1,0,0:0:0:0:
448,232,75604,2,0,P|400:320|320:320,2,139.999995231629
376,64,76059,5,0,0:0:0:0:
336,96,76135,1,0,0:0:0:0:
288,104,76211,1,0,0:0:0:0:
240,88,76286,1,0,0:0:0:0:
200,56,76362,2,0,L|120:24,3,69.9999976158143
96,64,76665,5,0,0:0:0:0:
88,72,76741,1,0,0:0:0:0:
80,80,76817,1,0,0:0:0:0:
72,88,76892,1,0,0:0:0:0:
64,96,76968,1,0,0:0:0:0:
56,152,77044,1,0,0:0:0:0:
80,200,77120,1,0,0:0:0:0:
128,216,77195,1,0,0:0:0:0:
176,192,77271,1,0,0:0:0:0:
176,192,77423,5,0,0:0:0:0:
296,96,77574,1,0,0:0:0:0:
296,96,77650,1,0,0:0:0:0:
296,96,77726,1,0,0:0:0:0:
448,208,77877,5,0,0:0:0:0:
432,264,77953,1,0,0:0:0:0:
384,296,78029,1,0,0:0:0:0:
328,296,78104,1,0,0:0:0:0:
280,264,78180,1,0,0:0:0:0:
264,272,78256,1,0,0:0:0:0:
248,280,78332,1,0,0:0:0:0:
232,288,78408,1,0,0:0:0:0:
216,296,78483,1,0,0:0:0:0:
216,296,78635,5,0,0:0:0:0:
72,224,78786,1,0,0:0:0:0:
72,224,78862,1,0,0:0:0:0:
72,224,78938,1,0,0:0:0:0:
144,96,79089,1,0,0:0:0:0:
144,96,79165,1,0,0:0:0:0:
144,96,79241,1,0,0:0:0:0:
296,40,79392,5,0,0:0:0:0:
312,96,79468,1,0,0:0:0:0:
352,136,79544,1,0,0:0:0:0:
408,136,79620,1,0,0:0:0:0:
456,168,79695,1,0,0:0:0:0:
472,224,79771,1,0,0:0:0:0:
448,280,79847,1,0,0:0:0:0:
400,312,79923,1,0,0:0:0:0:
344,296,79998,1,0,0:0:0:0:
312,256,80074,1,0,0:0:0:0:
264,224,80150,1,0,0:0:0:0:
208,240,80226,1,0,0:0:0:0:
184,288,80301,1,0,0:0:0:0:
136,312,80377,1,0,0:0:0:0:
80,296,80453,1,0,0:0:0:0:
48,248,80529,1,0,0:0:0:0:
64,192,80604,1,0,0:0:0:0:
64,192,80756,5,0,0:0:0:0:
448,192,81059,1,0,0:0:0:0:
448,192,81211,1,0,0:0:0:0:
408,168,81286,1,0,0:0:0:0:
368,144,81362,1,0,0:0:0:0:
328,120,81438,1,0,0:0:0:0:
288,96,81514,1,0,0:0:0:0:
248,72,81589,1,0,0:0:0:0:
208,48,81665,1,0,0:0:0:0:
168,24,81741,1,0,0:0:0:0:
128,8,81817,5,0,0:0:0:0:
176,208,81968,1,0,0:0:0:0:
80,112,82120,1,0,0:0:0:0:
312,176,82271,1,0,0:0:0:0:
120,312,82574,5,0,0:0:0:0:
264,224,82726,1,0,0:0:0:0:
88,208,82877,1,0,0:0:0:0:
160,104,83029,1,0,0:0:0:0:
216,320,83180,1,0,0:0:0:0:
64,240,83332,1,0,0:0:0:0:
328,152,83483,1,0,0:0:0:0:
240,40,83635,1,0,0:0:0:0:
184,48,83711,1,0,0:0:0:0:
136,80,83786,1,0,0:0:0:0:
104,128,83862,1,0,0:0:0:0:
104,184,83938,2,0,L|192:232,1,69.9999976158143
192,320,84089,5,0,0:0:0:0:
248,328,84165,1,0,0:0:0:0:
304,312,84241,1,0,0:0:0:0:
208,168,84392,1,0,0:0:0:0:
416,272,84544,1,0,0:0:0:0:
464,128,84695,1,0,0:0:0:0:
288,288,84847,1,0,0:0:0:0:
288,64,84998,1,0,0:0:0:0:
448,208,85150,1,0,0:0:0:0:
176,216,85301,1,0,0:0:0:0:
392,104,85453,5,0,0:0:0:0:
344,128,85529,1,0,0:0:0:0:
288,112,85604,1,0,0:0:0:0:
264,64,85680,1,0,0:0:0:0:
208,48,85756,2,0,L|120:80,3,69.9999976158143
32,128,86059,5,0,0:0:0:0:
80,160,86135,1,0,0:0:0:0:
120,200,86211,1,0,0:0:0:0:
136,256,86286,1,0,0:0:0:0:
120,312,86362,1,0,0:0:0:0:
176,296,86438,1,0,0:0:0:0:
232,296,86514,1,0,0:0:0:0:
280,328,86589,1,0,0:0:0:0:
336,320,86665,5,0,0:0:0:0:
336,144,86817,1,0,0:0:0:0:
416,256,86968,1,0,0:0:0:0:
216,72,87120,1,0,0:0:0:0:
448,136,87271,5,0,0:0:0:0:
400,104,87347,1,0,0:0:0:0:
344,96,87423,1,0,0:0:0:0:
288,112,87498,1,0,0:0:0:0:
240,136,87574,1,0,0:0:0:0:
184,136,87650,1,0,0:0:0:0:
128,120,87726,1,0,0:0:0:0:
80,144,87801,1,0,0:0:0:0:
64,200,87877,5,0,0:0:0:0:
80,56,88029,1,0,0:0:0:0:
256,176,88180,1,0,0:0:0:0:
32,144,88332,1,0,0:0:0:0:
128,328,88483,1,0,0:0:0:0:
144,272,88559,1,0,0:0:0:0:
184,232,88635,1,0,0:0:0:0:
232,208,88711,1,0,0:0:0:0:
288,208,88786,1,0,0:0:0:0:
344,224,88862,1,0,0:0:0:0:
384,264,88938,1,0,0:0:0:0:
408,216,89014,1,0,0:0:0:0:
424,168,89089,5,0,0:0:0:0:
304,80,89241,1,0,0:0:0:0:
304,80,89392,1,0,0:0:0:0:
48,224,89695,5,0,0:0:0:0:
256,344,89847,1,0,0:0:0:0:
256,344,89998,1,0,0:0:0:0:
256,40,90301,5,0,0:0:0:0:
152,328,90503,1,0,0:0:0:0:
432,144,90706,1,0,0:0:0:0:
80,144,90908,1,0,0:0:0:0:
360,328,91110,1,0,0:0:0:0:
256,40,91312,1,0,0:0:0:0:
152,328,91514,1,0,0:0:0:0:
256,192,92726,5,0,0:0:0:0:
104,192,93635,5,0,0:0:0:0:
408,192,93938,1,0,0:0:0:0:
256,192,95150,5,0,0:0:0:0:
96,192,95604,5,0,0:0:0:0:
416,192,95756,1,0,0:0:0:0:
176,192,95958,1,0,0:0:0:0:
336,192,96160,1,0,0:0:0:0:
256,192,96362,1,0,0:0:0:0:
256,192,96968,5,0,0:0:0:0:
256,192,97574,1,0,0:0:0:0:
256,192,98180,1,0,0:0:0:0:
256,192,98483,1,0,0:0:0:0:
256,192,98786,1,0,0:0:0:0:
256,192,98938,1,0,0:0:0:0:
256,192,99089,1,0,0:0:0:0:
256,192,99241,1,0,0:0:0:0:
256,192,99392,1,0,0:0:0:0:
256,192,99468,1,0,0:0:0:0:
256,192,99544,1,0,0:0:0:0:
256,192,99620,1,0,0:0:0:0:
256,192,99695,1,0,0:0:0:0:
256,192,99771,1,0,0:0:0:0:
256,192,99847,1,0,0:0:0:0:
256,192,99923,1,0,0:0:0:0:
256,192,99998,1,0,0:0:0:0:
120,48,100604,6,0,L|208:72,1,69.9999976158143
392,48,100756,2,0,L|324:66,1,69.9999976158143
96,128,100908,2,0,L|184:152,1,69.9999976158143
416,128,101059,2,0,L|328:152,1,69.9999976158143
176,240,101211,5,0,0:0:0:0:
352,64,101362,1,0,0:0:0:0:
376,336,101514,1,0,0:0:0:0:
136,80,101665,1,0,0:0:0:0:
136,80,101741,1,0,0:0:0:0:
136,80,101817,1,0,0:0:0:0:
448,200,101968,1,0,0:0:0:0:
112,344,102120,1,0,0:0:0:0:
344,56,102271,1,0,0:0:0:0:
152,216,102423,5,0,0:0:0:0:
416,264,102574,1,0,0:0:0:0:
192,56,102726,1,0,0:0:0:0:
272,312,102877,1,0,0:0:0:0:
272,312,102953,1,0,0:0:0:0:
272,312,103029,1,0,0:0:0:0:
288,64,103180,1,0,0:0:0:0:
48,96,103332,5,0,0:0:0:0:
104,56,103408,1,0,0:0:0:0:
176,48,103483,1,0,0:0:0:0:
240,72,103559,1,0,0:0:0:0:
280,128,103635,5,0,0:0:0:0:
136,288,103786,1,0,0:0:0:0:
408,248,103938,1,0,0:0:0:0:
176,64,104089,1,0,0:0:0:0:
320,312,104241,1,0,0:0:0:0:
344,64,104392,1,0,0:0:0:0:
88,312,104544,1,0,0:0:0:0:
128,256,104620,1,0,0:0:0:0:
192,232,104695,1,0,0:0:0:0:
424,312,104847,5,0,0:0:0:0:
408,64,104998,1,0,0:0:0:0:
360,112,105074,1,0,0:0:0:0:
296,136,105150,1,0,0:0:0:0:
224,136,105226,1,0,0:0:0:0:
160,112,105301,2,0,L|128:48,5,69.9999976158143
48,136,105756,1,0,0:0:0:0:
104,176,105832,1,0,0:0:0:0:
128,240,105908,1,0,0:0:0:0:
104,304,105983,1,0,0:0:0:0:
48,344,106059,5,0,0:0:0:0:
40,328,106135,1,0,0:0:0:0:
32,312,106211,1,0,0:0:0:0:
24,296,106286,1,0,0:0:0:0:
16,280,106362,1,0,0:0:0:0:
64,96,106514,1,0,2:0:0:0:
71,112,106590,1,0,2:0:0:0:
79,128,106666,1,0,2:0:0:0:
87,144,106741,1,0,2:0:0:0:
95,160,106817,1,0,2:0:0:0:
216,312,106968,5,0,0:0:0:0:
232,304,107044,1,0,0:0:0:0:
248,296,107120,1,0,0:0:0:0:
264,288,107195,1,0,0:0:0:0:
280,280,107271,1,0,0:0:0:0:
352,264,107347,1,0,0:0:0:0:
408,224,107423,1,0,0:0:0:0:
440,160,107498,1,0,0:0:0:0:
432,88,107574,1,0,0:0:0:0:
72,256,107726,6,0,L|24:192,1,69.9999976158143
88,64,107877,1,0,0:0:0:0:
128,104,107953,1,0,0:0:0:0:
184,120,108029,1,0,0:0:0:0:
240,104,108104,1,0,0:0:0:0:
288,72,108180,1,0,0:0:0:0:
344,56,108256,1,0,0:0:0:0:
400,72,108332,1,0,0:0:0:0:
432,112,108408,1,0,0:0:0:0:
416,168,108483,5,0,0:0:0:0:
144,128,108635,1,0,0:0:0:0:
384,160,108786,1,0,0:0:0:0:
192,296,108938,1,0,0:0:0:0:
264,64,109089,1,0,0:0:0:0:
440,296,109241,1,0,0:0:0:0:
448,112,109392,1,0,0:0:0:0:
88,224,109544,5,0,0:0:0:0:
88,224,109620,1,0,0:0:0:0:
88,224,109695,1,0,0:0:0:0:
384,344,109847,5,0,0:0:0:0:
384,344,109923,1,0,0:0:0:0:
384,344,109998,1,0,0:0:0:0:
336,56,110150,5,0,0:0:0:0:
376,96,110226,1,0,0:0:0:0:
384,152,110301,1,0,0:0:0:0:
368,208,110377,1,0,0:0:0:0:
328,248,110453,1,0,0:0:0:0:
256,232,110529,1,0,0:0:0:0:
184,240,110604,1,0,0:0:0:0:
128,280,110680,1,0,0:0:0:0:
88,336,110756,1,0,0:0:0:0:
48,264,110832,1,0,0:0:0:0:
56,184,110908,5,0,0:0:0:0:
376,64,111059,1,0,0:0:0:0:
56,312,111211,1,0,0:0:0:0:
232,64,111362,1,0,0:0:0:0:
424,304,111514,1,0,0:0:0:0:
72,144,111665,1,0,0:0:0:0:
448,192,111817,1,0,0:0:0:0:
224,336,111968,1,0,0:0:0:0:
320,80,112120,5,0,0:0:0:0:
408,312,112271,1,0,0:0:0:0:
48,32,112423,2,0,L|208:88,1,139.999995231629
56,304,112726,1,0,0:0:0:0:
472,352,112877,2,0,B|480:208|296:256|296:256|296:256|304:312,1,279.999990463257
432,56,113332,5,0,0:0:0:0:
232,320,113483,1,0,0:0:0:0:
48,56,113635,1,0,0:0:0:0:
472,256,113786,1,0,0:0:0:0:
72,336,113938,1,0,0:0:0:0:
176,48,114089,1,0,0:0:0:0:
264,248,114241,1,0,0:0:0:0:
48,136,114392,1,0,0:0:0:0:
352,64,114544,5,0,0:0:0:0:
136,216,114695,1,0,0:0:0:0:
136,216,114771,1,0,0:0:0:0:
136,216,114847,1,0,0:0:0:0:
408,136,114998,1,0,0:0:0:0:
136,88,115150,1,0,0:0:0:0:
184,56,115226,1,0,0:0:0:0:
240,64,115301,1,0,0:0:0:0:
272,112,115377,1,0,0:0:0:0:
264,168,115453,1,0,0:0:0:0:
296,216,115529,1,0,0:0:0:0:
352,224,115604,1,0,0:0:0:0:
400,192,115680,1,0,0:0:0:0:
408,136,115756,5,0,0:0:0:0:
168,208,115908,1,0,0:0:0:0:
424,288,116059,1,0,0:0:0:0:
288,112,116211,1,0,0:0:0:0:
264,320,116362,1,0,0:0:0:0:
416,136,116514,1,0,0:0:0:0:
216,288,116665,1,0,0:0:0:0:
232,112,116817,1,0,0:0:0:0:
440,288,116968,5,0,0:0:0:0:
392,312,117044,1,0,0:0:0:0:
336,320,117120,1,0,0:0:0:0:
280,312,117195,1,0,0:0:0:0:
240,272,117271,1,0,0:0:0:0:
264,224,117347,1,0,0:0:0:0:
320,224,117423,1,0,0:0:0:0:
360,192,117498,1,0,0:0:0:0:
352,136,117574,1,0,0:0:0:0:
304,88,117650,1,0,0:0:0:0:
240,64,117726,1,0,0:0:0:0:
168,72,117801,1,0,0:0:0:0:
120,120,117877,1,0,0:0:0:0:
144,184,117953,1,0,0:0:0:0:
104,240,118029,1,0,0:0:0:0:
32,232,118104,1,0,0:0:0:0:
16,160,118180,6,0,L|40:72,1,69.9999976158143
496,223,118332,2,0,L|472:312,1,69.9999976158143
16,160,118483,2,0,L|40:72,1,69.9999976158143
496,223,118635,2,0,L|472:312,1,69.9999976158143
256,32,118786,5,0,0:0:0:0:
256,352,118938,2,0,L|256:184,1,139.999995231629
256,32,119241,6,0,L|256:272,1,209.999992847443
