osu file format v14

[General]
AudioFilename: yuki.mp3
AudioLeadIn: 0
PreviewTime: 1438
Countdown: 0
SampleSet: Normal
StackLeniency: 0.7
Mode: 1
LetterboxInBreaks: 0
WidescreenStoryboard: 0

[Editor]
Bookmarks: 1438,27920,54403,61024,74265,87506,100748,102403
DistanceSpacing: 1.1
BeatDivisor: 4
GridSize: 4
TimelineZoom: 2.5

[Metadata]
Title:snow storm
TitleUnicode:snow storm
Artist:dj TAKA
ArtistUnicode:dj TAKA
Creator:Eyenine
Version:Oni
Source:beatmania IIDX 14 GOLD
Tags:instrumental video game trance takayuki ishikawa konami bemani 石川貴之
BeatmapID:918879
BeatmapSetID:425440

[Difficulty]
HPDrainRate:6
CircleSize:5
OverallDifficulty:6
ApproachRate:5
SliderMultiplier:1.4
SliderTickRate:1

[Events]
//Background and Video events
0,0,"photo.jpg",0,0
//Break Periods
2,54613,59834
//Storyboard Layer 0 (Background)
//Storyboard Layer 1 (Fail)
//Storyboard Layer 2 (Pass)
//Storyboard Layer 3 (Foreground)
//Storyboard Layer 4 (Overlay)
//Storyboard Sound Samples

[TimingPoints]
1448,413.793103448276,4,1,0,82,1,0
27930,-100,4,1,0,82,0,1
54413,-100,4,1,0,92,0,0
54620,-100,4,1,0,60,0,0
74275,-100,4,1,0,92,0,1
87516,-100,4,1,0,86,0,0
102413,-100,4,1,0,92,0,1
115654,-100,4,1,0,86,0,0
122275,-100,4,1,0,92,0,1
128896,-100,4,1,0,50,0,0

[HitObjects]
184,120,1448,5,6,0:0:0:0:
252,184,1654,1,0,0:0:0:0:
320,188,1861,1,0,0:0:0:0:
320,188,1965,1,0,0:0:0:0:
288,264,2172,1,0,0:0:0:0:
288,264,2275,1,8,0:0:0:0:
192,264,2482,1,0,0:0:0:0:
104,284,2689,1,8,0:0:0:0:
184,184,3103,1,8,0:0:0:0:
287,171,3206,1,8,0:0:0:0:
400,200,3310,1,0,0:0:0:0:
404,152,3516,1,0,0:0:0:0:
404,152,3620,1,0,0:0:0:0:
368,272,3827,1,0,0:0:0:0:
368,272,3930,1,8,0:0:0:0:
256,228,4137,1,0,0:0:0:0:
256,228,4344,1,0,0:0:0:0:
124,200,4551,1,8,0:0:0:0:
124,200,4654,1,8,0:0:0:0:
184,120,4758,5,8,0:0:0:0:
252,184,4965,1,0,0:0:0:0:
320,188,5172,1,0,0:0:0:0:
320,188,5275,1,0,0:0:0:0:
288,264,5482,1,0,0:0:0:0:
288,264,5585,1,8,0:0:0:0:
192,264,5792,1,0,0:0:0:0:
104,284,5999,1,8,0:0:0:0:
184,184,6413,1,8,0:0:0:0:
268,198,6516,1,8,0:0:0:0:
400,200,6620,1,0,0:0:0:0:
404,152,6827,1,0,0:0:0:0:
404,152,6930,1,0,0:0:0:0:
368,272,7137,1,0,0:0:0:0:
368,272,7241,1,8,0:0:0:0:
256,228,7448,1,0,0:0:0:0:
256,228,7654,1,0,0:0:0:0:
124,200,7861,1,8,0:0:0:0:
124,200,7965,1,8,0:0:0:0:
184,120,8068,5,8,0:0:0:0:
252,184,8275,1,0,0:0:0:0:
320,188,8482,1,0,0:0:0:0:
320,188,8585,1,0,0:0:0:0:
288,264,8792,1,0,0:0:0:0:
288,264,8896,1,8,0:0:0:0:
192,264,9103,1,0,0:0:0:0:
104,284,9310,1,8,0:0:0:0:
184,184,9723,1,8,0:0:0:0:
267,193,9827,1,8,0:0:0:0:
400,200,9930,1,0,0:0:0:0:
404,152,10137,1,0,0:0:0:0:
404,152,10241,1,0,0:0:0:0:
368,272,10448,1,0,0:0:0:0:
368,272,10551,1,2,0:0:0:0:
256,228,10758,1,0,0:0:0:0:
256,228,10965,1,0,0:0:0:0:
124,200,11172,1,8,0:0:0:0:
124,200,11275,1,8,0:0:0:0:
184,120,11379,5,8,0:0:0:0:
252,184,11585,1,0,0:0:0:0:
320,188,11792,1,0,0:0:0:0:
320,188,11896,1,0,0:0:0:0:
288,264,12103,1,0,0:0:0:0:
288,264,12206,1,8,0:0:0:0:
192,264,12413,1,0,0:0:0:0:
104,284,12620,1,0,0:0:0:0:
236,176,12827,1,0,0:0:0:0:
168,192,12930,1,8,0:0:0:0:
168,192,13034,1,8,0:0:0:0:
144,120,13344,1,8,0:0:0:0:
144,120,13448,1,8,0:0:0:0:
100,192,13758,1,8,0:0:0:0:
100,192,13861,1,0,0:0:0:0:
408,228,14068,1,0,0:0:0:0:
404,232,14275,1,8,0:0:0:0:
316,212,14482,1,8,0:0:0:0:
184,120,14689,5,12,0:0:0:0:
252,184,14896,1,0,0:0:0:0:
320,188,15103,1,0,0:0:0:0:
320,188,15206,1,0,0:0:0:0:
288,264,15413,1,0,0:0:0:0:
288,264,15516,1,8,0:0:0:0:
192,264,15723,1,0,0:0:0:0:
104,284,15930,1,8,0:0:0:0:
184,184,16344,1,8,0:0:0:0:
266,190,16448,1,0,0:0:0:0:
400,200,16551,1,0,0:0:0:0:
404,152,16758,1,0,0:0:0:0:
404,152,16861,1,0,0:0:0:0:
368,272,17068,1,0,0:0:0:0:
368,272,17172,1,8,0:0:0:0:
256,228,17379,1,0,0:0:0:0:
256,228,17585,1,0,0:0:0:0:
124,200,17792,1,8,0:0:0:0:
124,200,17896,1,8,0:0:0:0:
184,120,17999,5,8,0:0:0:0:
252,184,18206,1,0,0:0:0:0:
320,188,18413,1,0,0:0:0:0:
320,188,18516,1,0,0:0:0:0:
288,264,18723,1,8,0:0:0:0:
288,264,18827,1,8,0:0:0:0:
192,264,19034,1,0,0:0:0:0:
104,284,19241,1,8,0:0:0:0:
176,88,19551,1,0,0:0:0:0:
184,184,19654,1,8,0:0:0:0:
104,148,19758,1,8,0:0:0:0:
296,96,19965,1,8,0:0:0:0:
296,96,20068,1,8,0:0:0:0:
296,96,20172,1,8,0:0:0:0:
360,176,20379,1,8,0:0:0:0:
360,176,20482,1,8,0:0:0:0:
328,220,20585,1,0,0:0:0:0:
328,220,20792,1,0,0:0:0:0:
176,244,20896,1,8,0:0:0:0:
252,184,21103,1,0,0:0:0:0:
76,256,21206,1,0,0:0:0:0:
184,120,21310,5,8,0:0:0:0:
252,184,21516,1,0,0:0:0:0:
320,188,21723,1,0,0:0:0:0:
320,188,21827,1,0,0:0:0:0:
288,264,22034,1,0,0:0:0:0:
288,264,22137,1,8,0:0:0:0:
192,264,22344,1,0,0:0:0:0:
104,284,22551,1,8,0:0:0:0:
196,116,22861,1,8,0:0:0:0:
184,184,22965,1,8,0:0:0:0:
400,200,23172,1,0,0:0:0:0:
404,152,23379,1,0,0:0:0:0:
404,152,23482,1,0,0:0:0:0:
368,272,23689,1,8,0:0:0:0:
368,272,23792,1,8,0:0:0:0:
256,228,23999,1,0,0:0:0:0:
256,228,24206,1,0,0:0:0:0:
124,200,24413,1,8,0:0:0:0:
124,200,24516,1,8,0:0:0:0:
184,120,24620,5,8,0:0:0:0:
252,184,24827,1,0,0:0:0:0:
320,188,25034,1,0,0:0:0:0:
320,188,25137,1,0,0:0:0:0:
288,264,25344,1,0,0:0:0:0:
288,264,25448,1,8,0:0:0:0:
192,264,25654,1,0,0:0:0:0:
104,284,25861,1,8,0:0:0:0:
184,184,26275,1,8,0:0:0:0:
100,144,26379,1,8,0:0:0:0:
124,196,26585,1,8,0:0:0:0:
124,196,26689,1,0,0:0:0:0:
124,196,26792,1,8,0:0:0:0:
152,100,26999,1,8,0:0:0:0:
332,120,27103,1,0,0:0:0:0:
332,120,27206,1,0,0:0:0:0:
332,120,27413,1,0,0:0:0:0:
332,184,27516,1,8,0:0:0:0:
224,148,27930,1,12,0:0:0:0:
296,256,28137,1,0,0:0:0:0:
296,256,28344,1,8,0:0:0:0:
424,192,28551,1,0,0:0:0:0:
424,192,28758,1,8,0:0:0:0:
424,192,28861,1,0,0:0:0:0:
424,192,28965,1,0,0:0:0:0:
424,192,29068,1,0,0:0:0:0:
424,192,29172,1,8,0:0:0:0:
172,244,29585,1,8,0:0:0:0:
216,184,29689,1,0,0:0:0:0:
168,140,29896,1,0,0:0:0:0:
212,192,29999,1,8,0:0:0:0:
268,140,30206,1,0,0:0:0:0:
268,140,30413,1,8,0:0:0:0:
268,140,30516,1,8,0:0:0:0:
344,208,30620,1,0,0:0:0:0:
284,260,30723,1,0,0:0:0:0:
284,260,30827,1,8,0:0:0:0:
200,96,31034,1,0,0:0:0:0:
200,96,31137,1,8,0:0:0:0:
224,148,31241,1,8,0:0:0:0:
296,256,31448,1,0,0:0:0:0:
296,256,31654,1,8,0:0:0:0:
424,192,31861,1,0,0:0:0:0:
424,192,32068,1,8,0:0:0:0:
424,192,32172,1,0,0:0:0:0:
424,192,32275,1,0,0:0:0:0:
424,192,32379,1,0,0:0:0:0:
424,192,32482,1,8,0:0:0:0:
172,244,32896,1,8,0:0:0:0:
216,184,32999,1,0,0:0:0:0:
168,140,33206,1,0,0:0:0:0:
212,192,33310,1,8,0:0:0:0:
268,140,33516,1,0,0:0:0:0:
268,140,33723,1,8,0:0:0:0:
268,140,33827,1,8,0:0:0:0:
344,208,33930,1,0,0:0:0:0:
284,260,34034,1,0,0:0:0:0:
284,260,34137,1,8,0:0:0:0:
200,96,34344,1,0,0:0:0:0:
200,96,34448,1,8,0:0:0:0:
224,148,34551,1,8,0:0:0:0:
296,256,34758,1,0,0:0:0:0:
296,256,34965,1,8,0:0:0:0:
424,192,35172,1,0,0:0:0:0:
424,192,35379,1,8,0:0:0:0:
424,192,35482,1,0,0:0:0:0:
424,192,35585,1,0,0:0:0:0:
424,192,35689,1,0,0:0:0:0:
424,192,35792,1,8,0:0:0:0:
172,244,36206,1,8,0:0:0:0:
216,184,36310,1,0,0:0:0:0:
144,160,36516,1,0,0:0:0:0:
212,192,36620,1,8,0:0:0:0:
268,140,36827,1,0,0:0:0:0:
268,140,37034,1,8,0:0:0:0:
268,140,37137,1,8,0:0:0:0:
344,208,37241,1,0,0:0:0:0:
284,260,37344,1,0,0:0:0:0:
284,260,37448,1,8,0:0:0:0:
200,96,37654,1,0,0:0:0:0:
200,96,37758,1,8,0:0:0:0:
224,148,37861,1,8,0:0:0:0:
296,256,38068,1,0,0:0:0:0:
296,256,38275,1,8,0:0:0:0:
424,192,38482,1,0,0:0:0:0:
424,192,38689,1,8,0:0:0:0:
424,192,38792,1,0,0:0:0:0:
424,192,38896,1,0,0:0:0:0:
424,192,38999,1,0,0:0:0:0:
424,192,39103,1,8,0:0:0:0:
168,148,39413,1,8,0:0:0:0:
168,148,39516,1,8,0:0:0:0:
348,136,39827,1,8,0:0:0:0:
124,220,39930,1,8,0:0:0:0:
236,228,40241,1,8,0:0:0:0:
236,228,40344,1,0,0:0:0:0:
136,164,40551,1,0,0:0:0:0:
136,164,40758,1,2,0:0:0:0:
136,164,40965,1,2,0:0:0:0:
224,148,41172,1,6,0:0:0:0:
296,256,41379,1,0,0:0:0:0:
296,256,41585,1,2,0:0:0:0:
424,192,41792,1,0,0:0:0:0:
424,192,41999,1,2,0:0:0:0:
424,192,42103,1,0,0:0:0:0:
424,192,42206,1,0,0:0:0:0:
424,192,42310,1,0,0:0:0:0:
424,192,42413,1,2,0:0:0:0:
172,244,42827,1,2,0:0:0:0:
216,184,42930,1,0,0:0:0:0:
196,152,43137,1,0,0:0:0:0:
212,192,43241,1,2,0:0:0:0:
268,140,43448,1,0,0:0:0:0:
268,140,43654,1,2,0:0:0:0:
268,140,43758,1,2,0:0:0:0:
344,208,43861,1,0,0:0:0:0:
284,260,43965,1,0,0:0:0:0:
284,260,44068,1,2,0:0:0:0:
200,96,44275,1,2,0:0:0:0:
200,96,44379,1,2,0:0:0:0:
224,148,44482,1,2,0:0:0:0:
296,256,44689,1,0,0:0:0:0:
296,256,44896,1,2,0:0:0:0:
68,124,45206,1,2,0:0:0:0:
424,192,45310,1,2,0:0:0:0:
424,192,45516,1,0,0:0:0:0:
424,192,45723,1,2,0:0:0:0:
188,116,46034,1,2,0:0:0:0:
172,244,46137,1,2,0:0:0:0:
280,112,46241,1,2,0:0:0:0:
372,116,46448,1,2,0:0:0:0:
372,116,46551,1,0,0:0:0:0:
372,116,46654,1,2,0:0:0:0:
256,176,46861,1,2,0:0:0:0:
340,204,46965,1,2,0:0:0:0:
340,204,47068,1,0,0:0:0:0:
340,204,47275,1,0,0:0:0:0:
340,204,47379,1,2,0:0:0:0:
272,252,47689,1,2,0:0:0:0:
224,148,47792,1,2,0:0:0:0:
296,256,47999,1,0,0:0:0:0:
296,256,48206,1,2,0:0:0:0:
144,120,48516,1,2,0:0:0:0:
424,192,48620,1,2,0:0:0:0:
424,192,48827,1,0,0:0:0:0:
424,192,49034,1,0,0:0:0:0:
208,88,49344,1,2,0:0:0:0:
172,244,49448,1,2,0:0:0:0:
216,184,49654,1,0,0:0:0:0:
212,192,49861,1,2,0:0:0:0:
104,132,50172,1,2,0:0:0:0:
268,140,50275,1,2,0:0:0:0:
344,208,50482,1,0,0:0:0:0:
284,260,50689,1,0,0:0:0:0:
200,96,50896,1,2,0:0:0:0:
200,96,50999,1,2,0:0:0:0:
224,148,51103,1,2,0:0:0:0:
296,256,51310,1,0,0:0:0:0:
296,256,51516,1,2,0:0:0:0:
424,192,51723,1,0,0:0:0:0:
424,192,51930,1,2,0:0:0:0:
424,192,52034,1,0,0:0:0:0:
424,192,52137,1,0,0:0:0:0:
424,192,52241,1,0,0:0:0:0:
424,192,52344,1,2,0:0:0:0:
172,244,52758,1,2,0:0:0:0:
144,164,52861,1,2,0:0:0:0:
308,140,53068,1,2,0:0:0:0:
264,176,53172,1,0,0:0:0:0:
224,148,53275,1,2,0:0:0:0:
300,256,53482,1,2,0:0:0:0:
372,208,53585,1,0,0:0:0:0:
160,168,53689,1,0,0:0:0:0:
160,168,53896,1,2,0:0:0:0:
316,88,53999,1,2,0:0:0:0:
152,132,54206,1,0,0:0:0:0:
120,224,54413,1,4,0:0:0:0:
192,176,61034,5,8,0:0:0:0:
300,208,61861,1,0,0:0:0:0:
300,208,62275,1,0,0:0:0:0:
300,208,62689,1,8,0:0:0:0:
200,144,63103,1,0,0:0:0:0:
152,256,63516,1,8,0:0:0:0:
244,256,63723,1,0,0:0:0:0:
248,248,63930,1,0,0:0:0:0:
184,216,64137,1,0,0:0:0:0:
224,296,64344,1,8,0:0:0:0:
180,200,64758,1,0,0:0:0:0:
320,208,64965,1,8,0:0:0:0:
248,168,65172,1,8,0:0:0:0:
248,168,65275,1,8,0:0:0:0:
176,200,65379,1,0,0:0:0:0:
176,200,65482,1,0,0:0:0:0:
172,256,65585,1,8,0:0:0:0:
208,164,65792,1,8,0:0:0:0:
208,164,65999,1,0,0:0:0:0:
300,280,66620,1,0,0:0:0:0:
300,280,66723,1,8,0:0:0:0:
300,280,66827,1,8,0:0:0:0:
332,200,67241,1,0,0:0:0:0:
192,168,67654,1,8,0:0:0:0:
192,168,67792,1,0,0:0:0:0:
192,168,67930,1,8,0:0:0:0:
192,168,68068,1,8,0:0:0:0:
144,188,68482,1,0,0:0:0:0:
192,168,68620,1,0,0:0:0:0:
192,168,68758,1,0,0:0:0:0:
192,168,68896,1,8,0:0:0:0:
140,184,69310,1,8,0:0:0:0:
192,168,69448,1,0,0:0:0:0:
192,168,69585,1,0,0:0:0:0:
192,168,69723,1,8,0:0:0:0:
168,132,70137,1,0,0:0:0:0:
192,168,70275,1,0,0:0:0:0:
192,168,70413,1,0,0:0:0:0:
192,168,70551,1,8,0:0:0:0:
376,232,70965,1,0,0:0:0:0:
192,168,71379,1,0,0:0:0:0:
192,168,71585,1,8,0:0:0:0:
192,168,71792,1,8,0:0:0:0:
192,168,71930,1,8,0:0:0:0:
192,168,72068,1,8,0:0:0:0:
192,168,72206,1,0,0:0:0:0:
180,256,72620,1,0,0:0:0:0:
192,192,73034,1,0,0:0:0:0:
196,176,73448,1,8,0:0:0:0:
240,152,73861,1,8,0:0:0:0:
120,200,74275,1,12,0:0:0:0:
208,280,74482,1,0,0:0:0:0:
352,232,74585,1,8,0:0:0:0:
288,236,74792,1,8,0:0:0:0:
288,236,74896,1,8,0:0:0:0:
288,236,75103,1,8,0:0:0:0:
208,280,75310,1,0,0:0:0:0:
352,232,75413,1,8,0:0:0:0:
288,236,75620,1,8,0:0:0:0:
288,236,75723,1,8,0:0:0:0:
288,236,75930,1,0,0:0:0:0:
176,168,76137,1,0,0:0:0:0:
176,168,76241,1,8,0:0:0:0:
156,244,76448,1,0,0:0:0:0:
156,244,76551,1,8,0:0:0:0:
232,216,76758,1,8,0:0:0:0:
132,200,76965,1,0,0:0:0:0:
132,200,77068,1,8,0:0:0:0:
264,164,77275,1,0,0:0:0:0:
264,164,77379,1,8,0:0:0:0:
264,164,77585,1,0,0:0:0:0:
204,172,77792,1,8,0:0:0:0:
204,172,77896,1,0,0:0:0:0:
300,232,78103,1,8,0:0:0:0:
300,232,78206,1,0,0:0:0:0:
300,232,78413,1,8,0:0:0:0:
232,232,78620,1,0,0:0:0:0:
232,232,78723,1,8,0:0:0:0:
232,232,78930,1,0,0:0:0:0:
232,232,79034,1,8,0:0:0:0:
128,276,79241,1,0,0:0:0:0:
128,276,79344,1,8,0:0:0:0:
128,276,79448,1,8,0:0:0:0:
188,280,79654,1,0,0:0:0:0:
164,212,79861,1,8,0:0:0:0:
164,212,79965,1,8,0:0:0:0:
164,212,80068,1,8,0:0:0:0:
308,180,80275,1,8,0:0:0:0:
308,180,80482,1,8,0:0:0:0:
308,180,80896,1,12,0:0:0:0:
168,256,81103,1,0,0:0:0:0:
384,208,81310,1,8,0:0:0:0:
168,256,81413,1,8,0:0:0:0:
168,256,81516,1,0,0:0:0:0:
168,256,81620,1,0,0:0:0:0:
168,256,81723,1,8,0:0:0:0:
168,256,81930,1,0,0:0:0:0:
212,168,82034,1,0,0:0:0:0:
168,256,82137,1,8,0:0:0:0:
168,256,82344,1,0,0:0:0:0:
156,176,82551,1,8,0:0:0:0:
168,256,82758,1,0,0:0:0:0:
240,208,82965,1,8,0:0:0:0:
160,256,83068,1,0,0:0:0:0:
168,256,83172,1,0,0:0:0:0:
168,256,83275,1,0,0:0:0:0:
296,140,83379,1,8,0:0:0:0:
196,132,83585,1,0,0:0:0:0:
196,132,83792,1,8,0:0:0:0:
168,256,83896,1,0,0:0:0:0:
168,256,83999,1,0,0:0:0:0:
284,252,84206,1,0,0:0:0:0:
176,276,84620,1,0,0:0:0:0:
176,276,84723,1,0,0:0:0:0:
176,276,84827,1,8,0:0:0:0:
176,276,84930,1,8,0:0:0:0:
176,276,85034,1,8,0:0:0:0:
192,276,85241,1,0,0:0:0:0:
192,276,85344,1,8,0:0:0:0:
216,208,85448,1,8,0:0:0:0:
360,200,85654,1,8,0:0:0:0:
284,284,85861,1,0,0:0:0:0:
268,236,85965,1,8,0:0:0:0:
268,236,86068,1,0,0:0:0:0:
268,236,86172,1,8,0:0:0:0:
268,236,86275,1,0,0:0:0:0:
160,136,86482,1,8,0:0:0:0:
160,136,86585,1,8,0:0:0:0:
160,136,86689,1,0,0:0:0:0:
160,136,86792,1,0,0:0:0:0:
176,248,86999,1,0,0:0:0:0:
176,248,87103,1,0,0:0:0:0:
224,272,87310,1,0,0:0:0:0:
388,240,87516,1,0,0:0:0:0:
296,204,87930,1,8,0:0:0:0:
312,280,88137,1,0,0:0:0:0:
264,224,88344,1,0,0:0:0:0:
264,224,88448,1,0,0:0:0:0:
264,224,88551,1,0,0:0:0:0:
264,224,88758,1,8,0:0:0:0:
172,260,88965,1,0,0:0:0:0:
172,184,89172,1,0,0:0:0:0:
236,152,89585,1,8,0:0:0:0:
376,196,89792,1,0,0:0:0:0:
336,256,89999,1,0,0:0:0:0:
336,256,90103,1,0,0:0:0:0:
336,256,90206,1,0,0:0:0:0:
336,256,90413,1,8,0:0:0:0:
180,208,90620,1,0,0:0:0:0:
276,256,90827,1,0,0:0:0:0:
276,256,90930,1,0,0:0:0:0:
276,256,91034,1,8,0:0:0:0:
204,288,91241,1,0,0:0:0:0:
204,288,91344,1,0,0:0:0:0:
204,288,91448,1,8,0:0:0:0:
204,288,91654,1,0,0:0:0:0:
204,288,91758,1,0,0:0:0:0:
204,288,91861,1,8,0:0:0:0:
204,288,92068,1,0,0:0:0:0:
204,288,92172,1,0,0:0:0:0:
204,288,92275,1,8,0:0:0:0:
200,200,92482,1,0,0:0:0:0:
200,200,92689,1,8,0:0:0:0:
200,200,92792,1,8,0:0:0:0:
304,208,92896,1,0,0:0:0:0:
304,208,92999,1,8,0:0:0:0:
304,208,93103,1,0,0:0:0:0:
304,212,93310,1,8,0:0:0:0:
304,212,93413,1,0,0:0:0:0:
304,212,93620,1,8,0:0:0:0:
304,212,93723,1,8,0:0:0:0:
272,276,93930,1,8,0:0:0:0:
176,168,94137,1,0,0:0:0:0:
176,168,94551,1,0,0:0:0:0:
292,136,94965,1,0,0:0:0:0:
292,136,95068,1,0,0:0:0:0:
292,136,95172,1,0,0:0:0:0:
292,136,95275,1,0,0:0:0:0:
292,136,95379,1,8,0:0:0:0:
344,224,95792,1,0,0:0:0:0:
272,224,96206,1,0,0:0:0:0:
216,252,96620,1,8,0:0:0:0:
160,212,96827,1,0,0:0:0:0:
152,128,96930,1,0,0:0:0:0:
168,288,97034,1,8,0:0:0:0:
168,288,97137,1,8,0:0:0:0:
168,288,97241,1,0,0:0:0:0:
228,172,97448,1,0,0:0:0:0:
228,172,97654,1,8,0:0:0:0:
228,172,97861,1,8,0:0:0:0:
228,172,97965,1,8,0:0:0:0:
228,172,98068,1,0,0:0:0:0:
352,188,98275,1,0,0:0:0:0:
352,188,98482,1,0,0:0:0:0:
352,188,98585,1,0,0:0:0:0:
352,188,98689,1,8,0:0:0:0:
352,188,98792,1,0,0:0:0:0:
352,188,98896,1,0,0:0:0:0:
352,188,99103,1,0,0:0:0:0:
352,188,99206,1,0,0:0:0:0:
352,188,99310,1,8,0:0:0:0:
352,188,99413,1,8,0:0:0:0:
352,188,99516,1,0,0:0:0:0:
349,201,99723,1,8,0:0:0:0:
292,198,99930,1,8,0:0:0:0:
292,198,100034,1,8,0:0:0:0:
292,198,100137,1,8,0:0:0:0:
292,198,100344,1,0,0:0:0:0:
292,198,100448,1,8,0:0:0:0:
292,198,100551,1,8,0:0:0:0:
287,192,100654,1,0,0:0:0:0:
256,192,100758,12,0,102206,0:0:0:0:
120,200,102413,5,12,0:0:0:0:
208,280,102620,1,0,0:0:0:0:
352,232,102723,1,8,0:0:0:0:
288,236,102930,1,0,0:0:0:0:
288,236,103034,1,8,0:0:0:0:
288,236,103137,1,0,0:0:0:0:
288,236,103241,1,8,0:0:0:0:
192,112,103448,1,8,0:0:0:0:
324,140,103654,1,8,0:0:0:0:
424,176,103861,1,8,0:0:0:0:
424,176,103965,1,8,0:0:0:0:
364,248,104068,1,0,0:0:0:0:
196,248,104275,1,0,0:0:0:0:
196,244,104379,1,8,0:0:0:0:
288,264,104585,1,8,0:0:0:0:
288,264,104689,1,0,0:0:0:0:
288,264,104792,1,8,0:0:0:0:
288,264,104896,1,0,0:0:0:0:
200,188,105103,1,8,0:0:0:0:
288,208,105310,1,8,0:0:0:0:
288,208,105413,1,0,0:0:0:0:
280,140,105620,1,0,0:0:0:0:
140,148,105723,1,8,0:0:0:0:
240,192,105930,1,0,0:0:0:0:
200,120,106137,1,8,0:0:0:0:
200,120,106241,1,8,0:0:0:0:
200,120,106344,1,8,0:0:0:0:
176,232,106448,1,8,0:0:0:0:
256,244,106551,1,0,0:0:0:0:
256,244,106758,1,0,0:0:0:0:
352,236,106965,1,8,0:0:0:0:
352,236,107068,1,8,0:0:0:0:
352,236,107172,1,0,0:0:0:0:
352,236,107275,1,0,0:0:0:0:
320,120,107379,1,8,0:0:0:0:
320,120,107585,1,8,0:0:0:0:
320,120,107689,1,0,0:0:0:0:
188,140,107896,1,0,0:0:0:0:
144,196,107999,1,8,0:0:0:0:
208,108,108103,1,0,0:0:0:0:
212,224,108206,1,8,0:0:0:0:
212,224,108413,1,0,0:0:0:0:
212,224,108516,1,8,0:0:0:0:
112,176,108723,1,0,0:0:0:0:
212,224,108827,1,8,0:0:0:0:
212,224,108930,1,8,0:0:0:0:
288,132,109034,1,0,0:0:0:0:
288,132,109448,1,8,0:0:0:0:
288,132,109654,1,0,0:0:0:0:
288,132,109758,1,0,0:0:0:0:
288,132,109861,1,8,0:0:0:0:
288,132,110068,1,0,0:0:0:0:
288,132,110275,1,8,0:0:0:0:
288,132,110379,1,8,0:0:0:0:
300,216,110482,1,0,0:0:0:0:
196,184,110689,1,0,0:0:0:0:
144,156,111103,1,8,0:0:0:0:
144,156,111310,1,0,0:0:0:0:
144,156,111413,1,0,0:0:0:0:
196,120,111516,1,8,0:0:0:0:
156,244,111723,1,0,0:0:0:0:
156,244,111827,1,8,0:0:0:0:
160,240,111930,1,8,0:0:0:0:
268,260,112137,1,8,0:0:0:0:
376,160,112344,1,0,0:0:0:0:
376,160,112654,1,0,0:0:0:0:
376,160,112758,1,8,0:0:0:0:
280,160,112965,1,0,0:0:0:0:
280,160,113068,1,8,0:0:0:0:
280,160,113172,1,8,0:0:0:0:
72,148,113275,1,0,0:0:0:0:
72,148,113379,1,8,0:0:0:0:
160,164,113585,1,0,0:0:0:0:
160,164,113689,1,8,0:0:0:0:
160,164,113792,1,8,0:0:0:0:
192,236,113999,1,8,0:0:0:0:
192,236,114103,1,8,0:0:0:0:
192,236,114206,1,8,0:0:0:0:
192,236,114310,1,8,0:0:0:0:
192,232,114413,1,0,0:0:0:0:
192,232,114620,1,8,0:0:0:0:
144,216,114827,1,0,0:0:0:0:
136,252,114930,1,0,0:0:0:0:
176,148,115034,1,8,0:0:0:0:
136,252,115137,1,8,0:0:0:0:
276,192,115241,1,0,0:0:0:0:
276,192,115448,1,8,0:0:0:0:
376,228,115654,1,4,0:0:0:0:
284,136,116068,1,8,0:0:0:0:
224,244,116275,1,0,0:0:0:0:
136,272,116482,1,0,0:0:0:0:
136,272,116585,1,0,0:0:0:0:
136,272,116689,1,0,0:0:0:0:
136,272,116896,1,8,0:0:0:0:
116,192,117103,1,0,0:0:0:0:
116,192,117310,1,0,0:0:0:0:
204,176,117723,1,8,0:0:0:0:
280,240,117930,1,0,0:0:0:0:
280,240,118137,1,0,0:0:0:0:
276,240,118241,1,0,0:0:0:0:
272,240,118344,1,0,0:0:0:0:
272,240,118551,1,8,0:0:0:0:
180,260,118758,1,0,0:0:0:0:
144,196,118965,1,0,0:0:0:0:
144,196,119068,1,0,0:0:0:0:
144,196,119172,1,8,0:0:0:0:
140,200,119379,1,0,0:0:0:0:
140,200,119482,1,0,0:0:0:0:
140,200,119585,1,8,0:0:0:0:
244,176,119792,1,0,0:0:0:0:
244,176,119896,1,0,0:0:0:0:
244,176,119999,1,8,0:0:0:0:
244,176,120206,1,0,0:0:0:0:
244,176,120310,1,0,0:0:0:0:
244,176,120413,1,8,0:0:0:0:
320,192,120620,1,0,0:0:0:0:
256,284,120827,1,8,0:0:0:0:
256,284,120930,1,8,0:0:0:0:
256,284,121034,1,0,0:0:0:0:
256,284,121137,1,8,0:0:0:0:
256,284,121241,1,0,0:0:0:0:
192,232,121448,1,8,0:0:0:0:
192,232,121551,1,8,0:0:0:0:
192,232,121654,1,0,0:0:0:0:
192,232,121758,1,0,0:0:0:0:
192,232,121861,1,0,0:0:0:0:
221,168,122068,1,0,0:0:0:0:
192,232,122275,1,4,0:0:0:0:
296,200,122689,1,8,0:0:0:0:
296,200,122896,1,8,0:0:0:0:
256,216,123103,1,0,0:0:0:0:
256,216,123206,1,0,0:0:0:0:
256,216,123310,1,0,0:0:0:0:
256,216,123413,1,0,0:0:0:0:
256,216,123516,1,8,0:0:0:0:
256,144,123723,1,0,0:0:0:0:
160,200,123930,1,0,0:0:0:0:
232,288,124344,1,0,0:0:0:0:
304,264,124551,1,8,0:0:0:0:
152,288,124758,1,0,0:0:0:0:
152,288,124965,1,8,0:0:0:0:
152,284,125172,1,8,0:0:0:0:
152,284,125275,1,8,0:0:0:0:
152,284,125379,1,0,0:0:0:0:
184,184,125585,1,4,0:0:0:0:
356,224,125792,1,8,0:0:0:0:
296,256,125999,1,8,0:0:0:0:
296,256,126103,1,0,0:0:0:0:
296,256,126206,1,8,0:0:0:0:
200,248,126413,1,4,0:0:0:0:
144,192,126620,1,8,0:0:0:0:
144,192,126827,1,8,0:0:0:0:
144,192,126930,1,8,0:0:0:0:
144,192,127034,1,0,0:0:0:0:
248,128,127241,1,4,0:0:0:0:
256,212,127448,1,0,0:0:0:0:
256,212,127551,1,0,0:0:0:0:
256,212,127654,1,8,0:0:0:0:
144,140,127861,1,8,0:0:0:0:
200,244,128068,1,4,0:0:0:0:
284,264,128275,1,8,0:0:0:0:
312,216,128482,1,8,0:0:0:0:
312,216,128585,1,8,0:0:0:0:
312,216,128689,1,8,0:0:0:0:
312,216,128792,1,8,0:0:0:0:
192,176,128896,1,0,0:0:0:0:
