osu file format v14

[General]
AudioFilename: audio.mp3
AudioLeadIn: 0
PreviewTime: 37767
Countdown: 1
SampleSet: Soft
StackLeniency: 0.7
Mode: 0
LetterboxInBreaks: 0
WidescreenStoryboard: 0

[Editor]
Bookmarks: 58493,64944
DistanceSpacing: 1.2
BeatDivisor: 4
GridSize: 32
TimelineZoom: 3.599999

[Metadata]
Title:quaver
TitleUnicode:quaver
Artist:dj TAKA
ArtistUnicode:dj TAKA
Creator:StrafeCombo_
Version:Extra
Source:REFLECT BEAT limelight
Tags:
BeatmapID:2019983
BeatmapSetID:913434

[Difficulty]
HPDrainRate:5
CircleSize:4
OverallDifficulty:9.3
ApproachRate:9.4
SliderMultiplier:1.62
SliderTickRate:1

[Events]
//Background and Video events
0,0,"cropped-1600-900-699645.png",0,0
//Break Periods
//Storyboard Layer 0 (Background)
//Storyboard Layer 1 (Fail)
//Storyboard Layer 2 (Pass)
//Storyboard Layer 3 (Foreground)
//Storyboard Sound Samples

[TimingPoints]
1198,329.67032967033,4,2,0,31,1,0
1198,-192.307692307692,4,2,0,72,0,0
6472,-121.951219512195,4,2,0,67,0,0
9110,-100,4,2,0,72,0,0
13066,326.086956521739,4,2,0,72,1,0
35239,-50,4,2,0,15,0,0
35729,-40,4,2,0,15,0,0
36055,-100,4,2,0,31,0,0
36544,-100,4,2,2,8,0,0
37848,322.58064516129,4,2,0,31,1,0
37848,-66.6666666666667,4,2,0,72,0,1
59622,-666.666666666667,4,2,0,72,0,0
66235,-181.818181818181,4,2,0,5,0,0

[HitObjects]
149,190,1198,6,2,B|118:192|131:182|98:184,2,42.1199997429199
223,169,1692,2,2,B|263:156|319:178,1,84.2399994858398
218,305,2187,1,2,0:0:0:0:
302,336,2516,2,2,B|302:313|317:325|319:287,2,42.1199997429199
396,328,3011,1,2,0:0:0:0:
468,289,3505,6,2,P|468:241|455:195,1,84.2399994858398
300,102,4000,1,10,0:0:0:0:
271,281,4164,1,10,0:0:0:0:
179,121,4329,2,2,P|164:154|146:215,1,84.2399994858398
192,341,4824,1,2,0:0:0:0:
237,204,5154,2,2,B|246:161|293:135,1,84.2399994858398
218,349,5813,6,2,B|220:333|236:344|233:318,1,21.05999987146
416,160,5978,1,2,0:0:0:0:
346,357,6143,1,2,0:0:0:0:
192,160,6307,1,2,0:0:0:0:
438,298,6472,6,2,P|440:220|422:161,1,132.840002026978
218,148,7132,2,2,P|203:213|226:296,1,132.840002026978
361,155,7791,2,2,P|374:231|351:304,1,132.840002026978
283,85,8450,2,2,P|357:73|421:95,1,132.840002026978
182,77,8945,5,0,0:0:0:70:normal-hitnormal22.wav
110,160,9110,2,2,B|146:275|95:224|111:335,1,162
203,196,9604,5,0,0:0:0:70:normal-hitnormal22.wav
203,196,9769,2,4,B|185:95|231:160|223:33,1,162
304,111,10263,5,0,0:0:0:0:
304,111,10428,2,2,B|335:203|291:159|309:289,1,162
231,51,10923,5,4,0:0:0:0:
103,187,11088,1,4,0:0:0:0:
103,187,11170,1,4,0:0:0:0:
103,187,11252,2,4,P|80:210|67:238,2,40.5
223,72,11582,1,4,0:0:0:0:
223,72,11747,6,2,P|228:52|222:31,1,40.5
220,182,11912,2,2,P|217:210|220:247,3,40.5
245,247,12241,2,2,P|253:275|269:297,3,40.5
291,305,12571,2,2,P|320:313|358:297,4,40.5
288,64,13066,5,0,0:0:0:70:normal-hitnormal22.wav
416,320,13229,1,0,0:0:0:70:normal-hitnormal22.wav
416,64,13392,5,0,0:0:0:70:normal-hitnormal22.wav
288,320,13555,2,2,P|282:275|299:231,1,81
261,107,13881,5,0,0:0:0:70:normal-hitnormal22.wav
335,294,14044,1,0,0:0:0:70:normal-hitnormal22.wav
335,132,14207,5,0,0:0:0:70:normal-hitnormal22.wav
236,340,14370,1,0,0:0:0:70:normal-hitnormal22.wav
354,207,14533,5,0,0:0:0:70:normal-hitnormal22.wav
136,284,14696,1,0,0:0:0:70:normal-hitnormal22.wav
332,295,14859,5,0,0:0:0:70:normal-hitnormal22.wav
60,165,15022,1,0,0:0:0:70:normal-hitnormal22.wav
235,319,15185,5,0,0:0:0:70:normal-hitnormal22.wav
135,35,15348,1,0,0:0:0:70:normal-hitnormal22.wav
404,317,15511,6,2,P|411:250|411:214,2,81
264,154,16000,2,2,P|261:210|249:260,1,81
225,338,16326,2,2,P|164:324|123:329,1,81,6|2,0:0|0:0,0:0:0:0:
113,218,16652,2,2,P|180:209|220:187,1,81
311,119,16979,1,0,0:0:0:70:normal-hitnormal22.wav
309,331,17142,1,0,0:0:0:70:normal-hitnormal22.wav
189,169,17305,2,2,P|151:206|145:267,1,81
324,169,17631,2,2,P|332:218|334:272,1,81
299,96,17957,1,0,0:0:0:70:normal-hitnormal22.wav
178,356,18120,1,0,0:0:0:70:normal-hitnormal22.wav
73,111,18283,6,2,P|71:84|76:17,1,81
202,106,18609,2,2,P|205:136|195:195,1,81
282,317,18935,2,2,P|279:252|271:233,1,81
179,63,19261,1,0,0:0:0:70:normal-hitnormal22.wav
88,280,19424,1,0,0:0:0:70:normal-hitnormal22.wav
312,246,19587,2,2,P|300:205|282:160,1,81
48,367,19913,5,0,0:0:0:70:normal-hitnormal22.wav
268,192,20076,1,0,0:0:0:70:normal-hitnormal22.wav
29,242,20239,5,0,0:0:0:70:normal-hitnormal22.wav
308,273,20402,1,0,0:0:0:70:normal-hitnormal22.wav
85,117,20565,5,0,0:0:0:70:normal-hitnormal22.wav
260,336,20728,1,0,0:0:0:70:normal-hitnormal22.wav
193,77,20892,5,0,0:0:0:70:normal-hitnormal22.wav
161,355,21055,1,0,0:0:0:70:normal-hitnormal22.wav
314,86,21218,5,0,0:0:0:70:normal-hitnormal22.wav
94,260,21381,1,0,0:0:0:70:normal-hitnormal22.wav
327,135,21544,6,0,P|317:73|328:30,1,81
231,220,21870,2,0,P|223:287|195:326,1,81
133,182,22196,2,0,P|131:104|121:80,1,81
254,213,22523,2,0,P|256:264|276:305,1,81
72,284,22849,6,0,P|85:210|85:178,1,81
249,113,23174,2,0,P|238:162|249:198,1,81
86,126,23500,5,0,0:0:0:70:normal-hitnormal22.wav
171,374,23662,1,0,0:0:0:70:normal-hitnormal22.wav
204,28,23826,5,0,0:0:0:70:normal-hitnormal22.wav
88,263,23988,1,0,0:0:0:70:normal-hitnormal22.wav
268,90,24152,6,2,P|253:128|245:168,1,81
381,285,24478,1,0,0:0:0:70:normal-hitnormal22.wav
87,144,24642,1,0,0:0:0:70:normal-hitnormal22.wav
111,258,24805,5,0,0:0:0:70:normal-hitnormal22.wav
53,354,24968,1,0,0:0:0:70:normal-hitnormal22.wav
27,243,25131,1,0,0:0:0:70:normal-hitnormal22.wav
149,163,25294,2,2,P|208:169|264:191,1,81
70,47,25620,2,2,P|115:44|185:60,1,81
77,198,25946,5,0,0:0:0:70:normal-hitnormal22.wav
362,114,26109,1,0,0:0:0:70:normal-hitnormal22.wav
151,279,26272,5,0,0:0:0:70:normal-hitnormal22.wav
386,213,26435,1,0,0:0:0:70:normal-hitnormal22.wav
120,179,26598,5,0,0:0:0:70:normal-hitnormal22.wav
333,298,26761,1,0,0:0:0:70:normal-hitnormal22.wav
169,87,26924,5,0,0:0:0:70:normal-hitnormal22.wav
235,322,27087,1,0,0:0:0:70:normal-hitnormal22.wav
268,56,27250,5,0,0:0:0:70:normal-hitnormal22.wav
149,269,27413,1,0,0:0:0:70:normal-hitnormal22.wav
361,104,27576,5,0,0:0:0:70:normal-hitnormal22.wav
125,171,27739,1,0,0:0:0:70:normal-hitnormal22.wav
391,204,27902,5,0,0:0:0:70:normal-hitnormal22.wav
178,85,28065,1,0,0:0:0:70:normal-hitnormal22.wav
343,297,28229,5,0,0:0:0:70:normal-hitnormal22.wav
277,61,28392,2,4,P|305:112|307:154,2,81
95,296,28881,1,0,0:0:0:70:normal-hitnormal22.wav
125,103,29044,1,0,0:0:0:70:normal-hitnormal22.wav
271,251,29207,1,0,0:0:0:70:normal-hitnormal22.wav
161,199,29370,2,4,P|205:128|226:102,1,81
417,296,29696,5,0,0:0:0:70:normal-hitnormal22.wav
387,103,29859,1,0,0:0:0:70:normal-hitnormal22.wav
241,251,30022,1,0,0:0:0:70:normal-hitnormal22.wav
351,199,30185,2,4,P|346:164|331:135,2,40.5
152,320,30511,5,0,0:0:0:70:normal-hitnormal22.wav
194,97,30674,1,0,0:0:0:70:normal-hitnormal22.wav
292,264,30837,2,2,P|300:226|300:169,1,81
193,229,31163,1,0,0:0:0:70:normal-hitnormal22.wav
47,236,31326,6,2,P|46:313|56:346,1,81
202,101,31652,1,0,0:0:0:0:
348,264,31815,2,2,P|356:330|342:371,1,81
102,98,32142,5,0,0:0:0:70:normal-hitnormal22.wav
411,253,32305,1,0,0:0:0:70:normal-hitnormal22.wav
213,16,32468,5,0,0:0:0:70:normal-hitnormal22.wav
322,344,32631,1,0,0:0:0:70:normal-hitnormal22.wav
350,38,32794,5,0,0:0:0:70:normal-hitnormal22.wav
195,347,32957,1,0,0:0:0:70:normal-hitnormal22.wav
431,149,33120,5,0,0:0:0:70:normal-hitnormal22.wav
103,258,33283,1,0,0:0:0:70:normal-hitnormal22.wav
410,286,33446,5,0,0:0:0:70:normal-hitnormal22.wav
101,131,33609,1,0,0:0:0:70:normal-hitnormal22.wav
101,131,33772,1,0,0:0:0:70:normal-hitnormal22.wav
279,177,33935,6,4,P|269:203|245:223,3,40.5
260,276,34261,2,4,P|274:299|311:333,3,40.5
332,334,34587,2,4,P|387:331|398:324,3,40.5
420,303,34913,2,4,P|434:266|432:238,3,40.5
372,196,35239,2,4,L|365:157,11,40.5
303,134,35729,2,4,B|311:109|295:104|302:83,7,50.625
257,218,36055,2,4,L|247:312,2,81
195,139,36544,5,0,0:0:0:40:soft-hitclap22.wav
363,310,36707,1,0,0:0:0:40:soft-hitclap22.wav
186,141,36870,5,0,0:0:0:40:soft-hitclap22.wav
412,135,37033,1,0,0:0:0:40:soft-hitclap22.wav
175,138,37196,5,0,0:0:0:40:soft-hitclap22.wav
465,289,37359,1,0,0:0:0:40:soft-hitclap22.wav
159,136,37522,5,0,0:0:0:40:soft-hitclap22.wav
444,27,37685,1,0,0:0:0:40:soft-hitclap22.wav
133,190,37848,6,4,P|225:187|300:203,1,121.500004634857
57,146,38170,2,4,P|58:78|72:21,1,121.500004634857
96,307,38493,2,4,P|180:303|217:280,1,121.500004634857
325,108,38815,2,4,P|323:192|299:254,1,121.500004634857
160,64,39138,5,0,0:0:0:70:soft-hitclap22.wav
320,352,39299,1,0,0:0:0:70:soft-hitclap22.wav
320,64,39460,5,0,0:0:0:70:soft-hitclap22.wav
160,352,39621,1,0,0:0:0:70:soft-hitclap22.wav
253,254,39783,6,4,P|312:236|383:197,1,121.500004634857
194,131,40106,2,4,P|130:115|54:128,1,121.500004634857
64,96,40428,5,0,0:0:0:70:soft-hitclap22.wav
448,288,40589,1,0,0:0:0:70:soft-hitclap22.wav
64,288,40751,5,0,0:0:0:70:soft-hitclap22.wav
448,96,40912,1,0,0:0:0:70:soft-hitclap22.wav
332,327,41073,6,4,P|328:232|314:169,1,121.500004634857
160,96,41396,5,0,0:0:0:70:soft-hitclap22.wav
160,320,41557,1,0,0:0:0:70:soft-hitclap22.wav
320,96,41718,6,4,P|352:160|320:256,1,121.500004634857
160,64,42041,5,0,0:0:0:70:soft-hitclap22.wav
128,352,42202,1,0,0:0:0:70:soft-hitclap22.wav
328,78,42363,2,4,P|334:198|327:233,1,121.500004634857
160,32,42686,5,0,0:0:0:70:soft-hitclap22.wav
96,384,42847,1,0,0:0:0:70:soft-hitclap22.wav
339,60,43008,2,4,P|346:199|337:239,1,121.500004634857
432,172,43331,6,4,P|426:111|413:52,1,121.500004634857
160,32,43654,5,0,0:0:0:70:soft-hitclap22.wav
320,352,43815,1,0,0:0:0:70:soft-hitclap22.wav
320,32,43977,5,0,0:0:0:70:soft-hitclap22.wav
160,352,44138,1,0,0:0:0:70:soft-hitclap22.wav
87,197,44299,6,4,P|75:119|102:63,1,121.500004634857
238,95,44622,2,4,P|258:149|238:229,1,121.500004634857
480,64,44944,5,0,0:0:0:70:soft-hitclap22.wav
32,320,45104,1,0,0:0:0:70:soft-hitclap22.wav
480,320,45265,5,0,0:0:0:70:soft-hitclap22.wav
32,64,45427,1,0,0:0:0:70:soft-hitclap22.wav
161,173,45589,6,4,P|152:130|183:41,1,121.500004634857
320,55,45912,2,4,P|342:91|325:188,1,121.500004634857
64,256,46235,5,0,0:0:0:70:soft-hitclap22.wav
448,128,46396,1,0,0:0:0:70:soft-hitclap22.wav
64,128,46557,5,0,0:0:0:70:soft-hitclap22.wav
448,256,46718,1,0,0:0:0:70:soft-hitclap22.wav
160,96,46880,5,0,0:0:0:70:soft-hitclap22.wav
320,288,47042,1,0,0:0:0:70:soft-hitclap22.wav
320,96,47202,5,0,0:0:0:70:soft-hitclap22.wav
160,288,47364,1,0,0:0:0:70:soft-hitclap22.wav
160,32,47525,5,0,0:0:0:70:soft-hitclap22.wav
320,352,47687,1,0,0:0:0:70:soft-hitclap22.wav
320,32,47847,5,0,0:0:0:70:soft-hitclap22.wav
160,352,48009,1,0,0:0:0:70:soft-hitclap22.wav
321,273,48170,6,4,P|320:187|283:136,1,121.500004634857
132,266,48493,2,4,P|132:340|177:396,1,121.500004634857
211,118,48815,2,4,P|151:79|54:79,1,121.500004634857
306,271,49138,2,4,P|363:232|457:241,1,121.500004634857
114,255,49460,2,4,P|85:187|85:110,1,121.500004634857
259,87,49783,2,4,P|272:176|256:241,1,121.500004634857
184,288,50106,2,4,P|241:308|302:311,1,121.500004634857
297,126,50429,2,4,P|237:117|178:128,1,121.500004634857
160,64,50751,5,0,0:0:0:70:soft-hitclap22.wav
160,288,50912,1,0,0:0:0:70:soft-hitclap22.wav
320,64,51073,5,0,0:0:0:70:soft-hitclap22.wav
320,288,51235,1,0,0:0:0:70:soft-hitclap22.wav
160,32,51396,5,0,0:0:0:70:soft-hitclap22.wav
320,320,51557,1,0,0:0:0:70:soft-hitclap22.wav
320,32,51718,5,0,0:0:0:70:soft-hitclap22.wav
160,320,51880,1,0,0:0:0:70:soft-hitclap22.wav
64,128,52041,5,0,0:0:0:70:soft-hitclap22.wav
448,128,52202,1,0,0:0:0:70:soft-hitclap22.wav
64,288,52364,5,0,0:0:0:70:soft-hitclap22.wav
448,288,52525,1,0,0:0:0:70:soft-hitclap22.wav
32,288,52686,5,0,0:0:0:70:soft-hitclap22.wav
480,128,52847,1,0,0:0:0:70:soft-hitclap22.wav
32,128,53009,5,0,0:0:0:70:soft-hitclap22.wav
480,288,53170,1,0,0:0:0:70:soft-hitclap22.wav
154,146,53331,6,2,P|137:174|134:210,3,60.7500023174287
207,187,53654,2,2,P|224:217|230:263,3,60.7500023174287
263,149,53977,2,2,P|270:108|286:65,3,60.7500023174287
320,193,54299,2,2,P|325:217|317:287,3,60.7500023174287
347,137,54622,2,2,P|349:108|377:62,3,60.7500023174287
401,171,54944,2,2,P|400:212|390:265,3,60.7500023174287
334,286,55267,2,2,P|319:322|315:366,3,60.7500023174287
390,281,55589,2,2,P|393:320|387:358,1,60.7500023174287
170,313,55751,2,2,P|163:270|183:213,1,60.7500023174287
470,347,55912,6,8,B|481:200|384:268|378:115,1,243.000009269715
246,197,56396,1,0,0:0:0:70:normal-hitnormal22.wav
80,295,56557,2,8,P|82:203|98:155,1,121.500004634857,8|4,0:0|0:0,0:0:0:70:soft-hitclap22.wav
227,105,56880,1,0,0:0:0:70:normal-hitnormal22.wav
156,313,57041,5,0,0:0:0:70:normal-hitnormal22.wav
156,313,57203,2,2,L|46:261,1,121.500004634857
356,236,57525,1,0,0:0:0:70:normal-hitnormal22.wav
356,236,57686,2,2,P|376:178|373:109,1,121.500004634857
130,50,58009,1,0,0:0:0:70:normal-hitnormal22.wav
130,50,58170,2,2,P|217:48|271:61,1,121.500004634857
192,96,58493,5,0,0:0:0:70:soft-hitclap22.wav
320,256,58654,1,0,0:0:0:70:soft-hitclap22.wav
320,96,58815,5,0,0:0:0:70:soft-hitclap22.wav
192,256,58976,1,0,0:0:0:70:soft-hitclap22.wav
192,32,59138,5,0,0:0:0:70:soft-hitclap22.wav
320,320,59299,1,0,0:0:0:70:soft-hitclap22.wav
320,32,59460,5,0,0:0:0:70:soft-hitclap22.wav
192,320,59622,2,0,B|320:32|320:288|416:0,1,400.949987763977
