osu file format v14

[General]
AudioFilename: audio.mp3
AudioLeadIn: 0
PreviewTime: 37767
Countdown: 0
SampleSet: Soft
StackLeniency: 0.6
Mode: 0
LetterboxInBreaks: 0
WidescreenStoryboard: 1

[Editor]
Bookmarks: 1198,6472,11747,13066,18283,23500,28718,33935,37848,43009,48170,53331,58493,63654
DistanceSpacing: 2
BeatDivisor: 8
GridSize: 16
TimelineZoom: 2

[Metadata]
Title:quaver
TitleUnicode:quaver ♪
Artist:dj TAKA
ArtistUnicode:dj TAKA
Creator:Sotarks
Version:Kencho's Extra
Source:REFLEC BEAT limelight
Tags:risk junk beatmania IIDX 19 Lincle jubeat saucer jukebeat KONAMI music pack 25 pop'n music Sunny Park plus MUSIC PACK 29 + ポップンリズミン パック1 MUSIC PACK 19 cut edit short ver version akitoshi corinn -laura- myxomatosis desperate-kun shunao shogunmoon kencho yukiyo snownino_ reform kujinn yuii- eiri- ayyri doormat lasse onlybiscuit armin a_r_m_i_n kyuukai yaleufeu nevo monstrata fieryrage fiery
BeatmapID:1836274
BeatmapSetID:873811

[Difficulty]
HPDrainRate:5.4
CircleSize:4.1
OverallDifficulty:8.3
ApproachRate:9.2
SliderMultiplier:1.6
SliderTickRate:1

[Events]
//Background and Video events
0,0,"bg.jpg",0,0
//Break Periods
//Storyboard Layer 0 (Background)
//Storyboard Layer 1 (Fail)
//Storyboard Layer 2 (Pass)
//Storyboard Layer 3 (Foreground)
//Storyboard Sound Samples

[TimingPoints]
1198,329.67032967033,4,2,22,30,1,0
1198,-166.666666666667,4,2,22,30,0,0
6472,-100,4,2,22,50,0,0
11747,-100,4,2,22,40,0,0
12406,-100,4,2,22,50,0,0
12571,-125,4,2,22,50,0,0
12736,-166.666666666667,4,2,22,50,0,0
12901,-250,4,2,22,50,0,0
13066,326.086956521739,4,2,22,60,1,0
13066,-100,4,2,22,60,0,0
14370,-83.3333333333333,4,2,22,60,0,0
15674,-100,4,2,22,60,0,0
22033,-83.3333333333333,4,2,22,60,0,0
22848,-66.6666666666667,4,2,22,60,0,0
23500,-100,4,2,22,60,0,0
24805,-83.3333333333333,4,2,22,60,0,0
26109,-100,4,2,22,60,0,0
32631,-83.3333333333333,4,2,22,60,0,0
33283,-66.6666666666667,4,2,22,60,0,0
33935,-83.3333333333333,4,2,22,60,0,0
34587,-71.4285714285714,4,2,22,60,0,0
35239,-62.5,4,2,22,50,0,0
35892,-55.5555555555556,4,2,22,40,0,0
36218,-100,4,2,22,60,0,0
36544,-100,4,2,22,50,0,0
36870,-125,4,2,22,45,0,0
37196,-166.666666666667,4,2,22,40,0,0
37522,-250,4,2,22,35,0,0
37848,322.58064516129,4,2,22,70,1,1
37848,-83.3333333333333,4,2,22,70,0,1
48089,-83.3333333333333,4,2,22,70,0,0
48170,-71.4285714285714,4,2,22,80,0,1
53331,-71.4285714285714,4,2,22,70,0,0
57202,-66.6666666666667,4,2,22,80,0,0
58493,-66.6666666666667,4,2,22,90,0,1
59622,-66.6666666666667,4,2,22,90,0,0
59662,-100,4,2,22,90,0,0
59783,-100,4,2,22,85,0,0
60106,-100,4,2,22,80,0,0
60428,-100,4,2,22,75,0,0
60751,-100,4,2,22,70,0,0
61073,-100,4,2,22,65,0,0
61396,-100,4,2,22,60,0,0
61718,-100,4,2,22,55,0,0
62041,-100,4,2,22,50,0,0
62364,-100,4,2,22,45,0,0
62686,-100,4,2,22,40,0,0
63009,-100,4,2,22,35,0,0
63331,-100,4,2,22,30,0,0
63654,-100,4,2,22,25,0,0
63977,-100,4,2,22,20,0,0
64299,-100,4,2,22,15,0,0
64622,-100,4,2,22,10,0,0
64944,-100,4,2,22,5,0,0

[Colours]
Combo1 : 114,102,255
Combo2 : 255,247,91
Combo3 : 104,255,209
Combo4 : 220,168,255

[HitObjects]
186,44,1198,6,0,P|189:91|170:135,1,95.9999970703126,2|0,0:0|0:0,0:0:0:0:
89,188,1692,2,0,L|101:283,1,95.9999970703126,2|0,0:0|0:0,0:0:0:0:
184,366,2187,2,0,L|190:318,1,47.9999985351563,2|0,0:0|0:0,0:0:0:0:
256,167,2516,6,0,L|268:262,1,95.9999970703126,2|0,0:0|0:0,0:0:0:0:
351,345,3011,2,0,L|363:250,1,95.9999970703126,2|0,0:0|0:0,0:0:0:0:
452,190,3505,2,0,L|458:237,1,47.9999985351563,2|0,0:0|0:0,0:0:0:0:
351,154,3835,6,0,P|375:113|416:89,1,95.9999970703126,2|0,0:0|0:0,0:0:0:0:
511,101,4329,2,0,L|416:89,1,95.9999970703126,2|0,0:0|0:0,0:0:0:0:
303,160,4824,2,0,L|350:154,1,47.9999985351563,2|0,0:0|0:0,0:0:0:0:
494,244,5154,6,0,L|399:232,1,95.9999970703126,2|2,0:0|0:0,0:0:0:0:
399,232,5813,5,2,3:2:0:0:
260,272,5978,1,0,3:0:0:0:
260,272,6060,1,0,3:0:0:0:
260,272,6143,1,2,3:2:0:0:
303,160,6307,1,0,1:0:0:0:
356,344,6472,5,6,1:2:0:0:
217,384,6802,1,2,0:0:0:0:
121,232,7132,5,2,0:0:0:0:
260,272,7461,1,2,0:0:0:0:
442,120,7791,5,2,0:0:0:0:
303,160,8121,1,2,0:0:0:0:
207,8,8450,5,2,0:0:0:0:
346,48,8780,1,2,0:0:0:0:
262,134,8945,1,0,1:0:0:0:
442,120,9110,5,6,1:2:0:0:
178,220,9439,1,2,0:0:0:0:
262,134,9604,1,0,1:0:0:0:
82,148,9769,5,6,1:2:0:0:
358,206,10099,1,2,0:0:0:0:
274,292,10263,1,0,1:0:0:0:
454,278,10428,37,2,1:2:0:0:
300,183,10593,1,0,1:2:0:0:
369,349,10758,1,2,1:2:0:0:
412,175,10923,1,0,1:2:0:0:
274,292,11088,1,2,1:2:0:0:
274,292,11170,2,0,L|197:273,1,80,0|0,1:2|1:2,0:0:0:0:
136,199,11417,1,2,1:2:0:0:
213,372,11582,1,0,1:2:0:0:
362,255,11747,6,0,P|373:217|369:178,1,80,2|0,0:0|0:0,0:0:0:0:
243,64,12077,2,0,P|232:102|236:141,1,80,2|0,0:0|3:0,0:0:0:0:
250,180,12324,1,0,3:0:0:0:
250,180,12406,6,0,L|278:209,1,40,0|0,3:0|0:0,0:0:0:0:
140,70,12571,6,0,L|135:38,1,32,0|0,3:0|0:0,0:0:0:0:
165,224,12736,6,0,L|153:245,1,23.9999992675781,0|0,3:2|0:0,0:0:0:0:
235,85,12901,6,0,L|249:77,1,16,0|0,3:0|0:0,0:0:0:0:
97,156,13066,6,0,P|66:131|47:96,1,80,6|0,1:2|0:2,0:0:0:0:
250,180,13392,2,0,P|260:219|255:258,1,80,10|0,0:2|0:2,0:0:0:0:
140,70,13718,2,0,P|154:33|181:4,1,80,2|0,1:2|0:2,0:0:0:0:
165,224,14044,2,0,P|131:246|93:253,1,80,10|0,0:2|0:2,0:0:0:0:
235,85,14370,6,0,L|250:179,1,95.9999970703126,2|0,1:2|0:2,0:0:0:0:
440,210,14696,2,0,L|346:195,1,95.9999970703126,10|0,0:2|0:2,0:0:0:0:
375,384,15022,2,0,L|360:290,1,95.9999970703126,2|0,1:2|0:2,0:0:0:0:
170,259,15348,2,0,L|264:274,1,95.9999970703126,10|0,0:2|0:2,0:0:0:0:
384,292,15674,5,2,1:2:0:0:
408,134,15837,1,2,0:2:0:0:
265,274,16000,1,10,0:2:0:0:
289,116,16163,1,0,0:2:0:0:
372,270,16326,5,2,1:2:0:0:
390,151,16489,1,2,0:2:0:0:
282,256,16652,1,8,0:2:0:0:
300,138,16816,1,0,0:2:0:0:
139,270,16979,5,2,1:2:0:0:
121,151,17142,1,2,0:2:0:0:
229,256,17305,1,10,0:2:0:0:
211,138,17468,1,0,0:2:0:0:
128,292,17631,5,2,1:2:0:0:
104,134,17794,1,2,1:2:0:0:
247,274,17957,1,10,1:2:0:0:
223,116,18120,1,0,1:2:0:0:
60,258,18283,6,0,L|139:270,1,80,6|0,1:2|0:2,0:0:0:0:
305,340,18609,1,10,0:2:0:0:
256,188,18772,1,0,0:2:0:0:
452,258,18935,2,0,L|373:270,1,80,2|0,1:2|0:2,0:0:0:0:
207,340,19261,1,10,1:2:0:0:
256,188,19424,1,0,1:2:0:0:
373,270,19587,5,2,1:2:0:0:
139,270,19750,1,2,0:2:0:0:
139,270,19832,1,0,0:0:0:0:
139,270,19913,2,0,L|60:258,1,80,10|0,0:2|0:2,0:0:0:0:
207,340,20239,5,2,1:2:0:0:
256,188,20402,1,2,1:2:0:0:
373,270,20565,5,10,0:2:0:0:
324,118,20729,1,0,1:2:0:0:
452,258,20892,6,0,L|373:270,1,80,2|0,1:2|0:2,0:0:0:0:
207,340,21218,1,10,0:2:0:0:
256,188,21381,1,0,0:2:0:0:
60,258,21544,2,0,L|139:270,1,80,2|0,1:2|0:2,0:0:0:0:
305,340,21870,1,10,0:2:0:0:
256,188,22033,6,0,B|236:128|236:128|256:66|256:66|236:6,1,191.999994140625,0|0,1:2|3:2,0:0:0:0:
162,67,22522,1,2,0:2:0:0:
330,127,22685,1,0,3:2:0:0:
165,162,22848,6,0,P|135:159|109:146,1,60.0000022888184,2|0,1:2|1:2,0:0:0:0:
327,32,23011,2,0,P|357:35|383:48,1,60.0000022888184,0|0,0:0|1:2,0:0:0:0:
256,188,23174,1,2,1:2:0:0:
236,6,23337,1,0,0:2:0:0:
403,79,23500,6,0,L|412:158,1,80,6|0,1:2|0:2,0:0:0:0:
247,87,23826,2,0,L|320:119,1,80,10|0,0:2|0:2,0:0:0:0:
175,226,24152,2,0,L|239:179,1,80,2|0,1:2|0:2,0:0:0:0:
260,358,24479,2,0,L|251:279,1,80,10|0,0:2|0:2,0:0:0:0:
71,205,24805,6,0,L|60:300,1,95.9999970703126,2|0,1:2|0:2,0:0:0:0:
251,278,25131,2,0,L|156:289,1,95.9999970703126,10|0,0:2|0:2,0:0:0:0:
178,98,25457,2,0,L|167:193,1,95.9999970703126,2|0,1:2|0:2,0:0:0:0:
358,171,25783,2,0,L|263:182,1,95.9999970703126,10|0,0:2|0:2,0:0:0:0:
448,64,26109,5,2,1:2:0:0:
408,280,26272,1,2,0:2:0:0:
343,90,26435,1,10,0:2:0:0:
401,260,26598,1,0,0:2:0:0:
269,169,26761,5,2,1:2:0:0:
384,248,26924,1,2,0:2:0:0:
268,277,27087,1,10,0:2:0:0:
365,253,27250,1,0,0:2:0:0:
147,253,27413,5,2,1:2:0:0:
244,277,27576,1,2,0:2:0:0:
128,248,27739,1,10,0:2:0:0:
243,169,27902,1,0,0:2:0:0:
111,260,28065,5,2,1:2:0:0:
169,90,28229,1,2,1:2:0:0:
104,280,28392,1,10,1:2:0:0:
64,64,28555,1,0,1:2:0:0:
243,169,28718,6,0,P|267:138|277:99,1,80,6|0,1:2|0:2,0:0:0:0:
137,193,29044,1,10,0:2:0:0:
263,254,29207,1,0,0:2:0:0:
63,114,29370,2,0,P|39:145|29:184,1,80,2|0,1:2|0:2,0:0:0:0:
169,90,29696,1,10,0:2:0:0:
43,29,29859,1,0,1:2:0:0:
137,193,30022,5,2,1:2:0:0:
243,169,30185,1,2,0:2:0:0:
243,169,30267,1,0,0:0:0:0:
243,169,30348,2,0,L|320:151,1,80,10|0,0:2|0:2,0:0:0:0:
211,272,30674,5,2,1:2:0:0:
169,90,30837,1,2,1:2:0:0:
317,248,31000,5,10,0:2:0:0:
137,193,31163,1,0,1:2:0:0:
275,66,31326,6,0,P|259:29|231:1,1,80,2|0,1:2|0:2,0:0:0:0:
243,169,31652,1,10,0:2:0:0:
349,145,31815,1,0,0:2:0:0:
211,272,31979,2,0,P|227:309|255:337,1,80,2|0,1:2|0:2,0:0:0:0:
243,169,32305,1,10,0:2:0:0:
137,193,32468,1,0,0:2:0:0:
317,248,32631,5,2,1:2:0:0:
275,66,32794,1,0,1:2:0:0:
211,272,32957,1,10,1:2:0:0:
349,145,33120,1,0,1:2:0:0:
169,90,33283,6,0,L|151:147,1,60.0000022888184,2|0,1:2|1:2,0:0:0:0:
211,272,33446,2,0,L|229:215,1,60.0000022888184,0|0,0:0|1:2,0:0:0:0:
261,112,33609,1,10,1:2:0:0:
119,250,33772,1,0,1:2:0:0:
261,112,33935,6,0,P|284:106|307:110,3,47.9999985351563,2|0|0|0,1:2|1:2|1:2|1:2,0:0:0:0:
349,184,34261,2,0,P|372:188|395:182,1,47.9999985351563,2|0,1:2|1:2,0:0:0:0:
428,104,34424,2,0,P|451:98|474:102,1,47.9999985351563,0|0,1:2|1:2,0:0:0:0:
512,178,34587,6,0,L|499:232,3,55.9999982910157,2|0|0|0,1:2|1:2|1:2|1:2,0:0:0:0:
432,340,34913,2,0,L|419:286,1,55.9999982910157,2|0,1:2|1:2,0:0:0:0:
349,184,35076,2,0,L|336:238,1,55.9999982910157,0|0,1:2|1:2,0:0:0:0:
262,315,35239,6,0,L|269:346,6,32,2|0|0|0|0|0|0,1:2|1:2|1:2|1:2|1:2|1:2|1:2,0:0:0:0:
173,244,35565,2,0,L|180:213,6,32,2|0|0|0|0|0|0,1:2|1:2|1:2|1:2|1:2|1:2|1:2,0:0:0:0:
102,334,35892,6,0,L|106:351,12,17.9999994506836,2|0|0|0|0|0|0|0|0|0|0|0|0,1:2|1:2|1:2|1:2|1:2|1:2|1:2|1:2|1:2|1:2|1:2|1:2|1:2,0:0:0:0:
10,249,36218,2,0,L|20:210,3,40,2|0|0|0,1:2|1:2|1:2|0:0,0:0:0:0:
40,133,36544,5,0,0:0:0:0:
78,122,36707,1,0,0:0:0:0:
239,152,36870,5,0,0:0:0:0:
209,160,37033,1,0,0:0:0:0:
157,53,37196,5,0,0:0:0:0:
163,76,37359,1,0,0:0:0:0:
128,221,37522,5,0,0:0:0:0:
124,206,37685,1,0,0:0:0:0:
306,257,37848,6,0,P|353:261|396:241,1,95.9999970703126,6|0,1:2|0:2,0:0:0:0:
512,141,38170,2,0,P|465:137|422:157,1,95.9999970703126,10|0,0:2|0:2,0:0:0:0:
499,326,38493,2,0,L|482:232,1,95.9999970703126,2|0,1:2|0:2,0:0:0:0:
319,72,38815,2,0,L|336:166,1,95.9999970703126,10|0,0:2|0:2,0:0:0:0:
228,319,39138,6,0,L|134:336,1,95.9999970703126,2|0,1:2|0:2,0:0:0:0:
303,258,39460,2,0,B|322:302|322:302|319:349,1,95.9999970703126,10|0,0:2|0:2,0:0:0:0:
242,183,39783,2,0,L|336:166,1,95.9999970703126,2|0,1:2|0:2,0:0:0:0:
167,244,40106,2,0,B|148:200|148:200|151:153,1,95.9999970703126,10|0,0:2|0:2,0:0:0:0:
337,166,40428,5,2,1:2:0:0:
133,336,40589,1,2,0:2:0:0:
303,258,40751,1,10,0:2:0:0:
167,244,40912,1,0,0:2:0:0:
319,350,41073,5,2,1:2:0:0:
151,152,41235,1,2,0:2:0:0:
228,319,41396,1,10,0:2:0:0:
242,183,41557,1,0,0:2:0:0:
303,258,41718,5,2,1:2:0:0:
317,122,41880,1,2,0:2:0:0:
394,289,42041,1,10,0:2:0:0:
226,91,42202,1,0,0:2:0:0:
378,197,42364,5,2,1:2:0:0:
242,183,42525,1,2,1:2:0:0:
412,105,42686,1,10,1:2:0:0:
208,275,42847,1,0,1:2:0:0:
317,122,43009,6,0,P|321:75|301:31,1,95.9999970703126,6|0,1:2|0:2,0:0:0:0:
242,183,43331,1,10,0:2:0:0:
412,105,43493,1,0,0:2:0:0:
303,258,43654,6,0,P|299:305|319:349,1,95.9999970703126,2|0,1:2|0:2,0:0:0:0:
378,197,43977,1,10,1:2:0:0:
208,275,44138,1,0,1:2:0:0:
335,118,44299,5,2,1:2:0:0:
303,258,44460,1,0,0:2:0:0:
177,76,44622,5,10,0:2:0:0:
259,195,44783,1,0,0:2:0:0:
42,158,44944,5,2,1:2:0:0:
185,182,45106,1,0,1:2:0:0:
10,316,45267,5,10,0:2:0:0:
124,229,45428,1,0,1:2:0:0:
250,299,45589,6,0,L|156:315,1,95.9999970703126,2|0,1:2|0:2,0:0:0:0:
406,357,45912,1,10,0:2:0:0:
284,209,46073,1,0,0:2:0:0:
440,151,46235,6,0,L|346:135,1,95.9999970703126,2|0,1:2|0:2,0:0:0:0:
189,193,46557,1,10,0:2:0:0:
216,29,46718,1,0,0:2:0:0:
284,209,46880,5,2,1:2:0:0:
155,103,47041,1,0,1:2:0:0:
345,135,47202,5,10,1:2:0:0:
94,177,47364,1,0,1:2:0:0:
406,61,47525,5,2,1:2:0:0:
406,61,47606,2,0,P|434:99|440:147,1,95.9999970703126,0|0,1:2|1:2,0:0:0:0:
379,225,47847,5,10,1:2:0:0:
216,29,48009,1,0,0:2:0:0:
58,266,48170,6,0,P|113:273|161:246,1,111.999996582031,6|0,1:2|0:2,0:0:0:0:
216,29,48493,2,0,L|188:137,1,111.999996582031,10|0,0:2|0:2,0:0:0:0:
317,267,48815,2,0,P|324:212|297:164,1,111.999996582031,2|0,1:2|0:2,0:0:0:0:
80,109,49138,2,0,L|188:137,1,111.999996582031,10|0,0:2|0:2,0:0:0:0:
317,267,49460,6,0,L|425:239,1,111.999996582031,2|0,1:2|0:2,0:0:0:0:
235,344,49783,2,0,B|209:294|209:294|208:238,1,111.999996582031,10|0,0:2|0:2,0:0:0:0:
277,40,50106,2,0,B|303:90|303:90|304:146,1,111.999996582031,2|0,1:2|0:2,0:0:0:0:
87,145,50428,2,0,L|195:117,1,111.999996582031,10|0,0:2|0:2,0:0:0:0:
425,239,50751,5,2,1:2:0:0:
304,146,50912,1,2,0:2:0:0:
235,344,51073,1,10,0:2:0:0:
195,117,51235,1,0,0:2:0:0:
317,267,51396,5,2,1:2:0:0:
277,40,51557,1,2,0:2:0:0:
208,238,51718,1,10,0:2:0:0:
87,145,51880,1,0,0:2:0:0:
304,146,52041,5,2,1:2:0:0:
208,238,52202,1,2,0:2:0:0:
277,40,52364,1,10,0:2:0:0:
235,344,52525,1,0,0:2:0:0:
195,117,52686,5,2,1:2:0:0:
317,267,52847,1,2,1:2:0:0:
87,145,53009,1,10,1:2:0:0:
425,239,53170,1,0,1:2:0:0:
126,315,53331,6,0,P|121:344|126:371,3,55.9999982910157,4|0|2|0,1:2|3:0|3:2|3:0,0:0:0:0:
203,220,53654,2,0,P|181:202|155:192,1,55.9999982910157,2|0,3:2|3:0,0:0:0:0:
235,344,53815,2,0,P|261:334|283:317,1,55.9999982910157,2|0,3:2|3:0,0:0:0:0:
360,222,53977,6,0,P|365:193|360:166,3,55.9999982910157,2|0|2|0,3:2|3:0|3:2|3:0,0:0:0:0:
283,317,54299,2,0,P|305:335|331:345,1,55.9999982910157,2|0,3:2|3:0,0:0:0:0:
251,193,54460,2,0,P|225:203|203:220,1,55.9999982910157,2|0,3:2|3:0,0:0:0:0:
160,342,54622,6,0,L|153:287,1,55.9999982910157,2|0,3:2|3:0,0:0:0:0:
114,154,54783,2,0,L|121:209,1,55.9999982910157,2|0,3:2|3:0,0:0:0:0:
70,276,54944,2,0,L|15:269,1,55.9999982910157,2|0,3:2|3:0,0:0:0:0:
203,220,55106,2,0,L|258:227,1,55.9999982910157,2|0,3:2|3:0,0:0:0:0:
160,342,55267,5,2,3:2:0:0:
114,154,55428,1,2,1:2:0:0:
70,276,55589,1,2,1:2:0:0:
203,220,55751,1,2,1:2:0:0:
58,280,55912,6,0,L|51:225,3,55.9999982910157,2|0|2|0,1:2|3:0|3:2|3:0,0:0:0:0:
14,148,56235,2,0,P|41:139|69:141,1,55.9999982910157,2|0,3:2|3:0,0:0:0:0:
131,197,56396,2,0,P|158:199|185:190,1,55.9999982910157,2|0,1:2|3:0,0:0:0:0:
276,129,56557,6,0,L|269:184,3,55.9999982910157,2|0|2|0,1:2|3:0|3:2|3:0,0:0:0:0:
232,261,56880,2,0,P|259:270|287:268,1,55.9999982910157,2|0,3:2|3:0,0:0:0:0:
349,212,57041,2,0,P|376:210|403:219,1,55.9999982910157,2|0,1:2|3:0,0:0:0:0:
366,296,57202,5,6,1:2:0:0:
488,91,57364,1,0,1:2:0:0:
269,184,57525,1,6,1:2:0:0:
502,239,57686,1,0,1:2:0:0:
344,57,57847,5,6,1:2:0:0:
344,57,57928,2,0,P|287:37|229:42,1,120.000004577637
148,105,58170,2,0,L|120:96,4,30.0000011444092,6|0|0|0|0,1:2|0:0|0:0|0:0|1:2,0:0:0:0:
68,169,58493,5,6,1:2:0:0:
421,100,58654,1,2,1:2:0:0:
176,363,58815,1,2,1:2:0:0:
220,6,58977,1,2,1:2:0:0:
395,321,59138,5,2,1:2:0:0:
122,266,59299,1,2,1:2:0:0:
408,210,59460,5,2,1:2:0:0:
176,363,59622,1,6,1:2:0:0:
256,192,59662,12,0,64944,0:0:0:0:
