osu file format v14

[General]
AudioFilename: audio.mp3
AudioLeadIn: 0
PreviewTime: 37767
Countdown: 0
SampleSet: Soft
StackLeniency: 0.7
Mode: 0
LetterboxInBreaks: 0
WidescreenStoryboard: 0

[Editor]
DistanceSpacing: 2.3
BeatDivisor: 4
GridSize: 4
TimelineZoom: 1.7

[Metadata]
Title:quaver
TitleUnicode:quaver ♪
Artist:dj TAKA
ArtistUnicode:dj TAKA
Creator:Sotarks
Version:Extra
Source:REFLEC BEAT limelight
Tags:risk junk beatmania IIDX 19 Lincle jubeat saucer jukebeat KONAMI music pack 25 pop'n music Sunny Park plus MUSIC PACK 29 + ポップンリズミン パック1 MUSIC PACK 19 cut edit short ver version akitoshi corinn -laura- myxomatosis desperate-kun shunao shogunmoon kencho yukiyo snownino_ reform kujinn yuii- eiri- ayyri doormat lasse onlybiscuit armin a_r_m_i_n kyuukai yaleufeu nevo monstrata fieryrage fiery
BeatmapID:1827323
BeatmapSetID:873811

[Difficulty]
HPDrainRate:5.2
CircleSize:3.8
OverallDifficulty:9
ApproachRate:9.2
SliderMultiplier:1.72
SliderTickRate:1

[Events]
//Background and Video events
0,0,"bg.jpg",0,0
//Break Periods
//Storyboard Layer 0 (Background)
//Storyboard Layer 1 (Fail)
//Storyboard Layer 2 (Pass)
//Storyboard Layer 3 (Foreground)
//Storyboard Sound Samples

[TimingPoints]
1198,329.67032967033,4,2,22,32,1,0
1198,-192.307692307692,4,2,22,32,0,0
6472,-121.951219512195,4,2,22,52,0,0
13066,326.086956521739,4,2,22,62,1,0
13066,-98.0392156862745,4,2,22,62,0,0
37848,322.58064516129,4,2,22,72,1,0
48170,-98.0392156862745,4,2,22,82,0,0
53331,-98.0392156862745,4,2,22,72,0,0
57202,-98.0392156862745,4,2,22,82,0,0
58493,-98.0392156862745,4,2,22,92,0,0
64944,-98.0392156862745,4,2,22,5,0,0

[Colours]
Combo1 : 114,102,255
Combo2 : 255,247,91
Combo3 : 104,255,209
Combo4 : 220,168,255

[HitObjects]
363,75,1198,6,0,B|313:74|327:104|259:102,1,89.4399994541016,2|0,0:0|0:0,0:0:0:0:
193,48,1692,2,0,P|191:85|182:149,1,89.4399994541016,2|0,0:0|0:0,0:0:0:0:
255,202,2187,2,0,P|261:241|269:264,1,44.7199997270508,2|0,0:0|0:0,0:0:0:0:
320,118,2516,2,0,P|291:104|263:100,1,44.7199997270508,2|0,0:0|0:0,0:0:0:0:
184,136,2846,1,0,0:0:0:0:
75,79,3011,2,0,P|90:112|100:176,1,89.4399994541016,2|0,0:0|0:0,0:0:0:0:
60,252,3505,1,2,0:0:0:0:
60,252,3835,6,0,P|84:288|133:306,1,89.4399994541016,2|0,0:0|0:0,0:0:0:0:
210,235,4329,2,0,P|234:199|283:181,1,89.4399994541016,2|0,0:0|0:0,0:0:0:0:
377,225,4824,1,2,0:0:0:0:
377,225,5154,2,0,P|384:183|389:165,1,44.7199997270508,2|0,0:0|0:0,0:0:0:0:
326,111,5483,2,0,P|323:88|318:66,1,44.7199997270508,2|0,0:0|0:0,0:0:0:0:
216,22,5813,1,2,3:2:0:0:
214,44,5895,1,0,3:0:0:0:
212,66,5977,1,0,3:0:0:0:
210,89,6060,1,0,3:0:0:0:
209,111,6142,1,2,3:2:0:0:
267,206,6307,1,0,1:0:0:0:
167,277,6472,6,0,P|127:271|97:251,1,70.5200010760498,6|0,1:2|0:0,0:0:0:0:
285,229,6802,2,0,P|325:235|355:255,1,70.5200010760498,2|0,0:0|0:0,0:0:0:0:
166,188,7132,2,0,P|154:137|139:104,1,70.5200010760498,2|0,0:0|0:0,0:0:0:0:
292,56,7461,2,0,P|279:89|273:123,1,70.5200010760498,2|0,0:0|0:0,0:0:0:0:
156,19,7791,6,0,P|95:29|50:114,1,141.0400021521,2|2,0:0|0:0,0:0:0:0:
71,188,8285,1,0,0:0:0:0:
171,151,8450,2,0,P|221:137|249:138,1,70.5200010760498,2|0,0:0|0:0,0:0:0:0:
352,240,8780,1,2,0:0:0:0:
407,106,8945,1,0,1:0:0:0:
262,235,9110,6,0,P|275:301|286:377,1,141.0400021521,6|2,1:2|0:0,0:0:0:0:
365,209,9604,1,0,1:0:0:0:
231,77,9769,2,0,P|181:58|84:91,1,141.0400021521,6|2,1:2|0:0,0:0:0:0:
38,230,10263,1,0,1:0:0:0:
221,157,10428,5,2,1:2:0:0:
150,314,10593,1,0,1:2:0:0:
87,117,10758,1,2,1:2:0:0:
265,256,10923,1,0,1:2:0:0:
320,53,11088,1,2,1:2:0:0:
320,53,11170,1,0,1:2:0:0:
200,179,11335,1,0,1:2:0:0:
200,179,11417,2,0,L|186:95,1,70.5200010760498,2|0,1:2|1:2,0:0:0:0:
345,298,13066,5,6,1:2:0:0:
286,132,13229,1,0,0:2:0:0:
182,315,13392,2,0,P|163:256|151:222,1,87.7200005354004,10|0,0:2|0:2,0:0:0:0:
272,91,13718,1,2,1:2:0:0:
243,229,13881,1,0,0:2:0:0:
155,24,14044,2,0,P|140:65|127:107,1,87.7200005354004,10|0,0:2|0:2,0:0:0:0:
348,27,14370,5,2,1:2:0:0:
196,148,14533,1,0,0:2:0:0:
407,207,14696,1,10,0:2:0:0:
235,118,14859,1,0,0:2:0:0:
420,73,15022,1,2,1:2:0:0:
314,231,15185,1,0,0:2:0:0:
306,27,15348,2,0,P|327:83|336:131,1,87.7200005354004,10|0,0:2|0:2,0:0:0:0:
157,280,15674,5,2,1:2:0:0:
91,137,15837,1,2,0:2:0:0:
72,313,16000,1,10,0:2:0:0:
193,157,16163,1,0,0:2:0:0:
268,337,16326,1,2,1:2:0:0:
145,238,16489,1,2,0:2:0:0:
304,315,16652,2,0,P|363:307|398:292,1,87.7200005354004,8|0,0:2|0:2,0:0:0:0:
400,80,16979,5,2,1:2:0:0:
249,238,17142,1,2,0:2:0:0:
357,49,17305,2,0,P|377:107|382:143,1,87.7200005354004,10|0,0:2|0:2,0:0:0:0:
181,48,17631,1,2,1:2:0:0:
333,220,17794,1,2,1:2:0:0:
212,21,17957,1,10,1:2:0:0:
144,199,18120,1,0,1:2:0:0:
331,22,18283,6,0,P|351:84|358:122,1,87.7200005354004,6|0,1:2|0:2,0:0:0:0:
228,260,18609,2,0,P|237:217|252:175,1,87.7200005354004,10|0,0:2|0:2,0:0:0:0:
87,69,18935,1,2,1:2:0:0:
253,135,19098,1,0,0:2:0:0:
73,274,19261,1,10,1:2:0:0:
145,151,19424,1,0,1:2:0:0:
289,329,19587,5,2,1:2:0:0:
166,250,19750,1,2,0:2:0:0:
349,113,19913,1,10,0:2:0:0:
271,227,20076,1,0,0:2:0:0:
179,46,20239,1,2,1:2:0:0:
346,147,20402,2,0,P|361:222|367:245,1,87.7200005354004,2|10,1:2|0:2,0:0:0:0:
423,49,20729,1,0,1:2:0:0:
224,15,20892,6,0,P|209:90|203:113,1,87.7200005354004,2|0,1:2|0:2,0:0:0:0:
127,262,21218,2,0,P|117:219|109:176,1,87.7200005354004,10|0,0:2|0:2,0:0:0:0:
280,309,21544,1,2,1:2:0:0:
346,147,21707,1,0,0:2:0:0:
371,349,21870,1,10,0:2:0:0:
249,179,22033,6,0,P|239:136|231:93,1,87.7200005354004,0|2,1:2|0:2,0:0:0:0:
172,261,22359,1,0,3:2:0:0:
383,311,22522,2,0,P|393:268|401:225,1,87.7200005354004,2|0,0:2|3:2,0:0:0:0:
326,32,22848,1,2,1:2:0:0:
326,32,22930,1,0,1:2:0:0:
214,175,23093,1,0,1:2:0:0:
214,175,23174,2,0,L|115:159,1,87.7200005354004,2|0,1:2|0:2,0:0:0:0:
342,301,23500,5,6,1:2:0:0:
171,352,23663,1,0,0:2:0:0:
326,206,23826,2,0,P|345:134|348:104,1,87.7200005354004,10|0,0:2|0:2,0:0:0:0:
136,51,24152,1,2,1:2:0:0:
224,240,24315,1,0,0:2:0:0:
306,39,24479,2,0,P|353:9|394:-2,1,87.7200005354004,10|0,0:2|0:2,0:0:0:0:
412,256,24805,5,2,1:2:0:0:
243,115,24968,1,0,0:2:0:0:
161,317,25131,1,10,0:2:0:0:
336,176,25294,1,0,0:2:0:0:
127,112,25457,1,2,1:2:0:0:
254,328,25620,1,0,0:2:0:0:
351,85,25783,2,0,P|363:38|369:-13,1,87.7200005354004,10|0,0:2|0:2,0:0:0:0:
171,204,26109,5,2,1:2:0:0:
382,260,26272,1,2,0:2:0:0:
214,103,26435,1,10,0:2:0:0:
427,40,26598,1,0,0:2:0:0:
268,175,26761,1,2,1:2:0:0:
418,277,26924,1,2,0:2:0:0:
313,75,27087,2,0,P|302:141|297:182,1,87.7200005354004,10|0,0:2|0:2,0:0:0:0:
180,326,27413,5,2,1:2:0:0:
76,144,27576,1,2,0:2:0:0:
266,283,27739,2,0,P|333:261|373:256,1,87.7200005354004,10|0,0:2|0:2,0:0:0:0:
261,53,28065,1,2,1:2:0:0:
157,235,28228,1,2,1:2:0:0:
362,108,28392,1,10,1:2:0:0:
117,128,28555,1,0,1:2:0:0:
388,230,28718,6,0,P|405:288|411:334,1,87.7200005354004,6|0,1:2|0:2,0:0:0:0:
248,168,29044,2,0,P|255:124|269:83,1,87.7200005354004,10|0,0:2|0:2,0:0:0:0:
140,318,29370,1,2,1:2:0:0:
339,216,29533,1,0,0:2:0:0:
133,109,29696,1,10,0:2:0:0:
228,315,29859,1,0,1:2:0:0:
344,85,30022,5,2,1:2:0:0:
134,197,30185,1,2,0:2:0:0:
357,323,30348,1,10,0:2:0:0:
242,142,30511,1,0,0:2:0:0:
133,309,30674,1,2,1:2:0:0:
305,231,30837,2,0,P|360:214|399:211,1,87.7200005354004,2|10,1:2|0:2,0:0:0:0:
244,323,31163,1,0,1:2:0:0:
285,120,31326,6,0,P|275:60|265:23,1,87.7200005354004,2|0,1:2|0:2,0:0:0:0:
166,182,31652,2,0,P|155:224|149:268,1,87.7200005354004,10|0,0:2|0:2,0:0:0:0:
90,77,31979,1,2,1:2:0:0:
268,161,32142,1,0,0:2:0:0:
60,245,32305,1,10,0:2:0:0:
177,143,32468,1,0,0:2:0:0:
276,308,32631,5,2,1:2:0:0:
208,58,32794,1,0,1:2:0:0:
127,295,32957,1,10,1:2:0:0:
295,130,33120,1,0,1:2:0:0:
360,353,33283,1,2,1:2:0:0:
360,353,33364,1,0,1:2:0:0:
173,205,33527,1,0,1:2:0:0:
173,205,33609,2,0,L|152:101,1,87.7200005354004,10|0,1:2|1:2,0:0:0:0:
377,248,33935,5,2,1:2:0:0:
415,227,34016,1,0,1:2:0:0:
440,191,34098,1,0,1:2:0:0:
445,148,34179,1,0,1:2:0:0:
431,108,34261,2,0,L|423:57,3,43.8600002677002,2|0|0|0,1:2|1:2|1:2|1:2,0:0:0:0:
338,158,34587,2,0,L|288:146,1,43.8600002677002,2|0,1:2|1:2,0:0:0:0:
200,30,34750,2,0,L|157:40,1,43.8600002677002,0|0,1:2|1:2,0:0:0:0:
60,138,34913,1,2,1:2:0:0:
67,181,34994,1,0,1:2:0:0:
75,224,35076,1,0,1:2:0:0:
83,267,35157,1,0,1:2:0:0:
91,310,35239,6,0,L|85:346,6,21.9300001338501,2|0|0|0|0|0|0,1:2|1:2|1:2|1:2|1:2|1:2|1:2,0:0:0:0:
191,269,35565,2,0,L|187:247,6,21.9300001338501,2|0|0|0|0|0|0,1:2|1:2|1:2|1:2|1:2|1:2|1:2,0:0:0:0:
278,321,35892,6,0,L|281:337,12,10.965000066925,2|0|0|0|0|0|0|0|0|0|0|0|0,1:2|1:2|1:2|1:2|1:2|1:2|1:2|1:2|1:2|1:2|1:2|1:2|1:2,0:0:0:0:
366,264,36218,1,2,1:2:0:0:
373,220,36299,1,0,1:2:0:0:
380,177,36381,1,0,1:2:0:0:
98,39,37848,5,6,1:2:0:0:
194,254,38009,1,0,0:2:0:0:
266,14,38170,2,0,P|250:73|243:125,1,86,10|0,0:2|0:2,0:0:0:0:
437,308,38493,1,2,1:2:0:0:
341,93,38654,1,0,0:2:0:0:
269,333,38815,2,0,P|285:274|292:222,1,86,10|0,0:2|0:2,0:0:0:0:
137,64,39138,5,2,1:2:0:0:
305,208,39299,1,0,0:2:0:0:
80,274,39460,1,10,0:2:0:0:
191,159,39622,1,0,0:2:0:0:
302,348,39783,1,2,1:2:0:0:
216,126,39944,1,0,0:2:0:0:
136,332,40106,2,0,P|115:280|107:236,1,86,10|0,0:2|0:2,0:0:0:0:
310,100,40428,5,2,1:2:0:0:
220,268,40589,1,2,0:2:0:0:
97,73,40751,1,10,0:2:0:0:
286,187,40912,1,0,0:2:0:0:
60,225,41073,1,2,1:2:0:0:
217,78,41235,1,2,0:2:0:0:
255,281,41396,2,0,P|264:331|268:371,1,86,10|0,0:2|0:2,0:0:0:0:
390,165,41718,5,2,1:2:0:0:
143,212,41880,1,2,0:2:0:0:
390,295,42041,2,0,P|451:271|482:245,1,86,10|0,0:2|0:2,0:0:0:0:
297,100,42364,1,2,1:2:0:0:
228,301,42525,1,2,1:2:0:0:
390,127,42686,1,10,1:2:0:0:
253,328,42847,1,0,1:2:0:0:
173,71,43009,6,0,P|196:128|207:172,1,86,6|0,1:2|0:2,0:0:0:0:
313,274,43331,2,0,P|325:232|342:193,1,86,10|0,0:2|0:2,0:0:0:0:
201,320,43654,1,2,1:2:0:0:
114,155,43815,1,0,0:2:0:0:
280,250,43977,1,10,1:2:0:0:
47,225,44138,1,0,1:2:0:0:
276,103,44299,5,2,1:2:0:0:
154,234,44460,1,0,0:2:0:0:
196,34,44622,1,10,0:2:0:0:
281,215,44783,1,0,0:2:0:0:
342,34,44944,1,2,1:2:0:0:
171,151,45106,2,0,L|80:125,1,86,0|10,1:2|0:2,0:0:0:0:
309,68,45428,1,0,1:2:0:0:
358,284,45589,6,0,L|275:307,1,86,2|0,1:2|0:2,0:0:0:0:
390,130,45912,2,0,L|473:154,1,86,10|0,0:2|0:2,0:0:0:0:
193,197,46235,2,0,L|110:220,1,86,2|0,1:2|0:2,0:0:0:0:
226,44,46558,2,0,L|308:67,1,86,10|0,0:2|0:0,0:0:0:0:
72,234,46880,5,2,1:2:0:0:
142,23,47041,1,0,1:2:0:0:
225,288,47202,1,10,1:2:0:0:
339,77,47364,1,0,1:2:0:0:
180,161,47525,1,2,1:2:0:0:
180,161,47606,1,0,1:2:0:0:
371,265,47767,1,0,1:2:0:0:
371,265,47847,2,0,L|460:240,1,86,10|0,1:2|0:2,0:0:0:0:
249,73,48170,5,6,1:2:0:0:
187,298,48331,1,0,0:2:0:0:
96,98,48493,2,0,P|79:42|65:1,1,87.7200005354004,10|0,0:2|0:2,0:0:0:0:
268,251,48815,1,2,1:2:0:0:
330,26,48976,1,0,0:2:0:0:
421,226,49138,2,0,P|438:282|452:323,1,87.7200005354004,10|0,0:2|0:2,0:0:0:0:
231,109,49460,5,2,1:2:0:0:
156,314,49622,1,0,0:2:0:0:
346,168,49783,1,10,0:2:0:0:
151,269,49944,1,0,0:2:0:0:
385,341,50106,1,2,1:2:0:0:
214,203,50267,1,0,0:2:0:0:
424,71,50428,2,0,P|441:137|445:164,1,87.7200005354004,10|0,0:2|0:2,0:0:0:0:
220,40,50751,5,2,1:2:0:0:
349,255,50912,1,2,0:2:0:0:
111,171,51073,1,10,0:2:0:0:
317,56,51235,1,0,0:2:0:0:
208,290,51396,1,2,1:2:0:0:
57,104,51557,1,2,0:2:0:0:
276,138,51718,1,10,0:2:0:0:
89,255,51880,1,0,0:2:0:0:
172,31,52041,6,0,P|188:94|195:134,1,87.7200005354004,2|2,1:2|0:2,0:0:0:0:
309,315,52364,2,0,P|317:272|329:229,1,87.7200005354004,10|0,0:2|0:2,0:0:0:0:
468,80,52686,1,2,1:2:0:0:
253,182,52847,1,2,1:2:0:0:
481,288,53009,1,10,1:2:0:0:
340,100,53170,1,0,1:2:0:0:
211,311,53331,6,0,L|219:366,3,43.8600002677002,4|0|0|0,1:2|3:0|3:0|3:0,0:0:0:0:
336,269,53654,2,0,L|342:225,3,43.8600002677002,0|0|0|0,3:0|3:0|3:0|3:0,0:0:0:0:
195,182,53977,2,0,L|186:127,1,43.8600002677002,0|0,3:0|3:0,0:0:0:0:
317,57,54138,2,0,L|309:100,1,43.8600002677002,0|0,3:0|3:0,0:0:0:0:
168,3,54299,2,0,L|174:46,3,43.8600002677002,0|0|0|0,3:0|3:0|3:0|3:0,0:0:0:0:
219,203,54622,6,0,L|210:148,1,43.8600002677002,0|0,3:0|3:0,0:0:0:0:
341,78,54783,2,0,L|333:121,1,43.8600002677002,0|0,3:0|3:0,0:0:0:0:
238,289,54944,2,0,L|247:348,5,43.8600002677002,0|0|0|0|0|0,3:0|3:0|3:0|3:0|3:0|3:0,0:0:0:0:
137,254,55428,2,0,P|84:240|75:241,1,43.8600002677002,0|0,1:0|3:0,0:0:0:0:
304,192,55589,2,0,P|325:187|345:178,1,43.8600002677002,0|0,1:0|3:0,0:0:0:0:
183,107,55751,1,0,1:0:0:0:
362,29,55912,6,0,L|412:15,3,43.8600002677002,0|0|0|0,1:0|3:0|3:0|3:0,0:0:0:0:
262,95,56235,2,0,L|219:83,1,43.8600002677002,0|0,3:0|3:0,0:0:0:0:
74,45,56396,1,0,1:0:0:0:
74,45,56477,1,0,3:0:0:0:
74,45,56557,2,0,L|85:109,3,43.8600002677002,0|0|0|0,1:0|3:0|3:0|3:0,0:0:0:0:
169,189,56880,2,0,L|158:238,1,43.8600002677002,0|0,3:0|3:0,0:0:0:0:
93,336,57041,1,0,1:0:0:0:
93,336,57122,1,0,3:0:0:0:
93,336,57202,5,6,1:2:0:0:
172,158,57364,1,0,1:2:0:0:
260,331,57525,1,6,1:2:0:0:
354,105,57686,1,0,1:2:0:0:
224,252,57847,1,6,1:2:0:0:
117,39,58009,1,0,1:2:0:0:
309,207,58170,1,6,1:2:0:0:
397,4,58331,1,0,1:2:0:0:
94,189,58493,5,6,1:2:0:0:
413,292,58654,1,2,1:2:0:0:
250,23,58815,1,2,1:2:0:0:
101,305,58977,1,2,1:2:0:0:
441,141,59138,1,2,1:2:0:0:
86,64,59299,1,2,1:2:0:0:
277,350,59460,1,2,1:2:0:0:
388,45,59622,1,6,1:2:0:0:
256,192,59702,12,0,64944,0:0:0:0:
