osu file format v14

[General]
AudioFilename: audio.mp3
AudioLeadIn: 0
PreviewTime: 13066
Countdown: 0
SampleSet: Soft
StackLeniency: 0.5
Mode: 0
LetterboxInBreaks: 0
WidescreenStoryboard: 0

[Editor]
Bookmarks: 39783,48170
DistanceSpacing: 2.3
BeatDivisor: 4
GridSize: 4
TimelineZoom: 1

[Metadata]
Title:quaver
TitleUnicode:quaver ♪
Artist:dj TAKA
ArtistUnicode:dj TAKA
Creator:SigurdV
Version:Melody
Source:REFLEC BEAT limelight
Tags:
BeatmapID:2109755
BeatmapSetID:1008027

[Difficulty]
HPDrainRate:4
CircleSize:4.2
OverallDifficulty:9.2
ApproachRate:9.6
SliderMultiplier:1.4
SliderTickRate:1

[Events]
//Background and Video events
0,0,"quaver (2).jpg",0,0
//Break Periods
//Storyboard Layer 0 (Background)
//Storyboard Layer 1 (Fail)
//Storyboard Layer 2 (Pass)
//Storyboard Layer 3 (Foreground)
//Storyboard Layer 4 (Overlay)
//Storyboard Sound Samples

[TimingPoints]
1198,329.67032967033,4,2,0,35,1,0
5813,-83.3333333333333,4,2,0,35,0,0
6472,-71.4285714285714,4,2,0,40,0,0
7791,-62.5,4,2,0,40,0,0
8450,-100,4,2,0,35,0,0
9110,-71.4285714285714,4,2,0,40,0,0
13066,326.086956521739,4,2,0,50,1,0
13066,-62.5,4,2,0,50,0,0
19261,-55.5555555555556,4,2,0,50,0,0
33935,-83.3333333333333,4,2,0,50,0,0
37848,322.58064516129,4,2,0,50,1,0
37848,-55.5555555555556,4,2,0,75,0,1
59622,-100,4,2,0,40,0,0

[Colours]
Combo1 : 255,255,128
Combo2 : 136,17,255
Combo3 : 102,102,255

[HitObjects]
512,0,1198,5,0,2:2:0:0:
480,128,1362,1,0,2:2:0:0:
372,28,1527,1,0,2:2:0:0:
416,192,1692,2,0,L|324:180,1,70,0|0,2:2|2:2,2:2:0:0:
472,280,2022,5,0,2:2:0:0:
480,128,2187,1,0,2:2:0:0:
328,344,2516,5,0,2:2:0:0:
280,168,2681,1,0,2:2:0:0:
176,384,2846,1,0,2:2:0:0:
196,188,3011,2,0,L|120:204,1,70,0|0,2:2|2:2,2:2:0:0:
324,104,3340,5,0,2:2:0:0:
136,88,3505,1,0,2:2:0:0:
40,384,3835,5,0,2:2:0:0:
0,168,4000,1,0,2:2:0:0:
108,364,4165,1,0,2:2:0:0:
127,202,4329,1,0,2:2:0:0:
240,360,4659,5,0,2:2:0:0:
216,116,4824,1,0,2:2:0:0:
336,384,5154,5,0,2:2:0:0:
360,32,5483,1,0,2:2:0:0:
512,344,5813,5,0,3:1:0:0:
512,344,5895,1,0,3:1:0:0:
512,344,5978,2,0,P|468:329|447:303,1,41.9999987182618,0|0,3:1|3:1,3:1:0:0:
380,152,6143,1,0,3:1:0:0:
336,384,6307,1,0,3:0:0:0:
220,232,6472,6,2,L|241:332,1,97.9999970092774,6|2,0:0|0:0,0:0:0:0:
360,172,6802,2,2,L|339:272,1,97.9999970092774
176,128,7132,6,2,P|240:144|272:172,1,97.9999970092774
408,60,7461,2,2,P|344:76|312:104,1,97.9999970092774
84,104,7791,6,2,B|68:148|116:200|92:240,1,112
220,232,8121,2,2,B|236:276|188:328|212:368,1,112
98,213,8450,6,2,B|66:201|29:235|0:218,1,70
205,341,8780,2,2,B|236:329|273:363|302:346,1,70,2|2,0:0|3:0,0:0:0:0:
448,296,9110,1,4,0:0:0:0:
512,0,9439,5,0,3:0:0:0:
376,232,9604,1,0,3:3:0:0:
336,96,9769,1,0,3:3:0:0:
124,252,10099,5,0,0:0:0:0:
408,152,10263,1,0,0:0:0:0:
88,128,10428,5,0,3:3:0:0:
364,236,10593,1,0,3:3:0:0:
212,332,10758,5,0,3:3:0:0:
148,40,10923,1,0,3:3:0:0:
312,360,11088,6,0,L|324:296,1,48.9999985046387,0|0,3:3|3:3,3:3:0:0:
368,52,11252,2,0,L|356:116,1,48.9999985046387,0|0,3:3|3:3,3:3:0:0:
200,356,11417,5,0,3:3:0:0:
132,16,11582,1,0,3:3:0:0:
64,168,11747,6,0,B|104:180|136:152|180:176,1,97.9999970092774
104,296,12241,1,0,0:0:0:0:
104,296,12406,2,0,L|92:348,3,48.9999985046387
188,232,12736,2,0,L|176:180,3,48.9999985046387
20,216,13066,5,6,2:0:0:0:
52,364,13229,1,2,2:0:0:0:
96,144,13392,5,10,2:0:0:0:
44,344,13555,1,2,2:0:0:0:
216,120,13718,5,10,2:0:0:0:
36,324,13881,1,2,2:0:0:0:
60,68,14044,5,10,2:0:0:0:
144,336,14207,1,2,2:0:0:0:
256,196,14370,5,10,2:0:0:0:
36,148,14533,1,2,2:0:0:0:
332,116,14696,5,10,2:0:0:0:
84,212,14859,1,2,2:0:0:0:
416,224,15022,5,10,2:0:0:0:
136,108,15185,1,2,2:0:0:0:
512,88,15348,5,10,2:0:0:0:
144,268,15511,1,2,2:0:0:0:
384,24,15674,5,10,2:0:0:0:
320,360,15837,1,2,2:0:0:0:
180,48,16000,5,10,2:0:0:0:
216,336,16163,1,2,2:0:0:0:
372,48,16326,5,10,2:0:0:0:
312,332,16489,1,2,2:0:0:0:
192,72,16652,5,10,2:0:0:0:
228,312,16815,1,2,2:0:0:0:
381,239,16979,5,10,2:0:0:0:
119,168,17142,1,2,2:0:0:0:
405,134,17305,5,10,2:0:0:0:
143,236,17468,1,2,2:0:0:0:
432,260,17631,5,10,2:0:0:0:
64,144,17794,1,2,2:0:0:0:
460,112,17957,5,10,2:0:0:0:
96,264,18120,1,2,2:0:0:0:
208,48,18283,5,10,2:0:0:0:
180,316,18446,1,2,2:0:0:0:
88,48,18609,5,10,2:0:0:0:
348,24,18772,1,2,2:0:0:0:
172,328,18935,5,10,2:0:0:0:
203,33,19098,1,2,2:0:0:0:
48,328,19261,5,10,2:0:0:0:
334,354,19424,1,2,2:0:0:0:
412,44,19587,5,10,2:0:0:0:
464,344,19750,1,2,2:0:0:0:
404,36,19913,5,10,2:0:0:0:
380,293,20076,1,2,2:0:0:0:
396,28,20239,5,10,2:0:0:0:
318,236,20402,1,2,2:0:0:0:
388,20,20565,5,10,2:0:0:0:
279,173,20728,1,2,2:0:0:0:
412,156,20892,5,10,2:0:0:0:
146,98,21055,1,2,2:0:0:0:
426,235,21218,5,10,2:0:0:0:
77,289,21381,1,2,2:0:0:0:
432,144,21544,5,10,2:0:0:0:
136,80,21707,1,2,2:0:0:0:
444,248,21870,5,10,2:0:0:0:
64,304,22033,1,2,2:0:0:0:
456,132,22196,5,10,2:0:0:0:
124,60,22359,1,2,2:0:0:0:
464,264,22522,5,10,2:0:0:0:
52,328,22685,1,2,2:0:0:0:
481,124,22848,6,0,L|409:106,1,62.9999980773926,10|0,0:0|0:0,0:0:0:0:
112,36,23011,2,0,L|200:56,1,62.9999980773926,2|0,0:0|0:0,0:0:0:0:
484,280,23174,5,10,2:0:0:0:
40,352,23337,1,2,2:0:0:0:
216,48,23500,5,10,2:0:0:0:
152,244,23663,1,2,2:0:0:0:
236,60,23826,5,10,2:0:0:0:
222,306,23989,1,2,2:0:0:0:
256,72,24152,5,10,2:0:0:0:
313,349,24315,1,2,2:0:0:0:
280,84,24479,5,10,2:0:0:0:
418,361,24642,1,2,2:0:0:0:
512,136,24805,5,10,2:0:0:0:
288,216,24968,1,2,2:0:0:0:
460,220,25131,5,10,2:0:0:0:
192,124,25294,1,2,2:0:0:0:
398,122,25457,5,10,2:0:0:0:
104,228,25620,1,2,2:0:0:0:
304,296,25783,5,10,2:0:0:0:
40,96,25946,1,2,2:0:0:0:
156,360,26109,5,10,2:0:0:0:
312,36,26272,1,2,2:0:0:0:
292,324,26435,5,10,2:0:0:0:
112,32,26598,1,2,2:0:0:0:
170,334,26761,5,10,2:0:0:0:
303,59,26924,1,2,2:0:0:0:
286,304,27087,5,10,2:0:0:0:
133,55,27250,1,2,2:0:0:0:
408,168,27413,5,10,2:0:0:0:
80,136,27576,1,2,2:0:0:0:
164,264,27739,5,10,2:0:0:0:
220,20,27902,1,2,2:0:0:0:
16,216,28065,5,10,2:0:0:0:
376,180,28228,1,2,2:0:0:0:
222,53,28391,5,10,2:0:0:0:
284,321,28554,1,2,2:0:0:0:
460,40,28718,5,10,2:0:0:0:
392,380,28881,1,2,2:0:0:0:
240,160,29044,5,10,2:0:0:0:
472,236,29207,1,2,2:0:0:0:
492,24,29370,5,10,2:0:0:0:
416,364,29533,1,2,2:0:0:0:
260,144,29696,5,10,2:0:0:0:
492,220,29859,1,2,2:0:0:0:
392,36,30022,5,10,2:0:0:0:
332,356,30185,1,2,2:0:0:0:
184,68,30348,5,10,2:0:0:0:
232,344,30511,1,2,2:0:0:0:
380,52,30674,5,10,2:0:0:0:
320,336,30837,1,2,2:0:0:0:
200,80,31000,5,10,2:0:0:0:
244,328,31163,1,2,2:0:0:0:
408,168,31326,5,10,2:0:0:0:
128,272,31489,1,2,2:0:0:0:
456,232,31652,5,10,2:0:0:0:
168,188,31815,1,2,2:0:0:0:
425,160,31979,5,10,2:0:0:0:
103,280,32142,1,2,2:0:0:0:
480,234,32305,5,10,2:0:0:0:
149,183,32468,1,2,2:0:0:0:
384,360,32631,5,10,2:0:0:0:
436,32,32794,1,2,2:0:0:0:
296,336,32957,5,10,2:0:0:0:
264,60,33120,1,2,2:0:0:0:
396,376,33283,6,0,L|409:298,1,62.9999980773926,10|0,2:0|0:0,0:0:0:0:
452,16,33446,2,0,L|441:96,1,62.9999980773926,2|0,2:0|0:0,0:0:0:0:
288,360,33609,5,10,2:0:0:0:
248,40,33772,1,2,2:0:0:0:
208,320,33935,5,0,3:3:0:0:
205,278,34016,1,0,3:3:0:0:
202,236,34098,1,0,3:3:0:0:
199,194,34179,1,0,3:3:0:0:
196,152,34261,2,0,L|192:88,3,41.9999987182618,0|0|0|0,3:3|3:3|3:3|3:3,3:3:0:0:
116,356,34587,6,0,L|112:300,1,41.9999987182618,0|0,3:3|3:3,3:3:0:0:
100,68,34750,2,0,L|104:124,1,41.9999987182618,0|0,3:3|3:3,3:3:0:0:
296,192,34913,5,0,3:3:0:0:
298,150,34994,1,0,3:3:0:0:
301,108,35076,1,0,3:3:0:0:
304,66,35157,1,0,3:3:0:0:
308,28,35239,2,0,L|336:24,6,20.9999993591309,0|0|0|0|0|0|0,3:3|3:3|3:3|3:3|3:3|3:3|3:3,3:3:0:0:
392,100,35565,2,0,L|420:104,6,20.9999993591309,0|0|0|0|0|0|0,3:3|3:3|3:3|3:3|3:3|3:3|3:3,3:3:0:0:
388,180,35892,2,0,L|372:184,12,10.4999996795654,0|0|0|0|0|0|0|0|0|0|0|0|0,3:3|3:3|3:3|3:3|3:3|3:3|3:3|3:3|3:3|3:3|3:3|3:3|3:3,3:3:0:0:
352,280,36218,5,0,3:3:0:0:
393,276,36299,1,0,3:3:0:0:
435,272,36381,1,0,3:3:0:0:
477,269,36462,1,0,3:3:0:0:
0,184,37848,5,14,2:0:0:0:
304,328,38009,1,2,2:0:0:0:
20,204,38170,5,10,2:0:0:0:
382,270,38331,1,2,2:0:0:0:
40,224,38493,5,10,2:0:0:0:
443,191,38654,1,2,2:0:0:0:
60,244,38815,5,10,2:0:0:0:
478,90,38976,1,2,2:0:0:0:
144,12,39138,5,10,2:0:0:0:
224,332,39299,1,2,2:0:0:0:
348,36,39460,5,10,2:0:0:0:
300,360,39622,1,2,2:0:0:0:
124,0,39783,5,10,2:0:0:0:
212,352,39944,1,2,2:0:0:0:
368,24,40106,5,10,2:0:0:0:
315,380,40268,1,2,2:0:0:0:
81,161,40428,5,10,2:0:0:0:
376,320,40589,1,2,2:0:0:0:
184,72,40751,5,10,2:0:0:0:
444,84,40912,1,2,2:0:0:0:
59,171,41073,5,10,2:0:0:0:
385,345,41234,1,2,2:0:0:0:
161,58,41396,5,10,2:0:0:0:
467,71,41557,1,2,2:0:0:0:
316,356,41718,5,10,2:0:0:0:
360,16,41880,1,2,2:0:0:0:
216,336,42041,5,10,2:0:0:0:
176,16,42202,1,2,2:0:0:0:
328,376,42364,5,10,2:0:0:0:
376,0,42526,1,2,2:0:0:0:
208,360,42687,5,10,2:0:0:0:
160,0,42848,1,2,2:0:0:0:
464,216,43009,5,10,2:0:0:0:
48,76,43170,1,2,2:0:0:0:
436,110,43331,5,10,2:0:0:0:
56,268,43493,1,2,2:0:0:0:
484,218,43654,5,10,2:0:0:0:
27,64,43815,1,2,2:0:0:0:
448,94,43976,5,10,2:0:0:0:
36,275,44138,1,2,2:0:0:0:
408,372,44299,5,10,2:0:0:0:
340,0,44460,1,0,2:0:0:0:
424,340,44622,5,10,2:0:0:0:
216,64,44783,1,2,2:0:0:0:
440,308,44944,5,10,2:0:0:0:
168,180,45105,1,2,2:0:0:0:
456,276,45267,5,10,2:0:0:0:
192,328,45428,1,2,2:0:0:0:
140,56,45589,5,10,2:0:0:0:
68,328,45751,1,2,2:0:0:0:
404,76,45912,5,10,2:0:0:0:
472,316,46073,1,2,2:0:0:0:
128,32,46235,5,10,2:0:0:0:
40,336,46397,1,2,2:0:0:0:
420,48,46558,5,10,2:0:0:0:
492,336,46719,1,2,2:0:0:0:
108,12,46880,5,10,2:0:0:0:
8,340,47042,1,2,2:0:0:0:
440,24,47203,5,10,2:0:0:0:
512,344,47364,1,2,2:0:0:0:
88,0,47525,6,2,L|72:74,1,62.9999980773926,10|2,2:0|2:0,2:0:0:0:
0,356,47686,2,2,L|24:267,1,62.9999980773926,10|2,2:0|2:0,2:0:0:0:
456,4,47848,5,2,2:0:0:0:
512,368,48009,1,10,2:0:0:0:
24,100,48170,5,10,2:0:0:0:
456,144,48331,1,2,2:0:0:0:
0,384,48493,5,10,2:0:0:0:
456,240,48654,1,2,2:0:0:0:
8,80,48815,5,10,2:0:0:0:
476,124,48976,1,2,2:0:0:0:
0,384,49138,5,10,2:0:0:0:
476,260,49299,1,2,2:0:0:0:
320,384,49460,5,10,2:0:0:0:
512,0,49622,1,2,2:0:0:0:
152,100,49783,5,10,2:0:0:0:
408,12,49944,1,2,2:0:0:0:
288,368,50106,5,10,2:0:0:0:
512,0,50267,1,2,2:0:0:0:
148,68,50428,5,10,2:0:0:0:
440,8,50589,1,2,2:0:0:0:
512,384,50751,5,10,2:0:0:0:
280,8,50912,1,2,2:0:0:0:
124,348,51073,5,10,2:0:0:0:
220,64,51235,1,2,2:0:0:0:
512,384,51396,5,10,2:0:0:0:
256,0,51557,1,2,2:0:0:0:
104,368,51718,5,10,2:0:0:0:
196,44,51880,1,2,2:0:0:0:
504,148,52041,5,10,2:0:0:0:
0,0,52202,1,2,2:0:0:0:
444,304,52364,5,10,2:0:0:0:
64,252,52525,1,2,2:0:0:0:
512,172,52686,5,10,2:0:0:0:
0,0,52847,1,2,2:0:0:0:
424,324,53009,5,10,2:0:0:0:
40,272,53170,1,2,2:0:0:0:
396,40,53331,5,2,0:0:0:0:
395,102,53411,1,2,0:0:0:0:
360,153,53492,1,2,0:0:0:0:
303,177,53572,1,2,0:0:0:0:
242,166,53654,2,2,P|240:124|252:92,3,62.9999980773926
120,120,53977,5,2,0:0:0:0:
70,156,54057,1,2,0:0:0:0:
50,215,54138,1,2,0:0:0:0:
68,275,54218,1,2,0:0:0:0:
117,313,54299,1,2,0:0:0:0:
179,316,54380,1,2,0:0:0:0:
231,283,54460,1,2,0:0:0:0:
255,225,54541,1,2,0:0:0:0:
241,165,54622,5,10,2:0:0:0:
400,336,54783,1,2,2:0:0:0:
448,20,54944,5,10,2:0:0:0:
276,384,55106,1,2,2:0:0:0:
240,140,55267,5,10,2:0:0:0:
412,356,55428,1,2,2:0:0:0:
480,20,55589,5,10,2:0:0:0:
252,380,55751,1,2,2:0:0:0:
48,24,55912,5,14,2:0:0:0:
428,311,56073,1,2,2:0:0:0:
24,332,56235,5,10,2:0:0:0:
424,48,56396,1,2,2:0:0:0:
24,32,56557,5,14,2:0:0:0:
448,324,56718,1,2,2:0:0:0:
64,336,56880,5,10,2:0:0:0:
448,24,57041,1,2,2:0:0:0:
32,36,57202,5,14,2:0:0:0:
460,352,57364,1,2,2:0:0:0:
48,16,57525,5,14,2:0:0:0:
444,368,57686,1,2,2:0:0:0:
478,16,57847,6,0,L|400:75,1,62.9999980773926,14|0,2:0|0:0,0:0:0:0:
16,376,58009,2,0,L|89:320,1,62.9999980773926,10|0,2:0|0:0,0:0:0:0:
500,20,58170,5,14,2:0:0:0:
24,348,58331,1,2,2:0:0:0:
504,376,58493,5,10,2:0:0:0:
24,0,58654,1,2,2:0:0:0:
0,364,58815,5,10,2:0:0:0:
512,24,58977,1,2,2:0:0:0:
504,368,59138,5,10,2:0:0:0:
24,20,59299,1,2,2:0:0:0:
8,360,59460,5,10,2:0:0:0:
492,8,59622,1,2,2:0:0:0:
256,192,59702,12,0,63654,0:0:0:0:
