osu file format v14

[General]
AudioFilename: audio.mp3
AudioLeadIn: 0
PreviewTime: -1
Countdown: 1
SampleSet: None
StackLeniency: 0.7
Mode: 0
LetterboxInBreaks: 0
WidescreenStoryboard: 0

[Editor]
Bookmarks: 20686
DistanceSpacing: 1
BeatDivisor: 4
GridSize: 16
TimelineZoom: 1.8

[Metadata]
Title:quaver
TitleUnicode:quaver
Artist:dj TAKA
ArtistUnicode:dj TAKA
Creator:Pray
Version:asdf
Source:
Tags:
BeatmapID:1161857
BeatmapSetID:548662

[Difficulty]
HPDrainRate:4
CircleSize:4
OverallDifficulty:8
ApproachRate:9.3
SliderMultiplier:1.4
SliderTickRate:1

[Events]
//Background and Video events
0,0,"56521838_p0.jpg",0,0
//Break Periods
//Storyboard Layer 0 (Background)
//Storyboard Layer 1 (Fail)
//Storyboard Layer 2 (Pass)
//Storyboard Layer 3 (Foreground)
//Storyboard Sound Samples

[TimingPoints]
1170,329.67032967033,4,1,0,100,1,0
2554,-100,4,1,0,5,0,0
2637,-100,4,1,0,100,0,0
6444,-71.4285714285714,4,1,0,100,0,0
13104,-100,4,1,0,5,0,0
13186,-100,4,1,0,100,0,0
14423,-100,4,1,0,5,0,0
14505,-100,4,1,0,100,0,0
18379,-100,4,1,0,5,0,0
18461,-100,4,1,0,100,0,0

[HitObjects]
160,288,1171,6,0,B|88:216|192:160|192:160,1,140
348,216,1666,1,0,0:0:0:0:
316,120,2160,1,0,0:0:0:0:
346,294,2490,6,0,B|305:284|320:288,1,35
160,96,2820,2,0,L|176:144,1,35
192,176,2985,1,0,0:0:0:0:
352,144,3314,2,0,P|336:192|336:192,1,35
320,224,3479,1,0,0:0:0:0:
448,112,3809,5,0,0:0:0:0:
160,96,4138,1,0,0:0:0:0:
240,160,4303,1,0,0:0:0:0:
240,256,4633,1,0,0:0:0:0:
336,176,4798,1,0,0:0:0:0:
400,64,5127,6,0,P|352:176|352:176,1,105
336,192,5457,2,0,P|281:95|281:95,1,105
256,128,5787,2,0,L|237:250,1,105
224,256,6116,2,0,P|160:224|144:256,1,105
149,236,6446,5,4,0:0:0:0:
320,128,6776,1,0,0:0:0:0:
224,320,7105,1,0,0:0:0:0:
112,128,7435,1,0,0:0:0:0:
352,240,7765,5,0,0:0:0:0:
416,64,8094,2,0,P|400:96|400:96,1,35
368,192,8424,2,0,P|336:224|336:224,1,35
272,288,8754,2,0,P|224:304|224:304,1,35
208,48,9083,5,4,0:0:0:0:
208,48,9166,1,0,0:0:0:0:
208,48,9248,1,0,0:0:0:0:
128,176,9413,1,0,0:0:0:0:
400,128,9743,1,4,0:0:0:0:
400,128,9825,1,0,0:0:0:0:
400,128,9908,1,0,0:0:0:0:
272,160,10072,1,0,0:0:0:0:
144,48,10402,5,4,0:0:0:0:
128,80,10485,1,0,0:0:0:0:
112,112,10567,1,0,0:0:0:0:
128,224,10732,1,0,0:0:0:0:
448,64,11061,1,4,0:0:0:0:
432,96,11144,1,0,0:0:0:0:
416,128,11226,1,0,0:0:0:0:
240,320,11391,1,0,0:0:0:0:
144,208,11721,6,0,P|112:176|112:176,1,35
352,112,11886,2,0,P|400:112|400:112,3,35
224,32,12215,2,0,P|208:96|208:96,1,35
256,112,12380,2,0,P|272:160|272:160,1,35
224,256,12543,2,0,P|208:288|208:288,5,35
176,192,13039,6,4,P|224:176|224:176,1,35
304,272,13204,1,0,0:0:0:0:
240,192,13369,1,0,0:0:0:0:
128,144,13534,1,0,0:0:0:0:
160,208,13699,1,0,0:0:0:0:
272,96,13864,1,0,0:0:0:0:
208,64,14028,1,0,0:0:0:0:
336,192,14193,1,0,0:0:0:0:
112,272,14358,6,4,P|160:272|160:272,1,35
176,272,14523,1,0,0:0:0:0:
96,128,14688,1,0,0:0:0:0:
240,64,14853,1,0,0:0:0:0:
288,224,15018,1,0,0:0:0:0:
128,224,15182,1,0,0:0:0:0:
384,112,15347,2,0,L|384:192,1,70
320,192,15677,5,0,0:0:0:0:
224,288,15842,1,0,0:0:0:0:
288,128,16007,1,0,0:0:0:0:
384,256,16171,1,0,0:0:0:0:
176,80,16336,1,0,0:0:0:0:
112,176,16501,1,0,0:0:0:0:
320,112,16666,1,0,0:0:0:0:
336,224,16831,1,0,0:0:0:0:
288,288,16996,5,0,0:0:0:0:
352,192,17160,1,0,0:0:0:0:
256,96,17325,1,0,0:0:0:0:
224,208,17490,1,0,0:0:0:0:
304,144,17655,1,0,0:0:0:0:
208,48,17820,1,0,0:0:0:0:
144,128,17985,1,0,0:0:0:0:
256,96,18149,1,0,0:0:0:0:
64,272,18314,6,4,P|112:288|112:288,1,35
192,320,18479,1,0,0:0:0:0:
128,224,18644,1,0,0:0:0:0:
128,352,18809,1,0,0:0:0:0:
288,192,18974,1,0,0:0:0:0:
416,64,19138,1,0,0:0:0:0:
208,128,19303,1,0,0:0:0:0:
416,160,19468,1,0,0:0:0:0:
96,80,19633,5,0,0:0:0:0:
240,144,19798,1,0,0:0:0:0:
112,224,19963,1,0,0:0:0:0:
256,288,20127,1,0,0:0:0:0:
224,176,20292,1,0,0:0:0:0:
400,256,20457,1,0,0:0:0:0:
352,160,20622,1,0,0:0:0:0:
224,240,20787,1,0,0:0:0:0:
160,96,20952,6,4,P|224:64|224:64,1,70
304,128,21281,2,0,P|384:80|384:80,1,70
128,256,21611,6,4,B|147:244|64:288,1,70
288,272,21941,2,0,P|224:304|224:304,1,70
368,48,22270,6,4,P|464:16|464:16,1,70
176,224,22600,2,0,P|272:192|272:192,1,70
80,64,22930,6,4,P|0:16|0:16,1,70
336,240,23259,2,0,P|432:240|432:240,1,70
304,128,23589,5,4,0:0:0:0:
240,240,23754,1,0,0:0:0:0:
368,224,23919,1,0,0:0:0:0:
432,128,24083,1,0,0:0:0:0:
160,192,24248,1,0,0:0:0:0:
320,160,24413,1,0,0:0:0:0:
416,32,24578,1,0,0:0:0:0:
224,32,24743,1,0,0:0:0:0:
400,96,24908,5,0,0:0:0:0:
208,208,25072,1,0,0:0:0:0:
112,64,25237,1,0,0:0:0:0:
288,64,25402,1,0,0:0:0:0:
368,224,25567,1,0,0:0:0:0:
208,224,25732,1,0,0:0:0:0:
128,80,25897,1,0,0:0:0:0:
400,176,26061,1,0,0:0:0:0:
96,304,26226,6,0,P|16:240|16:240,1,70
144,112,26556,2,0,P|112:16|112:16,1,70
320,64,26886,2,0,P|368:0|368:0,1,70
496,208,27215,2,0,P|432:272|432:272,1,70
288,320,27545,5,4,0:0:0:0:
336,208,27710,1,0,0:0:0:0:
446,257,27875,1,0,0:0:0:0:
336,208,28039,1,0,0:0:0:0:
240,160,28204,1,4,0:0:0:0:
384,96,28369,1,0,0:0:0:0:
336,208,28534,1,0,0:0:0:0:
288,160,28699,1,0,0:0:0:0:
160,144,28864,5,0,0:0:0:0:
224,256,29028,1,0,0:0:0:0:
336,304,29193,1,0,0:0:0:0:
400,160,29358,1,0,0:0:0:0:
192,128,29523,1,0,0:0:0:0:
224,192,29688,1,0,0:0:0:0:
272,144,29853,1,0,0:0:0:0:
208,112,30018,1,0,0:0:0:0:
240,176,30182,5,0,0:0:0:0:
288,128,30347,1,0,0:0:0:0:
208,224,30512,1,0,0:0:0:0:
224,160,30677,1,0,0:0:0:0:
288,208,30842,1,0,0:0:0:0:
144,32,31007,1,0,0:0:0:0:
192,176,31171,1,0,0:0:0:0:
64,224,31336,1,0,0:0:0:0:
160,64,31501,5,0,0:0:0:0:
160,64,31666,1,0,0:0:0:0:
64,176,31831,2,0,B|43:201|107:121,1,70
208,208,32160,5,0,0:0:0:0:
208,208,32325,1,0,0:0:0:0:
336,80,32490,2,0,P|400:48|400:48,1,70
432,128,32820,5,0,0:0:0:0:
272,80,32985,1,0,0:0:0:0:
432,32,33149,1,0,0:0:0:0:
288,224,33314,1,0,0:0:0:0:
224,329,33479,6,0,B|240:336|160:304,1,70
448,80,33809,2,0,P|368:80|368:80,1,70
208,160,34138,6,0,P|240:144|240:144,1,35
240,176,34303,2,0,P|288:176|288:176,1,35
256,208,34468,2,0,P|304:224|304:224,1,35
272,240,34633,2,0,P|304:272|304:272,1,35
256,272,34798,5,0,0:0:0:0:
229,294,34880,1,0,0:0:0:0:
196,306,34962,1,0,0:0:0:0:
162,304,35045,1,0,0:0:0:0:
130,289,35127,1,0,0:0:0:0:
106,264,35210,1,0,0:0:0:0:
106,264,35292,1,0,0:0:0:0:
336,80,35457,6,0,P|400:144|400:144,1,70
128,160,35787,1,0,0:0:0:0:
98,144,35869,1,0,0:0:0:0:
96,110,35951,1,0,0:0:0:0:
124,91,36034,1,0,0:0:0:0:
160,64,36116,2,0,P|192:48|192:48,2,35
400,192,36444,6,0,B|405:189|334:215,1,70
192,256,36774,1,0,0:0:0:0:
128,192,36941,6,0,P|144:144|176:128,1,70
190,101,37188,1,0,0:0:0:0:
214,76,37270,1,0,0:0:0:0:
244,58,37352,1,0,0:0:0:0:
277,49,37435,1,0,0:0:0:0:
304,32,37518,2,0,P|336:16|336:16,1,35
336,176,37765,5,0,0:0:0:0:
368,272,37930,2,0,P|288:336|256:336,1,140
224,336,38342,1,0,0:0:0:0:
192,320,38424,1,0,0:0:0:0:
160,288,38507,1,0,0:0:0:0:
144,256,38589,1,0,0:0:0:0:
368,80,38754,2,0,P|400:64|400:64,2,35
224,144,39082,1,0,0:0:0:0:
336,224,39246,1,0,0:0:0:0:
192,64,39413,6,0,P|96:64|80:112,1,140
304,144,39908,1,0,0:0:0:0:
208,208,40072,5,0,0:0:0:0:
208,208,40155,1,0,0:0:0:0:
208,208,40237,2,0,L|176:224,2,35
