osu file format v14

[General]
AudioFilename: audio.mp3
AudioLeadIn: 0
PreviewTime: -1
Countdown: 1
SampleSet: None
StackLeniency: 0.7
Mode: 0
LetterboxInBreaks: 0
WidescreenStoryboard: 1

[Editor]
Bookmarks: 11898
DistanceSpacing: 1.2
BeatDivisor: 4
GridSize: 16
TimelineZoom: 1

[Metadata]
Title:quaver (NovaSagittarii remix)
TitleUnicode:quaver (NovaSagittarii remix)
Artist:dj TAKA
ArtistUnicode:dj TAKA
Creator:NovaSagittarii
Version:streams TAG2 (split)
Source:
Tags:
BeatmapID:2097979
BeatmapSetID:1002306

[Difficulty]
HPDrainRate:2
CircleSize:4
OverallDifficulty:8.5
ApproachRate:9.4
SliderMultiplier:1.4
SliderTickRate:1

[Events]
//Background and Video events
//Break Periods
//Storyboard Layer 0 (Background)
//Storyboard Layer 1 (Fail)
//Storyboard Layer 2 (Pass)
//Storyboard Layer 3 (Foreground)
//Storyboard Sound Samples

[TimingPoints]
30,329.67032967033,4,3,0,100,1,0

[HitObjects]
96,272,30,5,0,0:0:0:0:
208,256,194,1,0,0:0:0:0:
144,160,359,1,0,0:0:0:0:
256,144,524,1,0,0:0:0:0:
448,48,1019,5,0,0:0:0:0:
336,320,1348,5,0,0:0:0:0:
208,256,1678,5,0,0:0:0:0:
80,64,1843,5,0,0:0:0:0:
128,336,2337,5,0,0:0:0:0:
432,192,2667,5,0,0:0:0:0:
128,144,3161,5,0,0:0:0:0:
384,80,3656,5,0,0:0:0:0:
368,288,3986,5,0,0:0:0:0:
272,240,4150,1,0,0:0:0:0:
160,304,4315,5,0,0:0:0:0:
117,205,4479,1,0,0:0:0:0:
0,160,4645,5,0,0:0:0:0:
30,56,4809,1,0,0:0:0:0:
336,112,4975,5,0,0:0:0:0:
425,51,5139,1,0,0:0:0:0:
448,336,5304,5,0,0:0:0:0:
336,336,5469,1,0,0:0:0:0:
64,336,5634,5,0,0:0:0:0:
192,336,5799,1,0,0:0:0:0:
192,336,5881,1,0,0:0:0:0:
64,64,5964,5,0,0:0:0:0:
192,64,6128,1,0,0:0:0:0:
464,64,6293,5,0,0:0:0:0:
352,64,6458,1,0,0:0:0:0:
64,192,6623,5,0,0:0:0:0:
192,192,6788,1,0,0:0:0:0:
464,192,6953,5,0,0:0:0:0:
352,192,7117,1,0,0:0:0:0:
352,192,7200,1,0,0:0:0:0:
128,112,7282,5,0,0:0:0:0:
128,272,7447,1,0,0:0:0:0:
416,272,7612,5,0,0:0:0:0:
416,112,7777,1,0,0:0:0:0:
48,48,7942,5,0,0:0:0:0:
48,176,8106,1,0,0:0:0:0:
80,304,8271,5,0,0:0:0:0:
240,272,8436,1,0,0:0:0:0:
240,272,8519,1,0,0:0:0:0:
240,272,8601,5,0,0:0:0:0:
400,320,8766,1,0,0:0:0:0:
288,96,8931,5,0,0:0:0:0:
144,112,9095,1,0,0:0:0:0:
144,112,9178,1,0,0:0:0:0:
144,112,9260,5,0,0:0:0:0:
288,192,9425,1,0,0:0:0:0:
432,96,9590,5,0,0:0:0:0:
464,224,9755,1,0,0:0:0:0:
464,224,9837,1,0,0:0:0:0:
464,224,9920,5,0,0:0:0:0:
432,96,10084,1,0,0:0:0:0:
64,240,10249,5,0,0:0:0:0:
176,160,10414,1,0,0:0:0:0:
176,160,10497,1,0,0:0:0:0:
176,160,10579,5,0,0:0:0:0:
352,352,10909,5,0,0:0:0:0:
400,96,11403,5,0,0:0:0:0:
48,320,11568,5,0,0:0:0:0:
464,192,11733,5,0,0:0:0:0:
64,128,11898,5,0,0:0:0:0:
81,97,11980,5,0,0:0:0:0:
105,72,12062,5,0,0:0:0:0:
135,54,12145,5,0,0:0:0:0:
168,43,12227,5,0,0:0:0:0:
203,41,12310,5,0,0:0:0:0:
237,48,12392,5,0,0:0:0:0:
269,63,12474,5,0,0:0:0:0:
296,84,12557,5,0,0:0:0:0:
317,112,12639,5,0,0:0:0:0:
330,145,12722,5,0,0:0:0:0:
336,179,12804,5,0,0:0:0:0:
332,214,12887,5,0,0:0:0:0:
320,247,12969,5,0,0:0:0:0:
326,281,13052,5,0,0:0:0:0:
344,311,13134,5,0,0:0:0:0:
370,333,13217,5,0,0:0:0:0:
403,345,13299,5,0,0:0:0:0:
438,344,13382,5,0,0:0:0:0:
471,332,13464,5,0,0:0:0:0:
497,308,13546,5,0,0:0:0:0:
512,278,13629,5,0,0:0:0:0:
512,243,13711,5,0,0:0:0:0:
510,209,13794,5,0,0:0:0:0:
491,180,13876,5,0,0:0:0:0:
463,159,13959,5,0,0:0:0:0:
430,149,14041,5,0,0:0:0:0:
395,152,14123,5,0,0:0:0:0:
363,166,14206,5,0,0:0:0:0:
336,192,14288,5,0,0:0:0:0:
352,222,14370,5,0,0:0:0:0:
358,256,14452,5,0,0:0:0:0:
351,291,14535,5,0,0:0:0:0:
333,321,14617,5,0,0:0:0:0:
307,343,14700,5,0,0:0:0:0:
274,355,14782,5,0,0:0:0:0:
239,355,14864,5,0,0:0:0:0:
206,343,14947,5,0,0:0:0:0:
179,321,15029,5,0,0:0:0:0:
161,292,15112,5,0,0:0:0:0:
155,257,15194,5,0,0:0:0:0:
160,223,15277,5,0,0:0:0:0:
176,192,15359,5,0,0:0:0:0:
202,169,15441,5,0,0:0:0:0:
234,156,15524,5,0,0:0:0:0:
269,154,15606,5,0,0:0:0:0:
302,165,15689,5,0,0:0:0:0:
336,157,15772,5,0,0:0:0:0:
354,128,15854,5,0,0:0:0:0:
347,94,15937,5,0,0:0:0:0:
319,75,16019,5,0,0:0:0:0:
285,67,16101,5,0,0:0:0:0:
250,64,16183,5,0,0:0:0:0:
216,68,16266,5,0,0:0:0:0:
182,78,16348,5,0,0:0:0:0:
151,94,16431,5,0,0:0:0:0:
123,116,16513,5,0,0:0:0:0:
100,142,16595,5,0,0:0:0:0:
134,134,16677,5,0,0:0:0:0:
168,139,16759,5,0,0:0:0:0:
199,155,16842,5,0,0:0:0:0:
223,181,16924,5,0,0:0:0:0:
236,213,17007,5,0,0:0:0:0:
237,248,17089,5,0,0:0:0:0:
227,281,17171,5,0,0:0:0:0:
206,309,17254,5,0,0:0:0:0:
176,328,17336,5,0,0:0:0:0:
143,335,17419,5,0,0:0:0:0:
108,331,17501,5,0,0:0:0:0:
77,315,17584,5,0,0:0:0:0:
53,290,17666,5,0,0:0:0:0:
40,258,17748,5,0,0:0:0:0:
38,223,17831,5,0,0:0:0:0:
73,222,17914,5,0,0:0:0:0:
108,220,17996,5,0,0:0:0:0:
143,219,18079,5,0,0:0:0:0:
178,217,18161,5,0,0:0:0:0:
213,216,18244,5,0,0:0:0:0:
248,214,18326,5,0,0:0:0:0:
283,213,18408,5,0,0:0:0:0:
317,212,18491,5,0,0:0:0:0:
361,211,18574,5,0,0:0:0:0:
395,207,18656,5,0,0:0:0:0:
426,192,18738,5,0,0:0:0:0:
450,166,18821,5,0,0:0:0:0:
463,134,18903,5,0,0:0:0:0:
464,99,18986,5,0,0:0:0:0:
452,67,19068,5,0,0:0:0:0:
429,40,19150,5,0,0:0:0:0:
399,24,19233,5,0,0:0:0:0:
364,19,19315,5,0,0:0:0:0:
330,27,19398,5,0,0:0:0:0:
302,46,19480,5,0,0:0:0:0:
282,75,19563,5,0,0:0:0:0:
273,109,19645,5,0,0:0:0:0:
267,146,19727,5,0,0:0:0:0:
262,181,19810,5,0,0:0:0:0:
257,215,19893,5,0,0:0:0:0:
252,250,19975,5,0,0:0:0:0:
247,285,20058,5,0,0:0:0:0:
242,319,20140,5,0,0:0:0:0:
112,64,21128,5,0,0:0:0:0:
119,98,21210,5,0,0:0:0:0:
127,132,21292,5,0,0:0:0:0:
135,166,21375,5,0,0:0:0:0:
143,200,21457,5,0,0:0:0:0:
151,234,21540,5,0,0:0:0:0:
159,268,21622,5,0,0:0:0:0:
165,303,21705,5,0,0:0:0:0:
182,333,21787,5,0,0:0:0:0:
209,355,21870,5,0,0:0:0:0:
241,368,21952,5,0,0:0:0:0:
276,368,22035,5,0,0:0:0:0:
309,357,22117,5,0,0:0:0:0:
336,335,22199,5,0,0:0:0:0:
354,305,22282,5,0,0:0:0:0:
361,271,22364,5,0,0:0:0:0:
356,237,22447,5,0,0:0:0:0:
340,206,22529,5,0,0:0:0:0:
314,183,22612,5,0,0:0:0:0:
282,169,22694,5,0,0:0:0:0:
247,168,22777,5,0,0:0:0:0:
214,157,22859,5,0,0:0:0:0:
191,132,22941,5,0,0:0:0:0:
182,98,23024,5,0,0:0:0:0:
192,65,23106,5,0,0:0:0:0:
216,40,23189,5,0,0:0:0:0:
250,31,23271,5,0,0:0:0:0:
283,39,23353,5,0,0:0:0:0:
309,62,23436,5,0,0:0:0:0:
320,95,23518,5,0,0:0:0:0:
320,128,23601,5,0,0:0:0:0:
334,159,23683,5,0,0:0:0:0:
360,182,23765,5,0,0:0:0:0:
394,192,23848,5,0,0:0:0:0:
428,186,23930,5,0,0:0:0:0:
456,166,24013,5,0,0:0:0:0:
474,137,24095,5,0,0:0:0:0:
478,102,24177,5,0,0:0:0:0:
466,69,24260,5,0,0:0:0:0:
442,44,24342,5,0,0:0:0:0:
410,32,24425,5,0,0:0:0:0:
375,37,24507,5,0,0:0:0:0:
340,42,24589,5,0,0:0:0:0:
306,47,24672,5,0,0:0:0:0:
271,51,24754,5,0,0:0:0:0:
236,56,24837,5,0,0:0:0:0:
201,61,24919,5,0,0:0:0:0:
167,66,25001,5,0,0:0:0:0:
132,70,25084,5,0,0:0:0:0:
97,75,25166,5,0,0:0:0:0:
63,80,25249,5,0,0:0:0:0:
97,87,25332,5,0,0:0:0:0:
128,102,25414,5,0,0:0:0:0:
154,125,25497,5,0,0:0:0:0:
173,155,25579,5,0,0:0:0:0:
184,188,25662,5,0,0:0:0:0:
186,223,25744,5,0,0:0:0:0:
178,257,25826,5,0,0:0:0:0:
149,238,25908,5,0,0:0:0:0:
120,218,25990,5,0,0:0:0:0:
91,199,26073,5,0,0:0:0:0:
76,231,26156,5,0,0:0:0:0:
72,265,26238,5,0,0:0:0:0:
78,300,26321,5,0,0:0:0:0:
94,331,26403,5,0,0:0:0:0:
119,355,26486,5,0,0:0:0:0:
149,372,26568,5,0,0:0:0:0:
184,379,26650,5,0,0:0:0:0:
218,375,26733,5,0,0:0:0:0:
250,361,26815,5,0,0:0:0:0:
277,338,26898,5,0,0:0:0:0:
295,309,26980,5,0,0:0:0:0:
304,275,27063,5,0,0:0:0:0:
303,240,27145,5,0,0:0:0:0:
292,207,27227,5,0,0:0:0:0:
288,173,27310,5,0,0:0:0:0:
295,139,27392,5,0,0:0:0:0:
313,109,27475,5,0,0:0:0:0:
339,86,27557,5,0,0:0:0:0:
372,73,27640,5,0,0:0:0:0:
406,71,27722,5,0,0:0:0:0:
440,80,27804,5,0,0:0:0:0:
469,100,27887,5,0,0:0:0:0:
490,127,27969,5,0,0:0:0:0:
501,160,28052,5,0,0:0:0:0:
501,195,28134,5,0,0:0:0:0:
490,228,28217,5,0,0:0:0:0:
469,256,28299,5,0,0:0:0:0:
440,276,28381,5,0,0:0:0:0:
411,294,28463,5,0,0:0:0:0:
381,313,28545,5,0,0:0:0:0:
352,332,28628,5,0,0:0:0:0:
322,350,28710,5,0,0:0:0:0:
291,334,28793,5,0,0:0:0:0:
260,310,28876,5,0,0:0:0:0:
246,278,28958,5,0,0:0:0:0:
247,244,29041,5,0,0:0:0:0:
264,213,29123,5,0,0:0:0:0:
292,193,29206,5,0,0:0:0:0:
326,188,29288,5,0,0:0:0:0:
359,199,29370,5,0,0:0:0:0:
