osu file format v14

[General]
AudioFilename: audio.mp3
AudioLeadIn: 0
PreviewTime: -1
Countdown: 1
SampleSet: None
StackLeniency: 0.7
Mode: 0
LetterboxInBreaks: 0
WidescreenStoryboard: 0

[Editor]
Bookmarks: 11898
DistanceSpacing: 2.4
BeatDivisor: 4
GridSize: 16
TimelineZoom: 1

[Metadata]
Title:quaver (NovaSagittarii remix)
TitleUnicode:quaver (NovaSagittarii remix)
Artist:dj TAKA
ArtistUnicode:dj TAKA
Creator:NovaSagittarii
Version:alt sliders
Source:
Tags:
BeatmapID:2097967
BeatmapSetID:1002306

[Difficulty]
HPDrainRate:2
CircleSize:4
OverallDifficulty:9
ApproachRate:9
SliderMultiplier:1.4
SliderTickRate:1

[Events]
//Background and Video events
//Break Periods
//Storyboard Layer 0 (Background)
//Storyboard Layer 1 (Fail)
//Storyboard Layer 2 (Pass)
//Storyboard Layer 3 (Foreground)
//Storyboard Sound Samples

[TimingPoints]
30,329.67032967033,4,2,0,100,1,0

[HitObjects]
80,288,11898,6,0,L|144:272,1,35
153,222,12062,2,0,L|195:210,1,35
232,158,12227,2,0,L|280:144,1,35
312,95,12392,2,0,L|354:77,1,35
409,107,12557,6,0,L|391:154,1,35
333,171,12722,2,0,L|344:227,1,35
399,241,12887,2,0,L|372:295,1,35
314,281,13051,2,0,L|334:343,1,35
259,342,13216,6,0,L|215:348,1,35
173,298,13381,2,0,L|140:325,1,35
89,278,13546,2,0,L|41:293,1,35
23,225,13711,2,0,L|25:161,1,35
76,143,13876,6,0,L|121:111,1,35
153,172,14040,2,0,L|192:203,1,35
246,169,14205,2,0,L|289:150,1,35
314,215,14370,2,0,L|355:264,1,35
405,228,14535,6,0,L|449:258,1,35
415,315,14700,2,0,L|371:357,1,35
349,281,14865,2,0,L|306:291,1,35
251,258,15030,2,0,L|234:307,1,35
180,253,15194,6,0,L|129:231,1,35
81,215,15359,2,0,L|22:187,1,35
82,137,15524,2,0,L|126:95,1,35
162,156,15689,2,0,L|197:109,1,35
253,130,15854,6,0,L|241:78,1,35
314,85,16019,2,0,L|350:56,1,35
400,99,16183,2,0,L|450:126,1,35
463,178,16348,2,0,L|428:221,1,35
370,212,16513,2,0,L|383:275,1,35
440,277,16678,2,0,L|405:311,1,35
344,299,16843,2,0,L|318:340,1,35
260,355,17008,2,0,L|218:304,1,35
168,333,17172,6,0,L|167:268,1,35
97,300,17337,2,0,L|118:242,1,35
49,229,17502,2,0,L|85:187,1,35
21,152,17667,2,0,L|76:138,1,35
110,100,17832,6,0,L|135:154,1,35
194,142,17997,2,0,L|178:199,1,35
237,221,18161,2,0,L|195:261,1,35
178,307,18326,2,0,L|234:320,1,35
278,291,18491,6,0,L|320:238,1,35
319,196,18656,2,0,L|293:152,1,35
248,119,18821,2,0,L|271:79,1,35
335,93,18986,2,0,L|380:97,1,35
425,138,19150,6,0,L|447:177,1,35
413,232,19315,2,0,L|447:280,1,35
398,321,19480,2,0,L|355:277,1,35
307,321,19645,2,0,L|262:349,1,35
208,322,19810,6,0,L|160:305,1,35
106,326,19975,2,0,L|57:285,1,35
115,244,20139,2,0,L|57:237,1,35
85,169,20304,2,0,L|151:176,1,35
131,103,20469,6,0,L|185:104,1,35
209,159,20634,2,0,L|225:199,1,35
292,186,20799,2,0,L|339:204,1,35
379,242,20964,2,0,L|337:282,1,35
271,283,21128,6,0,L|262:331,1,35
181,299,21293,2,0,L|162:339,1,35
101,275,21458,2,0,L|57:295,1,35
79,186,21623,2,0,L|27:191,1,35
51,105,21788,6,0,L|102:67,1,35
161,66,21953,2,0,L|201:94,1,35
273,74,22118,2,0,L|327:51,1,35
389,70,22283,2,0,L|428:100,1,35
417,175,22448,6,0,L|392:224,1,35
419,288,22613,2,0,L|448:325,1,35
364,349,22777,2,0,L|314:375,1,35
271,307,22942,2,0,L|309:258,1,35
314,198,23106,2,0,L|366:223,1,35
320,132,23271,2,0,L|275:136,1,35
211,176,23436,2,0,L|229:222,1,35
194,287,23601,2,0,L|153:258,1,35
132,189,23766,6,0,L|91:204,1,35
82,118,23931,2,0,L|127:105,1,35
197,94,24095,2,0,L|163:42,1,35
245,115,24260,2,0,L|294:71,1,35
279,175,24425,2,0,L|333:210,1,35
254,259,24590,2,0,L|286:318,1,35
187,304,24755,2,0,L|126:329,1,35
228,358,24920,2,0,L|263:348,1,35
322,312,25084,6,0,L|351:274,1,35
413,236,25249,2,0,L|464:211,1,35
459,137,25414,2,0,L|436:85,1,35
372,60,25579,2,0,L|306:46,1,35
255,66,25743,6,0,L|208:106,1,35
186,162,25908,2,0,L|190:212,1,35
272,183,26073,2,0,L|326:210,1,35
387,207,26238,2,0,L|417:268,1,35
323,269,26403,6,0,L|296:317,1,35
222,284,26568,2,0,L|155:291,1,35
102,280,26733,2,0,L|51:239,1,35
58,175,26898,2,0,L|46:114,1,35
117,89,27062,6,0,L|174:69,1,35
163,160,27227,2,0,L|175:216,1,35
232,136,27392,2,0,L|286:111,1,35
305,195,27557,2,0,L|278:252,1,35
361,271,27722,6,0,L|398:303,1,35
403,210,27887,2,0,L|461:206,1,35
396,134,28051,2,0,L|439:109,1,35
343,97,28216,2,0,L|368:41,1,35
286,111,28381,6,0,L|300:159,1,35
218,178,28546,2,0,L|235:229,1,35
148,235,28711,2,0,L|167:281,1,35
79,289,28876,2,0,L|90:331,1,35
170,334,29040,6,0,L|225:330,1,35
257,265,29205,2,0,L|246:220,1,35
186,173,29370,2,0,L|124:148,1,35
73,131,29535,2,0,L|43:72,1,35
129,55,29700,6,0,L|170:39,1,35
246,47,29865,2,0,L|306:77,1,35
347,109,30030,2,0,L|377:152,1,35
407,211,30194,2,0,L|397:255,1,35
316,261,30359,5,0,0:0:0:0:
316,261,30442,1,0,0:0:0:0:
96,192,30606,1,0,0:0:0:0:
96,192,30689,1,0,0:0:0:0:
288,80,30854,1,0,0:0:0:0:
288,80,30936,1,0,0:0:0:0:
176,320,31101,1,0,0:0:0:0:
176,320,31183,1,0,0:0:0:0:
387,226,31348,6,0,L|475:342,1,140
