osu file format v14

[General]
AudioFilename: dj_TAKA_quaver-Vubey.mp3
AudioLeadIn: 0
PreviewTime: 57791
Countdown: 0
SampleSet: Soft
StackLeniency: 0.7
Mode: 0
LetterboxInBreaks: 0
WidescreenStoryboard: 0

[Editor]
Bookmarks: 35455,53917
DistanceSpacing: 1
BeatDivisor: 4
GridSize: 4
TimelineZoom: 2.4

[Metadata]
Title:quaver
TitleUnicode:quaver ♪
Artist:dj TAKA
ArtistUnicode:dj TAKA
Creator:Monstrata
Version:Crescendo
Source:REFLEC BEAT limelight
Tags:true blue risk junk snownino_ haruto haruto_aizawa [ Joey ] Aia beatmania IIDX 19 Lincle jubeat saucer jukebeat KONAMI music pack 25 pop'n music Sunny Park plus MUSIC PACK 29 + ポップンリズミン パック1 MUSIC PACK 19
BeatmapID:915210
BeatmapSetID:423527

[Difficulty]
HPDrainRate:5
CircleSize:4
OverallDifficulty:9
ApproachRate:9.6
SliderMultiplier:1
SliderTickRate:1

[Events]
//Background and Video events
0,0,"D7l8mHT.jpg",0,0
//Break Periods
//Storyboard Layer 0 (Background)
//Storyboard Layer 1 (Fail)
//Storyboard Layer 2 (Pass)
//Storyboard Layer 3 (Foreground)
//Storyboard Sound Samples

[TimingPoints]
1170,329.67032967033,4,2,1,40,1,0
5785,-100,4,1,1,55,0,0
6444,-71.4285714285714,4,2,1,40,0,0
8917,-71.4285714285714,4,2,1,45,0,0
11719,-71.4285714285714,4,3,1,45,0,0
13038,-62.5,4,2,1,65,0,0
23587,-58.8235294117647,4,2,1,65,0,0
34137,-58.8235294117647,4,2,1,60,0,0
34796,-58.8235294117647,4,2,1,50,0,0
57873,326.086956521739,4,2,1,65,1,0
57873,-58.8235294117647,4,2,1,65,0,0
82166,-58.8235294117647,4,2,1,50,0,0
82655,322.58064516129,4,2,1,65,1,0
82655,-55.5555555555556,4,2,1,65,0,0
98138,-55.5555555555556,4,2,1,65,0,0
102009,-55.5555555555556,4,1,1,65,0,0
103300,-55.5555555555556,4,1,1,45,0,0
104429,-55.5555555555556,4,1,1,75,0,0
105396,-55.5555555555556,4,1,1,45,0,0
105880,329.67032967033,4,2,1,40,1,0
105880,-71.4285714285714,4,2,1,40,0,0
108352,-71.4285714285714,4,2,1,45,0,0
111154,-71.4285714285714,4,3,1,45,0,0
111484,-58.8235294117647,4,3,1,45,0,0
112473,-58.8235294117647,4,2,1,65,0,0
123022,-52.6315789473684,4,3,1,65,0,0
133572,-52.6315789473684,4,3,1,45,0,0
134890,-58.8235294117647,4,2,1,65,0,0
145440,-54.054054054054,4,3,1,65,0,0
157308,326.086956521739,4,2,1,65,1,0
157308,-50,4,2,1,65,0,0
180786,-100,4,2,1,50,0,0
182090,322.58064516129,4,2,1,65,1,1
182090,-50,4,2,1,65,0,1
192412,-100,4,2,2,65,0,1
192493,-100,4,2,1,65,0,1
193702,-100,4,2,2,65,0,1
193783,-100,4,2,1,65,0,1
194993,-100,4,2,2,65,0,1
195073,-100,4,2,1,65,0,1
196283,-100,4,2,2,65,0,1
196364,-100,4,2,1,65,0,1
196928,-100,4,2,2,65,0,1
197009,-100,4,2,1,65,0,1
197573,-100,4,2,2,65,0,1
197654,-100,4,2,1,65,0,1
198219,-50,4,2,2,65,0,1
198299,-50,4,2,1,65,0,1
198541,-50,4,2,1,65,0,1
198864,-100,4,2,2,65,0,1
198944,-100,4,2,1,65,0,1
199509,-50,4,2,2,65,0,1
199590,-50,4,2,1,65,0,1
200154,-50,4,2,2,65,0,1
200254,-50,4,2,1,65,0,1
200799,-50,4,2,2,65,0,1
200899,-50,4,2,1,65,0,1
201444,-50,4,2,2,65,0,1
201544,-50,4,2,1,65,0,1
202089,-50,4,2,2,65,0,1
202189,-50,4,2,1,65,0,1
202735,-50,4,2,2,75,0,1
202835,-50,4,2,1,75,0,1
203864,-50,4,2,1,75,0,0
204993,-50,4,2,1,5,0,0

[Colours]
Combo1 : 201,147,255
Combo2 : 128,255,128
Combo3 : 255,255,134
Combo4 : 130,192,255

[HitObjects]
372,90,1170,6,0,P|323:83|280:108,1,100,2|0,0:0|0:0,0:0:0:0:
421,18,1664,2,0,L|412:118,1,100,2|0,0:0|0:0,0:0:0:0:
349,212,2159,2,0,L|398:208,1,50,2|0,0:0|0:0,0:0:0:0:
512,126,2488,6,0,L|406:118,1,100,2|0,0:0|0:0,0:0:0:0:
268,191,2983,2,0,P|306:160|320:113,1,100,2|0,0:0|0:0,0:0:0:0:
234,68,3477,2,0,L|241:117,1,50,2|0,0:0|0:0,0:0:0:0:
180,230,3807,6,0,L|187:181,1,50,2|0,0:0|0:0,0:0:0:0:
104,156,4137,1,0,0:0:0:0:
22,310,4301,2,0,L|15:261,1,50,2|0,0:0|0:0,0:0:0:0:
98,236,4631,1,0,0:0:0:0:
203,378,4796,2,0,L|210:329,1,50,2|0,0:0|0:0,0:0:0:0:
185,150,5126,6,0,P|186:178|199:210,1,50,2|0,0:0|0:0,0:0:0:0:
329,153,5455,2,0,P|301:153|269:166,1,50,2|0,0:0|0:0,0:0:0:0:
183,294,5785,1,8,0:3:0:0:
195,295,5867,1,0,0:0:0:0:
207,294,5950,1,8,0:3:0:0:
220,291,6032,1,0,0:0:0:0:
231,287,6115,1,8,0:3:0:0:
98,236,6279,1,4,0:3:0:0:
203,378,6444,6,0,L|300:366,1,69.9999978637696,6|0,0:0|0:0,0:0:0:0:
388,290,6774,2,0,L|319:282,1,69.9999978637696,0|0,0:0|0:0,0:0:0:0:
195,214,7104,2,0,P|230:213|262:199,1,69.9999978637696,2|0,0:0|0:0,0:0:0:0:
385,134,7433,2,0,P|351:132|319:119,1,69.9999978637696,0|0,0:0|0:0,0:0:0:0:
211,43,7763,6,0,L|220:113,1,69.9999978637696,2|0,0:0|0:0,0:0:0:0:
93,111,8093,2,0,L|148:153,1,69.9999978637696,0|0,0:0|0:0,0:0:0:0:
57,242,8422,2,0,L|126:233,1,69.9999978637696,2|0,0:0|0:0,0:0:0:0:
124,360,8752,2,0,L|166:304,1,69.9999978637696,0|8,0:0|0:3,0:0:0:0:
329,344,9082,6,0,P|398:350|456:312,1,139.999995727539,6|0,0:0|0:0,0:0:0:0:
436,216,9576,1,8,0:3:0:0:
261,289,9741,2,0,P|192:294|134:256,1,139.999995727539,6|0,0:0|0:0,0:0:0:0:
154,160,10235,1,8,0:3:0:0:
343,257,10400,5,6,0:0:0:0:
287,113,10565,1,0,0:0:0:0:
261,289,10730,1,2,0:0:0:0:
356,168,10895,1,0,0:0:0:0:
179,321,11060,5,2,0:0:0:0:
179,321,11142,1,0,0:0:0:0:
274,201,11307,1,0,0:0:0:0:
274,201,11389,1,2,0:0:0:0:
343,257,11554,1,0,0:0:0:0:
287,113,11719,5,2,0:0:0:0:
260,288,11884,2,0,P|285:322|313:339,1,69.9999978637696,2|0,0:0|0:0,0:0:0:0:
356,168,12213,1,2,0:0:0:0:
191,233,12378,6,0,L|138:225,1,34.9999989318848,2|0,0:0|0:0,0:0:0:0:
95,121,12543,2,0,L|42:128,1,34.9999989318848,4|0,0:0|0:0,0:0:0:0:
70,244,12708,2,0,L|82:182,1,34.9999989318848,2|0,0:0|0:0,0:0:0:0:
180,112,12873,2,0,L|173:146,1,34.9999989318848,2|0,0:0|0:0,0:0:0:0:
260,288,13038,5,6,1:0:0:0:
356,168,13202,1,0,0:0:0:0:
191,233,13367,1,2,1:0:0:0:
287,113,13532,1,0,0:0:0:0:
343,257,13697,1,2,1:0:0:0:
369,79,13862,1,0,0:0:0:0:
205,147,14027,1,2,1:0:0:0:
356,168,14191,1,0,0:0:0:0:
177,321,14356,5,2,1:0:0:0:
121,177,14521,1,0,0:0:0:0:
274,201,14686,1,2,1:0:0:0:
136,93,14851,1,0,0:0:0:0:
106,261,15016,1,2,1:0:0:0:
205,147,15180,1,0,0:0:0:0:
37,207,15345,1,2,1:0:0:0:
186,231,15510,1,0,0:0:0:0:
67,39,15675,5,2,1:2:0:0:
121,177,15840,1,2,0:0:0:0:
136,93,16005,1,2,1:2:0:0:
106,261,16170,1,2,0:0:0:0:
205,147,16334,1,2,1:2:0:0:
121,177,16499,1,2,0:0:0:0:
260,288,16664,1,2,1:2:0:0:
186,231,16829,1,2,0:0:0:0:
203,363,16994,5,2,1:2:0:0:
335,346,17159,1,0,0:0:0:0:
318,214,17323,1,2,1:2:0:0:
260,288,17488,1,0,0:0:0:0:
392,271,17653,1,8,1:3:0:0:
242,156,17818,1,4,1:3:0:0:
335,346,17983,1,8,1:3:0:0:
318,214,18148,1,4,1:3:0:0:
102,312,18312,5,6,1:0:0:0:
260,288,18477,1,0,0:0:0:0:
160,160,18642,1,2,1:0:0:0:
181,300,18807,1,0,0:0:0:0:
319,134,18972,1,2,1:0:0:0:
210,224,19137,1,0,0:0:0:0:
368,196,19301,1,8,1:3:0:0:
270,71,19466,1,4,1:3:0:0:
260,288,19631,5,2,1:2:0:0:
240,146,19796,1,2,0:0:0:0:
181,300,19961,1,2,1:2:0:0:
290,211,20126,1,2,0:0:0:0:
315,345,20290,1,2,1:2:0:0:
210,224,20455,1,8,0:3:0:0:
233,364,20620,1,0,0:0:0:0:
341,273,20785,1,4,0:3:0:0:
130,237,20950,5,6,1:0:0:0:
260,288,21115,1,0,0:0:0:0:
262,94,21279,1,2,1:0:0:0:
210,224,21444,1,0,0:0:0:0:
405,226,21609,1,2,1:0:0:0:
275,174,21774,1,0,0:0:0:0:
273,369,21939,1,2,1:0:0:0:
325,239,22104,1,0,0:0:0:0:
117,157,22268,5,8,1:3:0:0:
143,317,22433,1,4,1:3:0:0:
262,94,22598,5,8,1:3:0:0:
136,196,22763,1,4,1:3:0:0:
389,188,22928,5,8,1:3:0:0:
237,129,23093,1,4,1:3:0:0:
371,344,23257,5,8,1:3:0:0:
346,183,23422,1,4,1:3:0:0:
143,317,23587,5,6,1:0:0:0:
172,173,23752,1,0,0:0:0:0:
226,333,23917,1,2,1:0:0:0:
60,301,24082,1,0,0:0:0:0:
281,205,24246,1,2,1:0:0:0:
115,237,24411,1,0,0:0:0:0:
202,26,24576,1,2,1:0:0:0:
172,173,24741,1,0,0:0:0:0:
118,9,24906,5,2,1:0:0:0:
229,107,25071,1,0,0:0:0:0:
4,138,25235,1,2,1:0:0:0:
145,91,25400,1,0,0:0:0:0:
60,301,25565,1,2,1:0:0:0:
88,155,25730,1,0,0:0:0:0:
226,333,25895,1,2,1:0:0:0:
115,237,26060,1,0,0:0:0:0:
313,123,26224,5,2,1:2:0:0:
199,253,26389,1,2,0:0:0:0:
229,107,26554,1,2,1:2:0:0:
283,269,26719,1,2,0:0:0:0:
145,91,26884,1,2,1:2:0:0:
199,253,27049,1,2,0:0:0:0:
229,107,27213,1,2,1:2:0:0:
115,237,27378,1,2,0:0:0:0:
200,26,27543,5,2,1:2:0:0:
258,188,27708,1,0,0:0:0:0:
391,49,27873,1,2,1:2:0:0:
229,107,28038,1,0,0:0:0:0:
368,240,28202,1,8,1:3:0:0:
310,78,28367,1,4,1:3:0:0:
177,217,28532,1,8,1:3:0:0:
339,159,28697,1,4,1:3:0:0:
111,161,28862,5,6,1:0:0:0:
124,328,29027,1,0,0:0:0:0:
262,232,29191,1,2,1:0:0:0:
95,246,29356,1,0,0:0:0:0:
190,384,29521,1,2,1:0:0:0:
177,217,29686,1,0,0:0:0:0:
38,312,29851,1,8,1:3:0:0:
206,299,30016,1,4,1:3:0:0:
26,145,30180,5,2,1:2:0:0:
95,246,30345,1,2,0:0:0:0:
82,79,30510,1,2,1:2:0:0:
10,230,30675,1,2,0:0:0:0:
111,161,30840,1,2,1:2:0:0:
206,299,31005,1,8,0:3:0:0:
233,151,31170,1,0,0:0:0:0:
95,246,31334,1,4,0:3:0:0:
167,95,31499,5,6,1:0:0:0:
262,232,31664,1,0,0:0:0:0:
249,66,31829,1,2,1:0:0:0:
111,161,31994,1,0,0:0:0:0:
318,167,32159,1,2,1:0:0:0:
182,9,32323,1,0,0:0:0:0:
177,217,32488,1,2,1:0:0:0:
334,82,32653,1,0,0:0:0:0:
111,161,32818,5,8,1:3:0:0:
346,247,32983,1,4,1:3:0:0:
175,90,33148,5,8,1:3:0:0:
281,317,33312,1,4,1:3:0:0:
271,86,33477,5,8,1:3:0:0:
185,321,33642,1,4,1:3:0:0:
341,151,33807,5,8,1:3:0:0:
115,256,33972,1,4,1:3:0:0:
346,247,34137,5,2,0:2:0:0:
341,151,34301,1,2,0:2:0:0:
248,126,34466,1,2,0:2:0:0:
195,206,34631,1,2,0:2:0:0:
256,281,34796,1,2,0:2:0:0:
250,301,34878,1,2,0:2:0:0:
240,320,34961,1,2,0:2:0:0:
225,335,35043,1,2,0:2:0:0:
207,346,35126,1,2,0:2:0:0:
187,353,35208,1,2,0:2:0:0:
166,354,35290,1,2,0:2:0:0:
145,350,35373,1,2,0:2:0:0:
126,341,35455,5,6,0:0:0:0:
194,206,35620,2,0,L|312:216,1,85.0000016212464,2|2,0:0|1:0,0:0:0:0:
400,0,35950,1,0,0:0:0:0:
332,135,36115,1,0,1:0:0:0:
310,133,36197,1,0,0:0:0:0:
289,131,36279,1,0,0:0:0:0:
268,129,36362,1,0,0:0:0:0:
247,127,36444,1,2,1:0:0:0:
370,215,36609,2,0,L|454:207,1,85.0000016212464,0|2,0:0|1:0,0:0:0:0:
294,55,36939,5,0,0:0:0:0:
285,222,37104,1,2,1:2:0:0:
289,242,37186,1,2,0:0:0:0:
298,261,37268,1,2,0:0:0:0:
312,278,37351,1,2,0:0:0:0:
329,290,37433,1,2,1:2:0:0:
349,298,37516,1,0,0:0:0:0:
370,301,37598,1,2,0:0:0:0:
321,144,37763,1,2,1:0:0:0:
243,326,37928,2,0,L|158:333,1,85.0000016212464,0|2,0:0|1:0,0:0:0:0:
71,157,38257,5,0,0:0:0:0:
148,249,38422,2,0,L|143:190,1,42.5000008106232,2|2,1:2|0:0,0:0:0:0:
210,102,38587,2,0,L|206:144,1,42.5000008106232,2|2,0:0|0:0,0:0:0:0:
253,237,38752,1,2,1:2:0:0:
271,227,38834,1,0,0:0:0:0:
292,222,38916,1,2,0:0:0:0:
313,224,38999,1,0,0:0:0:0:
333,230,39081,1,2,1:0:0:0:
285,136,39246,1,0,0:0:0:0:
300,309,39411,6,0,B|347:314|347:314|466:267,1,170.000003242493,2|2,1:0|1:0,0:0:0:0:
412,199,39906,2,0,L|297:244,1,85.0000016212464,2|8,0:0|1:3,0:0:0:0:
382,341,40235,1,4,1:3:0:0:
345,146,40400,1,8,1:3:0:0:
218,277,40565,1,4,1:3:0:0:
479,252,40730,6,0,P|495:214|481:148,1,85.0000016212464,6|2,0:0|0:0,0:0:0:0:
278,93,41060,2,0,P|261:130|276:197,1,85.0000016212464,2|0,1:0|0:0,0:0:0:0:
424,114,41389,2,0,L|373:177,1,42.5000008106232,2|0,1:0|0:0,0:0:0:0:
333,230,41554,1,2,0:1:0:0:
333,230,41637,1,0,0:0:0:0:
333,230,41719,1,8,1:3:0:0:
356,61,41884,1,4,1:3:0:0:
398,285,42049,6,0,P|422:317|487:338,1,85.0000016212464,2|0,1:0|0:0,0:0:0:0:
345,146,42378,2,0,L|272:153,1,42.5000008106232,2|2,1:2|0:0,0:0:0:0:
256,259,42543,2,0,L|213:254,1,42.5000008106232,2|2,0:0|0:0,0:0:0:0:
266,76,42708,1,2,1:2:0:0:
333,230,42873,2,0,L|436:220,1,85.0000016212464,8|0,0:3|0:0,0:0:0:0:
356,61,43202,1,4,0:3:0:0:
177,189,43367,5,2,1:0:0:0:
345,146,43532,1,0,0:0:0:0:
176,91,43697,1,2,1:2:0:0:
144,96,43779,1,2,0:0:0:0:
113,101,43861,1,2,0:0:0:0:
81,106,43944,1,2,0:0:0:0:
50,111,44027,2,0,L|59:161,1,42.5000008106232,2|0,1:2|0:0,0:0:0:0:
131,194,44191,2,0,L|122:244,1,42.5000008106232,2|0,0:0|0:0,0:0:0:0:
97,370,44356,1,0,1:0:0:0:
194,288,44521,1,2,0:0:0:0:
415,370,44686,5,8,1:3:0:0:
318,288,44851,1,4,1:3:0:0:
194,370,45016,1,8,1:3:0:0:
318,370,45180,1,4,1:3:0:0:
256,224,45345,1,8,1:3:0:0:
260,192,45427,1,0,0:0:0:0:
275,164,45509,1,4,1:3:0:0:
299,143,45592,1,0,0:0:0:0:
329,132,45675,2,0,L|401:140,1,42.5000008106232,8|0,1:3|0:0,0:0:0:0:
193,152,45840,2,0,L|121:144,1,42.5000008106232,4|0,1:3|0:0,0:0:0:0:
346,220,46005,6,0,P|388:222|425:203,1,85.0000016212464,6|2,0:0|0:0,0:0:0:0:
315,48,46334,2,0,L|329:131,1,85.0000016212464,2|0,1:0|0:0,0:0:0:0:
183,131,46664,2,0,L|197:48,1,85.0000016212464,2|0,1:0|0:0,0:0:0:0:
166,220,46994,2,0,P|124:222|87:203,1,85.0000016212464,2|0,1:0|0:0,0:0:0:0:
207,320,47323,6,0,L|268:314,1,42.5000008106232,2|2,1:2|0:0,0:0:0:0:
303,215,47488,2,0,L|345:219,1,42.5000008106232,2|2,0:0|0:0,0:0:0:0:
360,368,47653,2,0,L|421:362,1,42.5000008106232,2|0,1:2|0:0,0:0:0:0:
392,142,47818,2,0,L|489:151,1,85.0000016212464,2|2,0:0|1:0,0:0:0:0:
307,133,48148,1,0,0:0:0:0:
299,297,48312,2,0,P|341:288|379:242,1,85.0000016212464,2|0,1:0|0:0,0:0:0:0:
233,170,48642,6,0,P|219:211|240:266,1,85.0000016212464,2|0,1:2|0:0,0:0:0:0:
307,133,48972,2,0,L|285:39,1,85.0000016212464,2|0,1:1|0:0,0:0:0:0:
163,125,49301,1,2,1:1:0:0:
303,215,49466,1,0,0:0:0:0:
393,75,49631,2,0,L|490:84,1,85.0000016212464,2|0,1:1|0:0,0:0:0:0:
413,264,49961,6,0,L|370:259,1,42.5000008106232,2|2,1:2|0:0,0:0:0:0:
307,133,50126,2,0,L|264:137,1,42.5000008106232,2|2,0:0|0:0,0:0:0:0:
214,288,50290,2,0,L|280:294,1,42.5000008106232,2|0,1:2|0:0,0:0:0:0:
163,125,50455,2,0,L|65:134,1,85.0000016212464,2|8,0:0|1:3,0:0:0:0:
129,279,50785,1,4,1:3:0:0:
181,42,50950,1,8,1:3:0:0:
101,206,51115,1,4,1:3:0:0:
311,51,51279,6,0,P|355:68|385:110,1,85.0000016212464,6|0,0:0|0:0,0:0:0:0:
412,263,51609,2,0,L|397:180,1,85.0000016212464,2|0,1:1|0:0,0:0:0:0:
178,218,51939,1,2,1:1:0:0:
295,240,52104,1,0,0:0:0:0:
207,65,52268,1,8,1:3:0:0:
246,177,52433,1,4,1:3:0:0:
317,17,52598,6,0,L|275:24,1,42.5000008106232,2|2,1:2|0:0,0:0:0:0:
134,145,52763,2,0,L|176:138,1,42.5000008106232,2|2,0:0|0:0,0:0:0:0:
325,166,52928,1,2,1:2:0:0:
90,72,53093,6,0,L|83:29,1,42.5000008106232,2|2,0:2|0:0,0:0:0:0:
178,218,53257,2,0,L|184:260,1,42.5000008106232,2|2,1:2|0:0,0:0:0:0:
207,65,53422,1,10,1:3:0:0:
107,261,53587,1,0,0:0:0:0:
134,145,53752,1,4,0:3:0:0:
303,265,53917,5,6,0:0:0:0:
249,101,54082,1,0,0:0:0:0:
194,210,54246,1,2,1:2:0:0:
276,183,54411,1,0,0:0:0:0:
172,125,54576,5,6,0:0:0:0:
216,295,54741,1,4,0:3:0:0:
276,183,54906,1,8,1:3:0:0:
112,237,55071,1,4,0:3:0:0:
303,265,55235,5,6,0:0:0:0:
82,150,55400,1,4,0:3:0:0:
82,150,55730,5,6,0:0:0:0:
216,295,55895,1,4,0:3:0:0:
216,295,55977,1,0,0:0:0:0:
249,101,56142,1,0,0:0:0:0:
249,101,56224,5,6,0:0:0:0:
112,237,56389,1,4,0:3:0:0:
112,237,56719,5,6,0:1:0:0:
360,200,56884,1,4,0:3:0:0:
360,200,57213,5,6,0:1:0:0:
142,150,57378,1,2,0:3:0:0:
303,265,57543,2,0,P|350:286|405:274,1,85.0000016212464,2|0,0:0|0:0,0:0:0:0:
190,47,57873,5,6,1:0:0:0:
344,70,58036,1,0,0:0:0:0:
147,119,58199,1,2,1:0:0:0:
272,27,58362,1,0,0:0:0:0:
87,178,58525,1,2,1:0:0:0:
241,155,58688,1,0,0:0:0:0:
44,106,58851,1,2,1:0:0:0:
169,198,59014,1,0,0:0:0:0:
87,34,59177,5,2,1:0:0:0:
87,177,59340,1,0,0:0:0:0:
272,192,59503,1,2,1:0:0:0:
147,119,59666,1,0,0:0:0:0:
43,270,59829,1,2,1:0:0:0:
169,198,59992,1,0,0:0:0:0:
125,40,60155,1,2,1:0:0:0:
87,177,60318,1,0,0:0:0:0:
250,113,60481,5,2,1:2:0:0:
328,250,60644,1,2,0:0:0:0:
311,169,60807,1,2,1:2:0:0:
294,327,60970,1,2,0:0:0:0:
382,146,61133,1,2,1:2:0:0:
318,291,61296,1,2,0:0:0:0:
326,208,61459,1,2,1:2:0:0:
360,364,61623,1,2,0:0:0:0:
260,241,61786,5,2,1:2:0:0:
393,256,61949,1,0,0:0:0:0:
243,325,62112,1,2,1:2:0:0:
326,208,62275,1,0,0:0:0:0:
109,256,62438,1,8,1:3:0:0:
251,243,62601,1,4,1:3:0:0:
101,174,62764,1,8,1:3:0:0:
184,291,62927,1,4,1:3:0:0:
168,126,63090,5,6,1:0:0:0:
34,222,63253,1,0,0:0:0:0:
248,161,63417,1,2,1:0:0:0:
82,148,63580,1,0,0:0:0:0:
302,222,63743,1,2,1:0:0:0:
168,126,63906,1,0,0:0:0:0:
382,187,64069,1,8,1:3:0:0:
216,200,64232,1,4,1:3:0:0:
416,102,64395,5,2,1:2:0:0:
348,272,64558,1,2,0:0:0:0:
314,58,64720,5,2,1:2:0:0:
309,204,64884,1,2,0:0:0:0:
215,49,65046,5,2,1:2:0:0:
249,153,65210,1,8,0:3:0:0:
119,54,65373,5,0,0:0:0:0:
175,125,65536,1,4,0:3:0:0:
48,110,65699,5,6,1:0:0:0:
104,181,65862,1,0,0:0:0:0:
153,86,66025,5,2,1:0:0:0:
186,188,66188,1,0,0:0:0:0:
267,72,66351,5,2,1:0:0:0:
263,215,66514,1,0,0:0:0:0:
381,78,66677,5,8,1:3:0:0:
326,266,66840,1,4,1:3:0:0:
200,16,67003,5,0,0:0:0:0:
263,215,67166,1,4,1:3:0:0:
466,9,67329,5,2,1:0:0:0:
267,72,67492,1,0,0:0:0:0:
473,275,67655,5,8,1:3:0:0:
410,76,67818,1,4,1:3:0:0:
207,282,67981,5,8,1:3:0:0:
406,219,68144,1,2,0:0:0:0:
216,144,68307,5,6,1:0:0:0:
326,266,68470,1,0,0:0:0:0:
267,72,68633,1,2,1:0:0:0:
263,215,68796,1,0,0:0:0:0:
338,29,68959,1,2,1:0:0:0:
216,144,69123,1,0,0:0:0:0:
410,76,69286,1,2,1:0:0:0:
267,72,69449,1,0,0:0:0:0:
406,219,69612,5,2,1:0:0:0:
338,109,69775,1,0,0:0:0:0:
359,312,69938,1,2,1:0:0:0:
332,185,70101,1,0,0:0:0:0:
283,383,70264,1,2,1:0:0:0:
301,254,70427,1,0,0:0:0:0:
182,352,70590,1,2,1:0:0:0:
359,312,70753,1,0,0:0:0:0:
200,223,70916,5,2,1:2:0:0:
338,109,71079,1,2,0:0:0:0:
301,254,71242,1,2,1:2:0:0:
261,72,71405,1,2,0:0:0:0:
415,146,71568,1,2,1:2:0:0:
267,157,71731,1,2,0:0:0:0:
409,61,71894,1,2,1:2:0:0:
421,231,72057,1,2,0:0:0:0:
338,109,72220,5,2,1:2:0:0:
301,254,72383,1,0,0:0:0:0:
267,157,72546,1,2,1:2:0:0:
306,266,72709,1,0,0:0:0:0:
415,146,72873,1,8,1:3:0:0:
311,278,73036,1,4,1:3:0:0:
261,72,73199,1,8,1:3:0:0:
316,290,73362,1,4,1:3:0:0:
338,109,73525,5,6,1:0:0:0:
190,119,73688,1,0,0:0:0:0:
322,183,73851,1,2,1:0:0:0:
214,190,74014,1,0,0:0:0:0:
349,257,74177,1,2,1:0:0:0:
201,267,74340,1,0,0:0:0:0:
376,331,74503,1,8,1:3:0:0:
188,344,74666,1,4,1:3:0:0:
399,196,74829,5,2,1:2:0:0:
214,190,74992,1,2,0:0:0:0:
349,257,75155,1,2,1:2:0:0:
338,109,75318,1,2,0:0:0:0:
201,267,75481,1,2,1:2:0:0:
190,119,75644,1,8,0:3:0:0:
322,183,75807,1,0,0:0:0:0:
261,72,75970,1,4,0:3:0:0:
139,215,76133,5,6,1:0:0:0:
236,158,76296,1,0,0:0:0:0:
100,41,76459,5,2,1:0:0:0:
159,137,76622,1,0,0:0:0:0:
277,0,76786,5,2,1:0:0:0:
181,59,76949,1,0,0:0:0:0:
318,177,77112,5,2,1:0:0:0:
259,81,77275,1,0,0:0:0:0:
139,215,77438,5,8,1:3:0:0:
181,59,77601,1,4,1:3:0:0:
318,177,77764,5,8,1:3:0:0:
159,137,77927,1,4,1:3:0:0:
277,0,78090,5,8,1:3:0:0:
236,158,78253,1,4,1:3:0:0:
100,41,78416,5,8,1:3:0:0:
259,81,78579,1,4,1:3:0:0:
62,258,78742,5,8,1:3:0:0:
260,238,78905,1,4,1:3:0:0:
119,17,79068,5,8,1:3:0:0:
139,215,79231,1,4,1:3:0:0:
360,74,79394,5,8,1:3:0:0:
162,94,79557,1,4,1:3:0:0:
303,315,79720,5,8,1:3:0:0:
283,117,79883,1,4,1:3:0:0:
172,363,80046,5,8,1:3:0:0:
162,94,80209,1,4,1:3:0:0:
427,276,80373,5,8,1:3:0:0:
158,286,80536,1,4,1:3:0:0:
340,21,80699,5,8,1:3:0:0:
350,290,80862,1,4,1:3:0:0:
85,108,81026,5,8,1:3:0:0:
354,98,81189,1,4,1:3:0:0:
98,336,81351,6,0,P|81:274|105:230,1,85.0000016212464,4|0,0:0|0:0,0:0:0:0:
221,235,81677,2,0,P|196:269|158:286,1,85.0000016212464,0|0,0:0|0:0,0:0:0:0:
72,178,82003,2,0,P|113:182|147:207,1,85.0000016212464,0|2,0:0|0:0,0:0:0:0:
233,315,82329,2,0,P|216:276|221:235,1,85.0000016212464,2|0,0:0|0:0,0:0:0:0:
316,104,82655,5,6,1:0:0:0:
154,89,82816,1,0,0:0:0:0:
369,168,82977,1,2,1:0:0:0:
237,75,83138,1,0,0:0:0:0:
427,227,83300,5,2,1:0:0:0:
265,242,83461,1,0,0:0:0:0:
480,163,83622,1,2,1:0:0:0:
348,256,83783,1,0,0:0:0:0:
237,75,83945,5,2,1:0:0:0:
265,242,84106,1,0,0:0:0:0:
316,104,84267,1,2,1:0:0:0:
348,256,84429,1,0,0:0:0:0:
391,64,84590,5,2,1:0:0:0:
427,227,84751,1,0,0:0:0:0:
466,24,84913,1,2,1:0:0:0:
480,163,85074,1,0,0:0:0:0:
318,19,85235,5,2,1:2:0:0:
251,157,85396,1,2,0:0:0:0:
415,118,85558,1,2,1:2:0:0:
348,256,85719,1,2,0:0:0:0:
237,75,85880,5,2,1:2:0:0:
170,213,86041,1,2,0:0:0:0:
334,174,86203,1,2,1:2:0:0:
267,312,86364,1,2,0:0:0:0:
156,131,86525,5,2,1:2:0:0:
184,295,86687,1,0,0:0:0:0:
251,157,86848,1,2,1:2:0:0:
89,269,87009,1,0,0:0:0:0:
237,75,87171,5,8,1:3:0:0:
170,213,87332,1,4,1:3:0:0:
318,104,87493,1,8,1:3:0:0:
89,184,87655,1,4,1:3:0:0:
330,188,87816,5,6,1:0:0:0:
156,46,87977,1,0,0:0:0:0:
385,52,88138,1,2,1:0:0:0:
184,210,88300,1,0,0:0:0:0:
306,20,88461,1,2,1:0:0:0:
409,220,88622,1,0,0:0:0:0:
237,75,88784,1,8,1:3:0:0:
197,296,88945,1,4,1:3:0:0:
318,104,89106,5,2,1:2:0:0:
184,210,89267,1,2,0:0:0:0:
342,273,89429,1,2,1:2:0:0:
251,157,89590,1,2,0:0:0:0:
263,240,89751,1,2,1:2:0:0:
330,188,89913,1,8,0:3:0:0:
172,127,90074,1,0,0:0:0:0:
197,296,90235,1,4,0:3:0:0:
237,75,90396,5,6,1:0:0:0:
184,210,90558,1,0,0:0:0:0:
306,20,90719,1,2,1:0:0:0:
172,127,90880,1,0,0:0:0:0:
396,135,91042,1,2,1:0:0:0:
237,75,91203,1,0,0:0:0:0:
342,273,91364,1,2,1:0:0:0:
318,104,91525,1,0,0:0:0:0:
116,264,91687,5,8,1:3:0:0:
159,44,91848,1,4,1:3:0:0:
330,188,92009,1,8,1:3:0:0:
103,180,92171,1,4,1:3:0:0:
306,20,92332,1,8,1:3:0:0:
342,273,92493,1,4,1:3:0:0:
93,97,92654,1,8,1:3:0:0:
396,135,92816,1,4,1:3:0:0:
116,264,92977,5,6,1:0:0:0:
237,75,93138,1,0,0:0:0:0:
37,229,93300,1,2,1:0:0:0:
159,44,93461,1,0,0:0:0:0:
195,299,93622,1,2,1:0:0:0:
93,97,93784,1,0,0:0:0:0:
125,349,93945,1,2,1:0:0:0:
172,127,94106,1,0,0:0:0:0:
342,273,94267,5,2,1:0:0:0:
116,264,94429,1,0,0:0:0:0:
303,198,94590,1,2,1:0:0:0:
150,271,94751,1,0,0:0:0:0:
264,123,94913,1,2,1:0:0:0:
184,278,95074,1,0,0:0:0:0:
225,48,95235,1,2,1:0:0:0:
218,285,95396,1,0,0:0:0:0:
300,9,95558,5,2,1:2:0:0:
82,73,95719,1,2,0:0:0:0:
339,84,95880,1,2,1:2:0:0:
121,148,96041,1,2,0:0:0:0:
378,159,96203,1,2,1:2:0:0:
160,223,96364,1,2,0:0:0:0:
417,234,96525,1,2,1:2:0:0:
195,299,96686,1,2,0:0:0:0:
264,123,96848,5,2,1:2:0:0:
342,273,97009,1,0,0:0:0:0:
339,84,97171,1,2,1:2:0:0:
189,162,97332,1,0,0:0:0:0:
417,234,97493,1,8,1:3:0:0:
267,38,97654,1,4,1:3:0:0:
263,313,97816,1,8,1:3:0:0:
339,84,97977,1,4,1:3:0:0:
114,201,98138,5,4,1:2:0:0:
107,216,98218,1,0,0:0:0:0:
104,233,98299,1,0,0:0:0:0:
105,249,98379,1,0,0:0:0:0:
109,266,98460,1,0,0:0:0:0:
112,282,98541,1,0,0:0:0:0:
112,299,98621,1,0,0:0:0:0:
108,315,98702,1,0,0:0:0:0:
102,331,98784,6,0,L|33:342,3,44.999998626709,2|0|0|0,1:2|0:0|0:0|0:0,0:0:0:0:
185,238,99106,2,0,L|254:249,3,44.999998626709,0|0|0|0,0:0|0:0|0:0|0:0,0:0:0:0:
328,318,99429,5,2,1:2:0:0:
345,321,99509,1,0,0:0:0:0:
362,321,99590,1,0,0:0:0:0:
378,318,99670,1,0,0:0:0:0:
394,311,99751,1,0,0:0:0:0:
408,302,99832,1,0,0:0:0:0:
420,290,99912,1,0,0:0:0:0:
430,276,99993,1,0,0:0:0:0:
436,261,100074,6,0,L|430:199,1,44.999998626709,8|0,1:3|0:0,0:0:0:0:
379,106,100235,2,0,L|373:168,1,44.999998626709,4|0,1:3|0:0,0:0:0:0:
316,241,100396,2,0,L|310:179,1,44.999998626709,8|0,1:3|0:0,0:0:0:0:
259,86,100557,2,0,L|253:148,1,44.999998626709,4|0,1:3|0:0,0:0:0:0:
242,311,100719,6,0,L|215:302,8,22.4999993133545,4|0|0|0|0|0|0|0|0,1:0|0:0|0:0|0:0|0:0|0:0|0:0|0:0|0:0,0:0:0:0:
166,130,101203,1,8,1:3:0:0:
153,370,101364,6,0,L|180:361,8,22.4999993133545,2|0|0|0|0|0|0|0|0,1:2|0:0|0:0|0:0|0:0|0:0|0:0|0:0|0:0,0:0:0:0:
259,86,101848,1,8,1:3:0:0:
340,341,102009,5,4,1:1:0:0:
435,124,102171,1,0,0:0:0:0:
229,189,102332,1,0,0:0:0:0:
435,349,102493,1,0,0:0:0:0:
318,112,102654,1,2,0:2:0:0:
139,270,102816,1,0,0:0:0:0:
435,237,102977,1,2,0:0:0:0:
152,100,103138,1,0,0:0:0:0:
256,333,103300,5,8,0:3:0:0:
444,50,103461,1,4,0:3:0:0:
67,191,103622,1,8,0:3:0:0:
444,191,103784,1,4,0:3:0:0:
67,50,103945,1,8,0:3:0:0:
350,333,104106,5,4,0:3:0:0:
256,50,104267,1,8,0:3:0:0:
162,333,104429,1,4,0:1:0:0:
162,333,105235,6,0,L|229:345,1,44.999998626709,0|0,0:0|0:0,0:0:0:0:
157,252,105396,2,0,L|90:264,1,44.999998626709,2|0,0:0|0:0,0:0:0:0:
117,357,105558,2,0,L|207:340,1,89.9999972534181,2|8,0:0|0:3,0:0:0:0:
143,199,105880,6,0,P|135:232|112:261,1,69.9999978637696,4|0,0:0|0:0,0:0:0:0:
91,129,106209,2,0,L|172:112,1,69.9999978637696,2|0,0:0|0:0,0:0:0:0:
254,11,106539,1,2,0:0:0:0:
239,93,106704,1,0,0:0:0:0:
352,88,106869,1,2,0:0:0:0:
298,152,107034,1,2,0:3:0:0:
411,147,107198,6,0,L|492:135,1,69.9999978637696,2|0,0:0|0:0,0:0:0:0:
411,237,107528,2,0,L|480:247,1,69.9999978637696,2|0,0:0|0:0,0:0:0:0:
339,282,107858,1,2,0:0:0:0:
297,209,108022,1,0,0:0:0:0:
266,324,108187,1,2,0:0:0:0:
224,251,108351,1,10,0:3:0:0:
193,366,108517,6,0,B|144:378|144:378|45:359,1,139.999995727539,4|0,0:0|0:0,0:0:0:0:
182,178,109011,1,8,0:3:0:0:
319,366,109176,6,0,B|368:378|368:378|467:359,1,139.999995727539,4|0,0:0|0:0,0:0:0:0:
330,178,109671,1,8,0:3:0:0:
144,296,109836,5,4,0:0:0:0:
368,296,110000,1,0,0:0:0:0:
256,100,110165,1,2,0:0:0:0:
256,324,110329,1,0,0:0:0:0:
330,178,110495,5,2,0:0:0:0:
330,178,110577,1,0,0:0:0:0:
182,178,110742,1,0,0:0:0:0:
182,178,110825,1,2,0:0:0:0:
347,90,110989,1,0,0:0:0:0:
165,90,111154,5,2,0:0:0:0:
256,252,111319,1,2,0:0:0:0:
256,100,111484,2,0,L|256:0,1,85.0000016212464,0|2,0:0|0:0,0:0:0:0:
332,46,111731,1,0,0:0:0:0:
332,46,111814,2,0,L|369:25,1,42.5000008106232,2|0,0:0|0:0,0:0:0:0:
330,135,111978,2,0,L|318:176,1,42.5000008106232,4|0,0:0|0:0,0:0:0:0:
412,116,112143,2,0,L|449:95,1,42.5000008106232,2|0,0:0|0:0,0:0:0:0:
409,205,112307,2,0,L|397:246,1,42.5000008106232,2|0,0:0|0:0,0:0:0:0:
256,100,112473,5,6,1:0:0:0:
256,100,112638,1,0,0:0:0:0:
127,173,112803,1,2,1:0:0:0:
127,173,112967,1,0,0:0:0:0:
165,90,113132,1,2,1:0:0:0:
165,90,113296,1,0,0:0:0:0:
194,234,113462,1,2,1:0:0:0:
194,234,113626,1,0,0:0:0:0:
330,178,113792,5,2,1:0:0:0:
330,178,113956,1,0,0:0:0:0:
339,262,114121,1,2,1:0:0:0:
339,262,114286,1,0,0:0:0:0:
415,129,114451,1,2,1:0:0:0:
415,129,114615,1,0,0:0:0:0:
406,213,114780,1,2,1:0:0:0:
406,213,114945,1,0,0:0:0:0:
321,94,115110,5,2,1:2:0:0:
253,144,115275,1,2,0:0:0:0:
184,193,115440,1,2,1:2:0:0:
340,262,115605,5,2,0:0:0:0:
330,178,115770,1,2,1:2:0:0:
321,94,115934,1,2,0:0:0:0:
184,193,116099,5,2,1:2:0:0:
261,226,116264,1,2,0:0:0:0:
175,109,116429,5,2,1:2:0:0:
175,109,116594,1,0,0:0:0:0:
184,193,116759,1,2,1:2:0:0:
184,193,116923,1,0,0:0:0:0:
321,94,117088,1,8,1:3:0:0:
321,94,117253,1,4,1:3:0:0:
339,262,117418,1,8,1:3:0:0:
339,262,117583,1,4,1:3:0:0:
253,144,117748,5,6,1:0:0:0:
253,144,117912,1,0,0:0:0:0:
193,277,118077,1,2,1:0:0:0:
193,277,118242,1,0,0:0:0:0:
330,178,118407,1,2,1:0:0:0:
330,178,118572,1,0,0:0:0:0:
175,109,118737,1,8,1:3:0:0:
175,109,118901,1,4,1:3:0:0:
125,327,119066,5,2,1:2:0:0:
193,277,119231,1,2,0:0:0:0:
270,310,119396,1,2,1:2:0:0:
116,243,119561,5,2,0:0:0:0:
184,193,119726,1,2,1:2:0:0:
261,226,119891,1,8,0:3:0:0:
107,159,120055,5,0,0:0:0:0:
175,109,120220,1,4,0:3:0:0:
125,327,120385,5,6,1:0:0:0:
125,327,120550,1,0,0:0:0:0:
116,243,120715,1,2,1:0:0:0:
116,243,120880,1,0,0:0:0:0:
202,361,121044,5,2,1:0:0:0:
202,361,121209,1,0,0:0:0:0:
184,193,121374,1,2,1:0:0:0:
184,193,121539,1,0,0:0:0:0:
47,292,121704,5,6,0:0:0:0:
47,292,121869,1,0,0:0:0:0:
261,226,122033,1,0,0:0:0:0:
261,226,122198,1,0,0:0:0:0:
59,113,122363,5,2,0:0:0:0:
59,113,122528,1,0,0:0:0:0:
259,6,122692,1,0,0:0:0:0:
259,6,122857,1,0,0:0:0:0:
116,243,123022,6,0,L|185:255,1,47.4999987316132,6|0,1:0|0:0,0:0:0:0:
231,309,123187,2,0,L|243:240,1,47.4999987316132,0|0,0:0|0:0,0:0:0:0:
196,176,123352,6,0,L|265:188,1,47.4999987316132,2|0,1:0|0:0,0:0:0:0:
311,242,123517,2,0,L|323:173,1,47.4999987316132,0|0,0:0|0:0,0:0:0:0:
276,109,123682,6,0,L|345:121,1,47.4999987316132,2|0,1:0|0:0,0:0:0:0:
391,175,123847,2,0,L|403:106,1,47.4999987316132,0|0,0:0|0:0,0:0:0:0:
356,42,124011,6,0,L|425:54,1,47.4999987316132,2|0,1:0|0:0,0:0:0:0:
471,108,124176,2,0,L|483:39,1,47.4999987316132,0|0,0:0|0:0,0:0:0:0:
471,276,124341,6,0,L|483:345,1,47.4999987316132,2|0,1:0|0:0,0:0:0:0:
388,280,124506,2,0,L|400:349,1,47.4999987316132,0|0,0:0|0:0,0:0:0:0:
458,197,124671,6,0,L|470:266,1,47.4999987316132,2|0,1:0|0:0,0:0:0:0:
375,201,124836,2,0,L|387:270,1,47.4999987316132,0|0,0:0|0:0,0:0:0:0:
445,118,125000,6,0,L|457:187,1,47.4999987316132,2|0,1:0|0:0,0:0:0:0:
362,122,125165,2,0,L|374:191,1,47.4999987316132,0|0,0:0|0:0,0:0:0:0:
432,39,125330,6,0,L|444:108,1,47.4999987316132,2|0,1:0|0:0,0:0:0:0:
349,43,125495,2,0,L|361:112,1,47.4999987316132,0|0,0:0|0:0,0:0:0:0:
255,106,125660,6,0,L|192:102,1,47.4999987316132,2|0,1:2|0:0,0:0:0:0:
155,0,125825,2,0,L|158:47,1,47.4999987316132,2|0,0:2|0:0,0:0:0:0:
200,183,125989,6,0,L|140:162,1,47.4999987316132,2|0,1:2|0:0,0:0:0:0:
130,54,126154,2,0,L|120:100,1,47.4999987316132,2|0,0:2|0:0,0:0:0:0:
126,242,126319,6,0,L|73:207,1,47.4999987316132,2|0,1:2|0:0,0:0:0:0:
91,99,126484,2,0,L|69:141,1,47.4999987316132,2|0,0:2|0:0,0:0:0:0:
38,279,126649,6,0,L|-3:231,1,47.4999987316132,2|0,1:2|0:0,0:0:0:0:
42,133,126814,2,0,L|10:168,1,47.4999987316132,2|0,0:2|0:0,0:0:0:0:
111,326,126978,6,0,L|171:320,1,47.4999987316132,2|0,1:2|0:0,0:0:0:0:
152,178,127143,2,0,L|199:182,1,47.4999987316132,0|0,0:0|0:0,0:0:0:0:
190,317,127308,6,0,L|250:311,1,47.4999987316132,2|0,1:2|0:0,0:0:0:0:
231,187,127473,2,0,L|291:193,1,47.4999987316132,0|0,0:0|0:0,0:0:0:0:
311,347,127638,6,0,L|371:341,1,47.4999987316132,8|0,1:3|0:0,0:0:0:0:
352,199,127803,2,0,L|399:203,1,47.4999987316132,4|0,1:3|0:0,0:0:0:0:
390,338,127968,6,0,L|450:332,1,47.4999987316132,8|0,1:3|0:0,0:0:0:0:
431,208,128133,2,0,L|491:214,1,47.4999987316132,4|0,1:3|0:0,0:0:0:0:
276,264,128297,6,0,L|261:195,1,47.4999987316132,6|0,1:0|0:0,0:0:0:0:
304,96,128462,2,0,L|289:165,1,47.4999987316132,0|0,0:0|0:0,0:0:0:0:
199,261,128627,6,0,L|184:192,1,47.4999987316132,2|0,1:0|0:0,0:0:0:0:
227,93,128792,2,0,L|212:162,1,47.4999987316132,0|0,0:0|0:0,0:0:0:0:
52,233,128956,6,0,L|104:221,1,47.4999987316132,2|0,1:0|0:0,0:0:0:0:
136,94,129121,2,8,L|147:146,1,47.4999987316132,0|0,0:0|0:0,0:0:0:0:
104,303,129286,6,0,L|133:257,1,47.4999987316132,8|0,1:3|0:0,0:0:0:0:
65,146,129451,2,0,L|110:175,1,47.4999987316132,4|0,1:3|0:0,0:0:0:0:
190,317,129616,6,0,L|178:264,1,47.4999987316132,2|0,1:2|0:0,0:0:0:0:
265,182,129781,2,0,L|212:193,1,47.4999987316132,2|0,0:2|0:0,0:0:0:0:
268,315,129945,6,0,L|256:262,1,47.4999987316132,2|0,1:2|0:0,0:0:0:0:
343,180,130110,2,0,L|290:191,1,47.4999987316132,2|0,0:2|0:0,0:0:0:0:
346,313,130275,6,0,L|334:260,1,47.4999987316132,2|0,1:2|0:0,0:0:0:0:
421,178,130440,2,0,L|368:189,1,47.4999987316132,8|0,0:3|0:0,0:0:0:0:
424,311,130605,6,0,L|412:258,1,47.4999987316132,0|0,0:0|0:0,0:0:0:0:
499,176,130770,2,0,L|446:187,1,47.4999987316132,4|0,0:3|0:0,0:0:0:0:
268,315,130934,6,0,L|314:325,1,47.4999987316132,6|0,1:0|0:0,0:0:0:0:
320,200,131099,2,0,L|309:246,1,47.4999987316132,0|0,0:0|0:0,0:0:0:0:
185,335,131264,6,0,L|231:345,1,47.4999987316132,2|0,1:0|0:0,0:0:0:0:
237,220,131429,2,0,L|226:266,1,47.4999987316132,0|0,0:0|0:0,0:0:0:0:
102,355,131594,6,0,L|148:365,1,47.4999987316132,2|0,1:0|0:0,0:0:0:0:
154,240,131759,2,0,L|143:286,1,47.4999987316132,0|0,0:0|0:0,0:0:0:0:
18,373,131923,6,0,L|64:383,1,47.4999987316132,2|0,1:0|0:0,0:0:0:0:
70,258,132088,2,0,L|59:304,1,47.4999987316132,0|0,0:0|0:0,0:0:0:0:
195,381,132253,6,0,L|184:334,1,47.4999987316132,8|0,1:3|0:0,0:0:0:0:
237,220,132418,2,0,L|226:266,1,47.4999987316132,4|0,1:3|0:0,0:0:0:0:
277,381,132583,6,0,L|266:334,1,47.4999987316132,8|0,1:3|0:0,0:0:0:0:
320,200,132748,2,0,L|309:246,1,47.4999987316132,4|0,1:3|0:0,0:0:0:0:
359,381,132912,6,0,L|348:334,1,47.4999987316132,8|0,1:3|0:0,0:0:0:0:
403,180,133077,2,0,L|392:226,1,47.4999987316132,4|0,1:3|0:0,0:0:0:0:
441,381,133242,6,0,L|430:334,1,47.4999987316132,8|0,1:3|0:0,0:0:0:0:
486,160,133407,2,0,L|475:206,1,47.4999987316132,4|0,1:3|0:0,0:0:0:0:
277,381,133572,6,0,L|161:381,1,94.9999974632264,2|0,0:2|0:0,0:0:0:0:
96,297,133901,2,0,P|114:311|137:318,1,47.4999987316132,0|0,0:0|0:0,0:0:0:0:
245,276,134066,2,0,P|231:295|211:306,1,47.4999987316132,0|0,0:0|0:0,0:0:0:0:
122,211,134231,2,0,P|134:230|153:245,1,47.4999987316132,0|0,0:0|0:0,0:0:0:0:
269,242,134396,2,0,P|249:255|226:258,1,47.4999987316132,0|0,0:0|0:0,0:0:0:0:
175,138,134561,2,0,P|180:161|193:180,1,47.4999987316132,0|0,0:0|0:0,0:0:0:0:
302,218,134726,2,0,P|279:223|256:218,1,47.4999987316132,0|0,0:0|0:0,0:0:0:0:
246,75,134890,6,0,P|252:117|279:149,1,85.0000016212464,6|0,0:1|0:0,0:0:0:0:
294,5,135220,1,8,0:1:0:0:
161,67,135385,2,0,L|54:57,2,85.0000016212464
279,149,135880,2,0,L|386:139,1,85.0000016212464,10|0,0:1|0:0,0:0:0:0:
361,3,136209,6,0,P|328:29|315:69,1,85.0000016212464,2|0,0:1|0:0,0:0:0:0:
412,210,136539,1,8,0:1:0:0:
447,133,136704,1,0,0:0:0:0:
403,293,136869,1,0,0:0:0:0:
438,216,137034,1,0,0:0:0:0:
394,376,137198,2,0,B|357:387|357:387|267:374,1,127.50000243187,10|0,0:1|0:0,0:0:0:0:
225,378,137528,6,0,P|256:349|265:308,1,85.0000016212464,2|0,0:1|0:0,0:0:0:0:
203,117,137858,1,8,0:1:0:0:
129,207,138022,1,0,0:0:0:0:
149,201,138104,1,0,0:0:0:0:
170,195,138187,2,0,L|127:297,1,85.0000016212464,0|0,0:0|0:0,0:0:0:0:
17,361,138517,2,0,L|102:351,1,85.0000016212464,10|0,0:1|0:0,0:0:0:0:
39,197,138847,6,0,L|49:282,1,85.0000016212464,2|0,0:1|0:0,0:0:0:0:
131,119,139176,2,0,L|121:204,1,85.0000016212464,8|0,0:1|0:0,0:0:0:0:
197,66,139506,5,8,0:3:0:0:
214,202,139670,1,4,0:3:0:0:
305,0,139836,1,10,0:1:0:0:
282,161,140000,1,4,0:3:0:0:
119,38,140165,5,6,0:1:0:0:
292,80,140330,1,0,0:0:0:0:
292,80,140412,1,0,0:0:0:0:
292,80,140495,2,0,L|394:69,1,85.0000016212464,8|0,0:1|0:0,0:0:0:0:
450,181,140825,1,0,0:0:0:0:
380,40,140989,1,0,0:0:0:0:
375,221,141154,2,0,P|418:261|469:264,1,85.0000016212464,10|0,0:1|0:0,0:0:0:0:
469,0,141484,5,2,0:1:0:0:
292,80,141649,1,0,0:0:0:0:
292,80,141731,1,0,0:0:0:0:
292,80,141814,2,0,L|190:69,1,85.0000016212464,8|0,0:1|0:0,0:0:0:0:
154,158,142061,1,0,0:0:0:0:
154,158,142143,2,0,L|239:149,1,85.0000016212464,0|0,0:0|0:0,0:0:0:0:
261,0,142473,1,10,0:1:0:0:
208,229,142638,1,0,0:0:0:0:
380,40,142803,5,2,0:1:0:0:
122,60,142967,1,0,0:0:0:0:
375,221,143132,1,8,0:1:0:0:
154,158,143297,1,0,0:0:0:0:
469,0,143462,1,0,0:0:0:0:
207,70,143627,2,0,L|100:58,1,85.0000016212464,0|10,0:0|0:1,0:0:0:0:
264,278,143956,1,0,0:0:0:0:
261,0,144121,5,8,1:3:0:0:
375,221,144286,1,4,1:3:0:0:
40,114,144451,1,8,1:3:0:0:
154,335,144616,1,4,1:3:0:0:
303,167,144781,2,0,L|228:184,1,42.5000008106232,8|0,1:3|0:0,0:0:0:0:
110,167,144945,2,0,L|185:150,1,42.5000008106232,4|0,1:3|0:0,0:0:0:0:
207,70,145111,2,0,L|224:146,1,42.5000008106232,8|0,1:3|0:0,0:0:0:0:
207,264,145275,2,0,L|190:188,1,42.5000008106232,4|0,1:3|0:0,0:0:0:0:
329,65,145440,6,0,P|373:75|418:64,1,92.4999996471405,6|0,0:1|0:0,0:0:0:0:
497,16,145688,1,0,0:0:0:0:
497,16,145770,2,0,L|486:138,1,92.4999996471405,8|0,0:1|0:0,0:0:0:0:
410,158,146017,1,0,0:0:0:0:
410,158,146100,2,0,P|438:195|443:240,1,92.4999996471405,0|0,0:0|0:0,0:0:0:0:
484,323,146347,1,0,0:0:0:0:
484,323,146429,2,0,L|362:312,1,92.4999996471405,10|0,0:1|0:0,0:0:0:0:
287,259,146676,1,0,0:0:0:0:
287,259,146759,6,0,L|299:304,1,46.2499998235703,2|0,0:1|0:0,0:0:0:0:
195,360,146923,1,0,0:0:0:0:
201,338,147005,1,0,0:0:0:0:
207,316,147087,1,8,0:1:0:0:
379,250,147253,2,0,L|286:258,1,92.4999996471405,0|0,0:0|0:0,0:0:0:0:
294,350,147583,1,0,0:0:0:0:
328,163,147748,2,0,L|420:171,1,92.4999996471405,10|0,0:1|0:0,0:0:0:0:
382,88,148077,5,2,0:2:0:0:
354,107,148159,1,0,0:0:0:0:
321,118,148241,1,0,0:0:0:0:
287,119,148324,1,0,0:0:0:0:
253,111,148407,2,0,L|202:132,3,46.2499998235703,10|0|2|0,0:2|0:0|0:2|0:0,0:0:0:0:
201,222,148737,5,2,0:2:0:0:
229,202,148819,1,0,0:0:0:0:
262,191,148901,1,0,0:0:0:0:
296,190,148984,1,0,0:0:0:0:
330,199,149067,2,0,L|381:178,3,46.2499998235703,10|0|0|0,0:2|0:0|0:0|0:0,0:0:0:0:
241,277,149396,6,0,L|148:268,1,92.4999996471405,2|0,0:1|0:0,0:0:0:0:
109,184,149726,1,8,0:1:0:0:
193,362,149890,2,0,L|285:353,1,92.4999996471405,0|8,0:0|0:3,0:0:0:0:
202,193,150220,1,4,0:3:0:0:
54,260,150385,1,10,0:1:0:0:
164,108,150550,1,4,0:3:0:0:
241,277,150715,6,0,L|333:268,1,92.4999996471405,6|0,0:1|0:0,0:0:0:0:
319,103,151044,1,8,0:1:0:0:
304,121,151126,1,0,0:0:0:0:
293,141,151208,1,0,0:0:0:0:
288,163,151291,1,0,0:0:0:0:
288,187,151374,2,0,L|350:181,3,46.2499998235703,0|0|0|0,0:0|0:0|0:0|0:0,0:0:0:0:
448,117,151704,2,0,L|385:111,3,46.2499998235703,10|0|0|0,0:1|0:0|0:0|0:0,0:0:0:0:
348,261,152033,5,2,0:1:0:0:
319,103,152198,1,0,0:0:0:0:
326,273,152363,1,8,0:1:0:0:
341,91,152528,2,0,P|350:52|324:-6,1,92.4999996471405,0|0,0:0|0:0,0:0:0:0:
244,227,152858,1,0,0:0:0:0:
423,137,153022,1,10,0:1:0:0:
194,137,153187,1,0,0:0:0:0:
473,227,153352,5,6,0:1:0:0:
340,91,153517,1,0,0:0:0:0:
400,306,153682,5,8,0:1:0:0:
337,167,153847,1,0,0:0:0:0:
317,351,154011,5,6,0:1:0:0:
308,237,154176,1,0,0:0:0:0:
231,384,154341,5,8,0:1:0:0:
256,292,154506,1,0,0:0:0:0:
87,370,154671,5,6,0:2:0:0:
400,306,154836,1,4,0:3:0:0:
400,306,155165,5,6,0:2:0:0:
194,137,155330,1,4,0:3:0:0:
194,137,155412,1,0,0:0:0:0:
194,137,155495,1,0,0:0:0:0:
317,351,155660,5,6,0:2:0:0:
340,91,155825,1,4,0:3:0:0:
340,91,156154,5,6,0:1:0:0:
48,183,156319,1,4,0:3:0:0:
48,183,156649,5,6,0:1:0:0:
244,42,156814,1,2,0:3:0:0:
268,342,156978,1,2,0:2:0:0:
268,342,157308,5,6,1:0:0:0:
288,142,157471,1,0,0:0:0:0:
177,384,157634,1,2,1:0:0:0:
360,301,157797,1,0,0:0:0:0:
105,225,157960,1,2,1:0:0:0:
268,342,158123,1,0,0:0:0:0:
206,82,158286,1,2,1:0:0:0:
187,284,158449,1,0,0:0:0:0:
380,100,158612,5,2,1:0:0:0:
196,183,158775,1,0,0:0:0:0:
390,0,158938,1,2,1:0:0:0:
369,200,159101,1,0,0:0:0:0:
268,25,159264,1,2,1:0:0:0:
451,106,159427,1,0,0:0:0:0:
254,148,159590,1,2,1:0:0:0:
473,22,159753,1,0,0:0:0:0:
472,274,159916,5,2,1:2:0:0:
346,96,160079,1,2,0:0:0:0:
191,326,160242,1,2,1:2:0:0:
369,200,160405,1,2,0:0:0:0:
139,45,160568,1,2,1:2:0:0:
265,223,160731,1,2,0:0:0:0:
267,4,160894,1,2,1:2:0:0:
136,178,161058,1,2,0:0:0:0:
345,113,161221,5,2,1:2:0:0:
191,326,161384,1,0,0:0:0:0:
233,113,161547,1,2,1:2:0:0:
369,200,161710,1,0,0:0:0:0:
267,4,161873,1,8,1:3:0:0:
136,178,162036,1,4,1:3:0:0:
369,26,162199,1,8,1:3:0:0:
139,45,162362,1,4,1:3:0:0:
345,113,162525,5,6,1:0:0:0:
267,4,162688,1,0,0:0:0:0:
316,236,162851,5,2,1:0:0:0:
272,81,163014,1,0,0:0:0:0:
240,289,163177,5,2,1:0:0:0:
250,155,163340,1,0,0:0:0:0:
139,365,163503,5,8,1:3:0:0:
204,217,163666,1,4,1:3:0:0:
22,315,163829,5,2,1:2:0:0:
240,289,163992,1,2,0:0:0:0:
99,198,164155,5,2,1:2:0:0:
285,220,164318,1,2,0:0:0:0:
66,129,164481,5,2,1:2:0:0:
222,110,164644,1,8,0:3:0:0:
129,25,164808,5,0,1:2:0:0:
258,40,164971,1,4,0:3:0:0:
99,198,165134,5,6,1:0:0:0:
229,24,165297,1,0,0:0:0:0:
315,224,165460,1,2,1:0:0:0:
222,110,165623,1,0,0:0:0:0:
201,317,165786,1,2,1:0:0:0:
96,137,165949,1,0,0:0:0:0:
108,369,166112,1,2,1:0:0:0:
178,210,166275,1,4,1:3:0:0:
408,338,166438,5,0,0:0:0:0:
322,148,166601,1,4,1:3:0:0:
110,344,166764,1,2,1:0:0:0:
300,258,166927,1,0,0:0:0:0:
104,46,167090,1,8,1:3:0:0:
190,236,167253,1,4,1:3:0:0:
402,40,167416,1,8,1:3:0:0:
147,141,167579,1,2,0:0:0:0:
410,280,167742,5,6,1:0:0:0:
274,90,167905,1,0,0:0:0:0:
225,342,168068,1,2,1:0:0:0:
322,148,168231,1,0,0:0:0:0:
80,214,168394,1,2,1:0:0:0:
300,258,168558,1,0,0:0:0:0:
104,46,168721,1,2,1:0:0:0:
190,236,168884,1,0,0:0:0:0:
348,17,169047,5,2,1:0:0:0:
147,141,169210,1,0,0:0:0:0:
396,83,169373,1,2,1:0:0:0:
177,65,169536,1,0,0:0:0:0:
429,8,169699,5,2,1:0:0:0:
227,128,169862,1,0,0:0:0:0:
478,75,170025,1,2,1:0:0:0:
256,53,170188,1,0,0:0:0:0:
512,0,170351,5,2,1:2:0:0:
410,225,170514,1,2,0:0:0:0:
348,17,170677,5,2,1:2:0:0:
330,238,170840,1,2,0:0:0:0:
207,88,171003,5,2,1:2:0:0:
259,277,171166,1,2,0:0:0:0:
105,197,171329,5,2,1:2:0:0:
205,337,171492,1,2,0:0:0:0:
339,127,171655,5,2,1:2:0:0:
191,109,171818,1,0,0:0:0:0:
173,257,171981,1,2,1:2:0:0:
321,275,172144,1,0,0:0:0:0:
268,87,172308,5,8,1:3:0:0:
243,296,172471,1,4,1:3:0:0:
151,179,172634,1,8,1:3:0:0:
360,204,172797,1,4,1:3:0:0:
167,78,172960,5,6,1:0:0:0:
369,103,173123,1,0,0:0:0:0:
142,280,173286,1,2,1:0:0:0:
344,305,173449,1,0,0:0:0:0:
273,48,173613,5,2,1:0:0:0:
112,174,173775,1,0,0:0:0:0:
399,209,173938,1,8,1:3:0:0:
238,335,174102,1,4,1:3:0:0:
167,78,174264,5,2,1:2:0:0:
246,265,174427,1,2,0:0:0:0:
369,103,174590,1,2,1:2:0:0:
447,290,174753,1,2,0:0:0:0:
383,86,174916,5,2,1:2:0:0:
206,171,175079,1,8,0:3:0:0:
415,188,175242,1,0,1:2:0:0:
324,19,175405,1,4,0:3:0:0:
286,262,175568,5,6,1:0:0:0:
396,68,175731,1,0,0:0:0:0:
123,121,175894,1,2,1:0:0:0:
341,165,176057,1,0,0:0:0:0:
124,24,176221,5,2,1:0:0:0:
205,268,176384,1,0,0:0:0:0:
396,68,176547,1,2,1:0:0:0:
123,121,176710,1,0,0:0:0:0:
305,330,176873,5,8,1:3:0:0:
207,54,177036,1,4,1:3:0:0:
394,143,177199,1,8,1:3:0:0:
118,241,177362,1,4,1:3:0:0:
350,14,177525,5,8,1:3:0:0:
438,272,177688,1,4,1:3:0:0:
123,121,177851,1,8,1:3:0:0:
394,143,178014,1,4,1:3:0:0:
162,370,178177,5,8,1:3:0:0:
308,139,178340,1,4,1:3:0:0:
3,116,178503,5,8,1:3:0:0:
235,254,178666,1,4,1:3:0:0:
128,1,178829,5,8,1:3:0:0:
118,241,178992,1,4,1:3:0:0:
441,71,179155,5,8,1:3:0:0:
123,120,179318,1,4,1:3:0:0:
404,339,179481,5,8,1:3:0:0:
350,14,179644,1,4,1:3:0:0:
108,339,179808,5,8,1:3:0:0:
394,143,179971,1,4,1:3:0:0:
3,116,180134,5,8,1:3:0:0:
290,352,180297,1,4,1:3:0:0:
512,0,180460,5,8,1:3:0:0:
123,120,180623,1,4,1:3:0:0:
358,251,180786,5,2,0:0:0:0:
337,153,180949,1,0,0:0:0:0:
245,285,181112,1,0,0:0:0:0:
266,187,181275,1,0,0:0:0:0:
174,319,181438,5,0,0:0:0:0:
152,220,181601,1,2,0:0:0:0:
61,353,181764,1,2,0:0:0:0:
82,255,181927,1,0,0:0:0:0:
317,371,182090,5,6,1:0:0:0:
337,153,182251,1,0,0:0:0:0:
0,141,182412,1,2,1:0:0:0:
225,239,182573,1,0,0:0:0:0:
0,0,182735,5,2,1:0:0:0:
82,255,182896,1,0,0:0:0:0:
379,12,183057,1,2,1:0:0:0:
52,67,183219,1,0,0:0:0:0:
421,234,183380,5,2,1:0:0:0:
61,353,183541,1,0,0:0:0:0:
426,155,183702,5,2,1:0:0:0:
56,242,183863,1,0,0:0:0:0:
437,76,184025,5,2,1:0:0:0:
61,131,184186,1,0,0:0:0:0:
453,0,184348,5,2,1:0:0:0:
74,22,184509,1,0,0:0:0:0:
421,234,184670,5,2,1:2:0:0:
184,0,184831,1,2,0:0:0:0:
214,357,184993,1,2,1:2:0:0:
448,120,185154,1,2,0:0:0:0:
91,150,185315,5,2,1:2:0:0:
328,384,185476,1,2,0:0:0:0:
298,27,185638,1,2,1:2:0:0:
64,264,185799,1,2,0:0:0:0:
448,120,185960,5,2,1:2:0:0:
91,150,186122,1,0,0:0:0:0:
453,0,186283,1,2,1:2:0:0:
281,280,186444,1,0,0:0:0:0:
74,22,186606,5,8,1:3:0:0:
167,354,186767,1,4,1:3:0:0:
448,120,186928,1,8,1:3:0:0:
64,264,187090,1,4,1:3:0:0:
403,342,187251,5,6,1:0:0:0:
301,87,187412,1,0,0:0:0:0:
109,342,187573,1,2,1:0:0:0:
448,264,187734,1,0,0:0:0:0:
211,87,187896,5,2,1:0:0:0:
256,375,188057,1,0,0:0:0:0:
256,9,188219,1,8,1:3:0:0:
64,264,188380,1,4,1:3:0:0:
391,87,188541,5,2,1:2:0:0:
256,375,188702,1,2,0:0:0:0:
121,87,188864,1,2,1:2:0:0:
448,264,189025,1,2,0:0:0:0:
64,264,189186,5,2,1:2:0:0:
346,9,189348,1,8,0:3:0:0:
256,288,189509,1,0,1:2:0:0:
166,9,189670,1,4,0:3:0:0:
512,192,189831,5,6,1:0:0:0:
256,9,189993,1,0,0:0:0:0:
64,264,190154,5,2,1:0:0:0:
320,81,190316,1,0,0:0:0:0:
512,336,190477,5,2,1:0:0:0:
253,153,190639,1,0,0:0:0:0:
0,336,190799,5,2,1:0:0:0:
320,225,190960,1,0,0:0:0:0:
0,0,191122,5,8,1:3:0:0:
64,264,191283,1,4,1:3:0:0:
409,88,191444,5,8,1:3:0:0:
102,88,191606,1,4,1:3:0:0:
448,264,191767,5,8,1:3:0:0:
512,0,191928,1,4,1:3:0:0:
49,151,192090,5,8,1:3:0:0:
462,151,192251,1,4,1:3:0:0:
0,336,192412,5,6,1:2:0:0:
256,9,192573,1,0,0:0:0:0:
512,336,192735,1,2,1:0:0:0:
64,264,192896,1,0,0:0:0:0:
512,0,193057,5,2,1:0:0:0:
448,264,193219,1,0,0:0:0:0:
64,76,193380,1,2,1:0:0:0:
448,76,193541,1,0,0:0:0:0:
64,384,193702,5,2,1:2:0:0:
420,170,193864,1,0,0:0:0:0:
0,0,194025,1,2,1:0:0:0:
168,325,194186,1,0,0:0:0:0:
512,0,194348,5,2,1:0:0:0:
92,170,194509,1,0,0:0:0:0:
512,384,194670,1,2,1:0:0:0:
344,59,194831,1,0,0:0:0:0:
25,364,194993,5,2,1:2:0:0:
486,248,195154,1,2,0:0:0:0:
25,135,195315,1,2,1:2:0:0:
486,19,195477,1,2,0:0:0:0:
25,19,195638,5,2,1:2:0:0:
486,135,195800,1,2,0:0:0:0:
25,248,195961,1,2,1:2:0:0:
486,364,196122,1,2,0:0:0:0:
101,37,196283,5,2,1:2:0:0:
334,328,196444,1,0,0:0:0:0:
410,37,196606,1,2,1:2:0:0:
178,328,196767,1,0,0:0:0:0:
0,0,196928,5,2,1:2:0:0:
410,346,197089,1,4,1:3:0:0:
512,0,197251,1,8,1:3:0:0:
101,346,197412,1,4,1:3:0:0:
256,52,197573,5,6,1:2:0:0:
247,82,197653,1,0,0:0:0:0:
244,113,197734,1,0,0:0:0:0:
249,144,197814,1,0,0:0:0:0:
258,173,197895,1,0,0:0:0:0:
267,203,197976,1,0,0:0:0:0:
268,235,198056,1,0,0:0:0:0:
264,265,198137,1,0,0:0:0:0:
255,294,198219,6,0,L|272:354,3,50,2|0|0|0,1:2|0:0|0:0|0:0,0:0:0:0:
343,113,198541,2,0,L|360:53,3,50
174,108,198864,5,2,1:2:0:0:
130,108,198944,1,0,0:0:0:0:
90,124,199025,1,0,0:0:0:0:
59,155,199105,1,0,0:0:0:0:
42,195,199186,1,0,0:0:0:0:
42,239,199267,1,0,0:0:0:0:
58,279,199347,1,0,0:0:0:0:
88,310,199428,1,0,0:0:0:0:
128,328,199509,6,0,L|206:311,1,50,2|0,1:2|0:0,0:0:0:0:
392,124,199670,2,0,L|314:107,1,50,4|0,1:3|0:0,0:0:0:0:
42,195,199831,2,0,L|90:205,1,50,8|0,1:3|0:0,0:0:0:0:
477,235,199993,2,0,L|429:246,1,50,4|0,1:3|0:0,0:0:0:0:
66,384,200154,6,0,L|28:375,8,25,6|0|0|0|0|0|0|0|0,1:2|0:0|0:0|0:0|0:0|0:0|0:0|0:0|0:0,0:0:0:0:
120,124,200638,2,0,L|137:206,1,50,8|0,0:3|0:0,0:0:0:0:
446,384,200799,6,0,L|484:375,8,25,2|0|0|0|0|0|0|0|0,1:2|0:0|0:0|0:0|0:0|0:0|0:0|0:0|0:0,0:0:0:0:
392,124,201283,2,0,L|375:206,1,50,8|0,0:3|0:0,0:0:0:0:
58,279,201444,5,6,1:2:0:0:
454,279,201606,1,0,0:0:0:0:
256,0,201767,5,0,0:0:0:0:
256,384,201928,1,0,0:0:0:0:
465,95,202089,5,2,1:2:0:0:
47,95,202251,1,0,0:0:0:0:
512,384,202412,5,0,0:0:0:0:
256,0,202573,1,0,0:0:0:0:
0,384,202735,5,2,1:2:0:0:
512,0,202896,1,4,0:3:0:0:
0,192,203057,1,8,0:3:0:0:
512,192,203219,1,4,0:3:0:0:
0,0,203380,1,8,0:3:0:0:
384,384,203541,5,4,0:3:0:0:
256,0,203702,1,8,0:3:0:0:
128,384,203864,1,4,0:0:0:0:
256,192,203944,12,0,204993,2:0:0:0:
