osu file format v14

[General]
AudioFilename: audio.mp3
AudioLeadIn: 0
PreviewTime: 12984
Countdown: 0
SampleSet: Normal
StackLeniency: 0.7
Mode: 1
LetterboxInBreaks: 0
WidescreenStoryboard: 0

[Editor]
Bookmarks: 13066,23500,37848,48170
DistanceSpacing: 2.3
BeatDivisor: 4
GridSize: 32
TimelineZoom: 2.2

[Metadata]
Title:quaver
TitleUnicode:quaver ♪
Artist:dj TAKA
ArtistUnicode:dj TAKA
Creator:JarvisGaming
Version:Crescendo
Source:REFLEC BEAT limelight
Tags:beatmania IIDX 19 Lincle jubeat saucer jukebeat KONAMI music pack 25 pop'n music Sunny Park plus MUSIC PACK 29 + ポップンリズミン パック1 MUSIC PACK 19 cut edit short ver version
BeatmapID:2009124
BeatmapSetID:959602

[Difficulty]
HPDrainRate:6
CircleSize:5
OverallDifficulty:6
ApproachRate:5
SliderMultiplier:1.4
SliderTickRate:1

[Events]
//Background and Video events
0,0,"bg.jpg",0,0
//Break Periods
//Storyboard Layer 0 (Background)
//Storyboard Layer 1 (Fail)
//Storyboard Layer 2 (Pass)
//Storyboard Layer 3 (Foreground)
//Storyboard Sound Samples

[TimingPoints]
1198,329.67032967033,4,1,0,50,1,0
5813,-100,4,1,0,60,0,0
6472,-100,4,1,0,70,0,0
13066,326.086956521739,4,1,0,70,1,0
13066,-66.6666666666667,4,1,0,70,0,0
22196,-66.6666666666667,4,1,0,70,0,0
22359,-65.0406504065041,4,1,0,70,0,0
22522,-63.4920634920635,4,1,0,70,0,0
22685,-62.015503875969,4,1,0,70,0,0
22848,-60.6060606060606,4,1,0,70,0,0
22930,-59.9250936329588,4,1,0,70,0,0
23093,-58.6080586080586,4,1,0,70,0,0
23174,-57.9710144927536,4,1,0,70,0,0
23337,-56.7375886524823,4,1,0,70,0,0
23500,-55.5555555555556,4,1,0,70,0,0
36544,-55.5555555555556,4,1,0,60,0,0
36707,-56.4515992455808,4,1,0,60,0,0
36870,-57.3770538833651,4,1,0,60,0,0
37033,-58.3333236111127,4,1,0,60,0,0
37196,-59.3220439528888,4,1,0,60,0,0
37359,-60.344822384067,4,1,0,60,0,0
37522,-61.4035249307522,4,1,0,60,0,0
37685,-62.5,4,1,0,60,0,0
37848,322.58064516129,4,1,0,70,1,0
37848,-45.4545454545455,4,1,0,70,0,0
46880,-45.4545454545455,4,1,0,70,0,0
47041,-44.6927374301676,4,1,0,70,0,0
47202,-43.956043956044,4,1,0,70,0,0
47364,-43.2432432432432,4,1,0,70,0,0
47525,-42.5531914893617,4,1,0,70,0,0
47606,-42.2163588390501,4,1,0,70,0,0
47767,-41.5584415584416,4,1,0,70,0,0
47847,-41.2371134020619,4,1,0,70,0,0
48009,-40.6091370558376,4,1,0,70,0,0
48170,-40,4,1,0,70,0,0
58493,-40,4,1,0,70,0,0
58654,-39.0243902439024,4,1,0,70,0,0
58815,-38.0952380952381,4,1,0,70,0,0
58977,-37.2093023255814,4,1,0,70,0,0
59138,-36.3636363636364,4,1,0,70,0,0
59299,-35.5555555555556,4,1,0,70,0,0
59460,-34.7826086956522,4,1,0,70,0,0
59622,-34.0425531914894,4,1,0,70,0,0
59783,-33.3333333333333,4,1,0,70,0,0
60751,-33.3333333333333,4,1,0,60,0,0
61396,-33.3333333333333,4,1,0,50,0,0
62041,-33.3333333333333,4,1,0,40,0,0
62686,-33.3333333333333,4,1,0,30,0,0
63331,-33.3333333333333,4,1,0,20,0,0
63977,-33.3333333333333,4,1,0,10,0,0
64944,-33.3333333333333,4,1,0,5,0,0

[HitObjects]
98,268,1198,5,8,0:0:0:0:
98,268,1362,1,8,0:0:0:0:
98,268,1527,1,0,0:0:0:0:
98,268,1692,1,8,0:0:0:0:
139,159,2187,1,8,0:0:0:0:
92,64,2516,1,0,0:0:0:0:
92,64,2681,1,0,0:0:0:0:
92,69,2846,1,8,0:0:0:0:
92,69,3011,1,0,0:0:0:0:
74,125,3340,1,0,0:0:0:0:
74,125,3505,1,8,0:0:0:0:
73,62,3835,1,0,0:0:0:0:
141,151,4000,1,8,0:0:0:0:
141,151,4165,1,0,0:0:0:0:
141,151,4329,1,8,0:0:0:0:
141,151,4659,1,8,0:0:0:0:
141,151,4824,1,8,0:0:0:0:
233,132,5154,1,0,0:0:0:0:
233,132,5483,1,8,0:0:0:0:
193,112,5813,1,4,0:0:0:0:
148,107,5978,1,0,0:0:0:0:
148,107,6060,1,0,0:0:0:0:
148,107,6143,1,8,0:0:0:0:
148,107,6307,1,0,0:0:0:0:
148,107,6472,1,12,0:0:0:0:
89,87,6802,1,0,0:0:0:0:
96,87,7132,1,8,0:0:0:0:
96,87,7461,1,0,0:0:0:0:
188,160,7791,1,8,0:0:0:0:
188,160,8121,1,8,0:0:0:0:
185,167,8450,1,0,0:0:0:0:
66,112,8780,1,8,0:0:0:0:
66,112,8945,1,0,0:0:0:0:
66,112,9110,1,8,0:0:0:0:
123,204,9439,1,0,0:0:0:0:
123,204,9604,1,0,0:0:0:0:
123,204,9769,1,8,0:0:0:0:
42,188,10099,1,8,0:0:0:0:
42,188,10263,1,0,0:0:0:0:
42,188,10428,1,8,0:0:0:0:
42,188,10593,1,8,0:0:0:0:
42,188,10758,1,0,0:0:0:0:
42,188,10923,1,0,0:0:0:0:
42,188,11088,1,8,0:0:0:0:
167,161,11170,1,0,0:0:0:0:
181,121,11335,1,0,0:0:0:0:
181,121,11417,1,8,0:0:0:0:
232,111,11582,1,8,0:0:0:0:
229,104,11747,1,0,0:0:0:0:
234,148,11912,1,8,0:0:0:0:
224,72,12077,1,0,0:0:0:0:
212,147,12241,1,0,0:0:0:0:
212,147,12324,1,0,0:0:0:0:
212,147,12406,1,8,0:0:0:0:
212,147,12489,1,0,0:0:0:0:
212,147,12571,1,8,0:0:0:0:
212,147,12654,1,8,0:0:0:0:
212,147,12736,1,0,0:0:0:0:
196,101,13066,1,0,0:0:0:0:
71,63,13229,1,0,0:0:0:0:
71,63,13392,1,8,0:0:0:0:
71,63,13555,1,0,0:0:0:0:
71,63,13718,1,8,0:0:0:0:
71,63,13881,1,8,0:0:0:0:
71,63,14044,1,0,0:0:0:0:
71,63,14207,1,0,0:0:0:0:
225,154,14370,1,8,0:0:0:0:
225,154,14533,1,0,0:0:0:0:
225,154,14696,1,8,0:0:0:0:
225,154,14859,1,8,0:0:0:0:
225,154,15022,1,0,0:0:0:0:
225,154,15185,1,8,0:0:0:0:
225,154,15348,1,8,0:0:0:0:
173,77,15511,1,8,0:0:0:0:
322,169,15674,1,8,0:0:0:0:
322,169,15837,1,0,0:0:0:0:
315,165,16000,1,0,0:0:0:0:
313,165,16163,1,8,0:0:0:0:
312,165,16326,1,0,0:0:0:0:
312,165,16489,1,0,0:0:0:0:
312,165,16652,1,8,0:0:0:0:
312,165,16816,1,0,0:0:0:0:
315,165,16979,1,8,0:0:0:0:
47,130,17142,1,0,0:0:0:0:
47,130,17305,1,8,0:0:0:0:
47,130,17468,1,8,0:0:0:0:
47,130,17631,1,0,0:0:0:0:
47,130,17794,1,0,0:0:0:0:
47,130,17957,1,8,0:0:0:0:
47,130,18120,1,8,0:0:0:0:
47,130,18283,1,0,0:0:0:0:
235,102,18446,1,0,0:0:0:0:
235,102,18609,1,8,0:0:0:0:
235,102,18772,1,0,0:0:0:0:
235,102,18935,1,0,0:0:0:0:
235,102,19098,1,0,0:0:0:0:
235,102,19261,1,8,0:0:0:0:
235,102,19424,1,0,0:0:0:0:
235,102,19587,1,8,0:0:0:0:
63,137,19750,1,8,0:0:0:0:
63,137,19832,1,8,0:0:0:0:
68,136,19913,1,0,0:0:0:0:
122,127,20076,1,0,0:0:0:0:
122,127,20239,1,8,0:0:0:0:
122,127,20402,1,0,0:0:0:0:
122,127,20565,1,8,0:0:0:0:
122,127,20729,1,8,0:0:0:0:
125,120,20892,1,0,0:0:0:0:
153,123,21055,1,0,0:0:0:0:
153,123,21218,1,8,0:0:0:0:
153,123,21381,1,0,0:0:0:0:
153,123,21544,1,0,0:0:0:0:
153,123,21707,1,0,0:0:0:0:
153,123,21870,1,8,0:0:0:0:
153,123,22033,1,8,0:0:0:0:
153,123,22196,1,0,0:0:0:0:
265,67,22359,1,0,0:0:0:0:
149,134,22522,1,8,0:0:0:0:
149,134,22685,1,8,0:0:0:0:
149,134,22848,1,8,0:0:0:0:
74,143,22930,1,0,0:0:0:0:
237,138,23093,1,0,0:0:0:0:
74,143,23174,1,8,0:0:0:0:
74,143,23337,1,8,0:0:0:0:
77,148,23500,1,0,0:0:0:0:
258,174,23663,1,0,0:0:0:0:
258,174,23826,1,8,0:0:0:0:
233,166,23989,1,0,0:0:0:0:
233,166,24152,1,8,0:0:0:0:
233,166,24315,1,8,0:0:0:0:
233,166,24479,1,0,0:0:0:0:
233,166,24642,1,0,0:0:0:0:
232,156,24805,1,8,0:0:0:0:
47,141,24968,1,0,0:0:0:0:
47,141,25131,1,8,0:0:0:0:
46,128,25294,1,8,0:0:0:0:
46,128,25457,1,0,0:0:0:0:
46,128,25620,1,8,0:0:0:0:
46,128,25783,1,0,0:0:0:0:
46,128,25946,1,8,0:0:0:0:
46,128,26109,1,8,0:0:0:0:
182,148,26272,1,8,0:0:0:0:
182,148,26435,1,0,0:0:0:0:
182,148,26598,1,8,0:0:0:0:
182,148,26761,1,8,0:0:0:0:
182,148,26924,1,0,0:0:0:0:
182,148,27087,1,8,0:0:0:0:
182,148,27250,1,0,0:0:0:0:
37,186,27413,1,8,0:0:0:0:
66,157,27576,1,0,0:0:0:0:
66,157,27739,1,8,0:0:0:0:
94,168,27902,1,8,0:0:0:0:
94,168,28065,1,0,0:0:0:0:
94,168,28229,1,0,0:0:0:0:
88,157,28392,1,8,0:0:0:0:
94,168,28555,1,8,0:0:0:0:
87,153,28718,1,0,0:0:0:0:
156,103,28881,1,0,0:0:0:0:
156,103,29044,1,8,0:0:0:0:
155,41,29207,1,0,0:0:0:0:
155,41,29370,1,0,0:0:0:0:
115,176,29533,1,0,0:0:0:0:
115,176,29696,1,8,0:0:0:0:
153,107,29859,1,0,0:0:0:0:
153,107,30022,1,8,0:0:0:0:
153,107,30185,1,8,0:0:0:0:
62,141,30267,1,8,0:0:0:0:
157,102,30348,1,0,0:0:0:0:
16,159,30511,1,0,0:0:0:0:
16,159,30674,1,8,0:0:0:0:
16,159,30837,1,8,0:0:0:0:
16,159,31000,1,0,0:0:0:0:
16,159,31163,1,0,0:0:0:0:
16,159,31326,1,8,0:0:0:0:
140,140,31489,1,0,0:0:0:0:
140,140,31652,1,8,0:0:0:0:
140,140,31815,1,8,0:0:0:0:
143,134,31979,1,0,0:0:0:0:
143,130,32142,1,0,0:0:0:0:
143,130,32305,1,8,0:0:0:0:
143,130,32468,1,8,0:0:0:0:
143,130,32631,1,0,0:0:0:0:
150,112,32794,1,0,0:0:0:0:
150,112,32957,1,8,0:0:0:0:
150,112,33120,1,0,0:0:0:0:
150,112,33283,1,8,0:0:0:0:
150,112,33364,1,0,0:0:0:0:
77,192,33527,1,0,0:0:0:0:
147,110,33609,1,8,0:0:0:0:
93,124,33772,1,8,0:0:0:0:
23,142,33935,1,0,0:0:0:0:
91,182,34017,1,0,0:0:0:0:
94,182,34098,1,0,0:0:0:0:
93,175,34180,1,0,0:0:0:0:
93,173,34261,1,8,0:0:0:0:
93,173,34343,1,8,0:0:0:0:
93,173,34424,1,8,0:0:0:0:
93,166,34506,1,8,0:0:0:0:
93,166,34587,1,0,0:0:0:0:
93,166,34669,1,0,0:0:0:0:
93,166,34750,1,0,0:0:0:0:
93,166,34832,1,0,0:0:0:0:
93,166,34913,1,8,0:0:0:0:
93,166,34995,1,8,0:0:0:0:
93,166,35076,1,8,0:0:0:0:
93,166,35158,1,8,0:0:0:0:
93,166,35239,1,0,0:0:0:0:
113,158,35321,1,0,0:0:0:0:
113,158,35402,1,8,0:0:0:0:
113,158,35484,1,0,0:0:0:0:
113,158,35565,1,8,0:0:0:0:
110,159,35647,1,8,0:0:0:0:
110,160,35729,1,0,0:0:0:0:
110,160,35810,1,8,0:0:0:0:
93,166,35892,1,0,0:0:0:0:
113,158,35974,1,0,0:0:0:0:
113,158,36055,1,8,0:0:0:0:
113,158,36137,1,0,0:0:0:0:
113,158,36218,1,8,0:0:0:0:
110,159,36300,1,8,0:0:0:0:
110,160,36382,1,0,0:0:0:0:
110,160,36463,1,8,0:0:0:0:
42,160,36544,1,0,0:0:0:0:
24,170,36707,1,0,0:0:0:0:
24,170,36870,1,8,0:0:0:0:
24,170,37033,1,0,0:0:0:0:
24,170,37196,1,8,0:0:0:0:
24,170,37359,1,8,0:0:0:0:
24,170,37522,1,0,0:0:0:0:
24,170,37685,1,8,0:0:0:0:
252,135,37848,1,0,0:0:0:0:
252,135,38009,1,0,0:0:0:0:
279,154,38170,1,8,0:0:0:0:
279,154,38331,1,0,0:0:0:0:
279,154,38493,1,8,0:0:0:0:
279,154,38654,1,8,0:0:0:0:
279,154,38815,1,0,0:0:0:0:
279,154,38977,1,0,0:0:0:0:
29,151,39138,1,8,0:0:0:0:
29,151,39299,1,0,0:0:0:0:
29,151,39460,1,8,0:0:0:0:
29,151,39622,1,8,0:0:0:0:
29,151,39783,1,0,0:0:0:0:
29,151,39944,1,8,0:0:0:0:
29,151,40106,1,8,0:0:0:0:
29,151,40267,1,8,0:0:0:0:
29,151,40428,1,0,0:0:0:0:
88,134,40589,1,8,0:0:0:0:
88,134,40751,1,0,0:0:0:0:
88,134,40912,1,0,0:0:0:0:
88,134,41073,1,8,0:0:0:0:
88,134,41235,1,0,0:0:0:0:
88,134,41396,1,8,0:0:0:0:
88,134,41557,1,8,0:0:0:0:
88,134,41718,1,0,0:0:0:0:
37,102,41880,1,0,0:0:0:0:
37,102,42041,1,8,0:0:0:0:
37,102,42202,1,8,0:0:0:0:
37,102,42364,1,0,0:0:0:0:
37,102,42525,1,0,0:0:0:0:
97,168,42686,1,8,0:0:0:0:
97,168,42847,1,0,0:0:0:0:
97,168,43009,1,8,0:0:0:0:
76,126,43170,1,0,0:0:0:0:
76,126,43331,1,8,0:0:0:0:
76,126,43493,1,8,0:0:0:0:
76,126,43654,1,0,0:0:0:0:
76,126,43815,1,8,0:0:0:0:
76,126,43977,1,8,0:0:0:0:
76,126,44138,1,0,0:0:0:0:
76,126,44299,1,8,0:0:0:0:
2,146,44460,1,0,0:0:0:0:
2,146,44541,1,0,0:0:0:0:
2,146,44622,1,8,0:0:0:0:
120,54,44783,1,0,0:0:0:0:
243,84,44944,1,8,0:0:0:0:
243,84,45106,1,8,0:0:0:0:
243,84,45267,1,0,0:0:0:0:
238,87,45428,1,8,0:0:0:0:
243,84,45589,1,0,0:0:0:0:
235,80,45751,1,0,0:0:0:0:
192,79,45912,1,8,0:0:0:0:
192,79,46073,1,0,0:0:0:0:
192,79,46235,1,0,0:0:0:0:
192,79,46396,1,8,0:0:0:0:
192,79,46557,1,8,0:0:0:0:
192,79,46718,1,0,0:0:0:0:
192,79,46880,1,8,0:0:0:0:
57,147,47041,1,8,0:0:0:0:
57,147,47202,1,8,0:0:0:0:
57,147,47364,1,0,0:0:0:0:
57,147,47525,1,8,0:0:0:0:
57,147,47606,1,0,0:0:0:0:
13,139,47767,1,0,0:0:0:0:
57,147,47847,1,8,0:0:0:0:
57,147,48009,1,0,0:0:0:0:
57,147,48170,1,12,0:0:0:0:
132,124,48331,1,0,0:0:0:0:
131,108,48493,1,8,0:0:0:0:
131,108,48654,1,0,0:0:0:0:
131,108,48815,1,8,0:0:0:0:
131,108,48977,1,8,0:0:0:0:
131,108,49138,1,0,0:0:0:0:
131,108,49299,1,0,0:0:0:0:
131,108,49460,1,8,0:0:0:0:
68,177,49622,1,8,0:0:0:0:
71,171,49783,1,8,0:0:0:0:
71,171,49944,1,0,0:0:0:0:
71,171,50106,1,8,0:0:0:0:
71,171,50267,1,0,0:0:0:0:
71,171,50428,1,8,0:0:0:0:
74,171,50589,1,8,0:0:0:0:
71,171,50751,1,0,0:0:0:0:
155,129,50912,1,8,0:0:0:0:
155,129,51073,1,8,0:0:0:0:
155,129,51235,1,0,0:0:0:0:
155,129,51396,1,8,0:0:0:0:
155,129,51557,1,8,0:0:0:0:
155,129,51718,1,0,0:0:0:0:
155,129,51880,1,8,0:0:0:0:
155,129,52041,1,0,0:0:0:0:
159,209,52202,1,0,0:0:0:0:
159,209,52364,1,8,0:0:0:0:
159,209,52525,1,8,0:0:0:0:
159,209,52686,1,0,0:0:0:0:
159,209,52847,1,0,0:0:0:0:
159,209,53009,1,8,0:0:0:0:
159,209,53170,1,0,0:0:0:0:
226,161,53331,1,8,0:0:0:0:
161,186,53412,1,8,0:0:0:0:
161,186,53493,1,0,0:0:0:0:
161,186,53573,1,0,0:0:0:0:
161,186,53654,1,8,0:0:0:0:
161,186,53735,1,8,0:0:0:0:
161,186,53815,1,8,0:0:0:0:
161,186,53896,1,8,0:0:0:0:
161,185,53977,1,0,0:0:0:0:
161,185,54057,1,0,0:0:0:0:
163,179,54138,1,8,0:0:0:0:
163,179,54218,1,0,0:0:0:0:
163,179,54299,1,8,0:0:0:0:
163,179,54380,1,8,0:0:0:0:
163,179,54460,1,8,0:0:0:0:
163,179,54541,1,8,0:0:0:0:
163,179,54622,1,0,0:0:0:0:
144,193,54702,1,0,0:0:0:0:
144,193,54783,1,8,0:0:0:0:
144,193,54864,1,0,0:0:0:0:
144,193,54944,1,8,0:0:0:0:
144,193,55025,1,8,0:0:0:0:
144,193,55106,1,0,0:0:0:0:
144,193,55186,1,0,0:0:0:0:
144,193,55267,1,8,0:0:0:0:
144,193,55347,1,0,0:0:0:0:
144,193,55428,1,8,0:0:0:0:
144,193,55509,1,8,0:0:0:0:
145,193,55589,1,0,0:0:0:0:
156,189,55670,1,8,0:0:0:0:
156,189,55751,1,0,0:0:0:0:
156,189,55831,1,8,0:0:0:0:
156,189,55912,1,0,0:0:0:0:
74,120,55993,1,0,0:0:0:0:
74,120,56073,1,0,0:0:0:0:
74,120,56154,1,0,0:0:0:0:
74,120,56235,1,8,0:0:0:0:
74,120,56315,1,8,0:0:0:0:
74,120,56396,1,0,0:0:0:0:
74,120,56477,1,8,0:0:0:0:
74,120,56557,1,0,0:0:0:0:
74,120,56638,1,0,0:0:0:0:
74,120,56718,1,0,0:0:0:0:
82,118,56799,1,0,0:0:0:0:
82,118,56880,1,8,0:0:0:0:
155,161,56960,1,8,0:0:0:0:
155,161,57041,1,0,0:0:0:0:
155,161,57122,1,8,0:0:0:0:
155,161,57202,1,0,0:0:0:0:
155,161,57283,1,8,0:0:0:0:
155,161,57364,1,8,0:0:0:0:
155,161,57444,1,8,0:0:0:0:
155,161,57525,1,0,0:0:0:0:
115,101,57606,1,8,0:0:0:0:
115,101,57686,1,8,0:0:0:0:
115,101,57767,1,8,0:0:0:0:
126,51,57847,1,0,0:0:0:0:
126,51,57928,1,0,0:0:0:0:
218,131,58089,1,0,0:0:0:0:
218,131,58170,1,8,0:0:0:0:
216,124,58331,1,0,0:0:0:0:
99,165,58493,1,12,0:0:0:0:
99,165,58654,1,12,0:0:0:0:
99,165,58815,1,12,0:0:0:0:
99,165,58977,1,12,0:0:0:0:
99,165,59138,1,12,0:0:0:0:
152,72,59299,1,8,0:0:0:0:
152,72,59460,1,4,0:0:0:0:
152,72,59622,1,4,0:0:0:0:
256,192,59783,12,0,64944,0:0:0:0:
