osu file format v14

[General]
AudioFilename: audio.mp3
AudioLeadIn: 0
PreviewTime: 37767
Countdown: 0
SampleSet: Soft
StackLeniency: 0.7
Mode: 2
LetterboxInBreaks: 0
WidescreenStoryboard: 1

[Editor]
Bookmarks: 2516
DistanceSpacing: 2
BeatDivisor: 4
GridSize: 32
TimelineZoom: 2

[Metadata]
Title:quaver
TitleUnicode:quaver ♪
Artist:dj TAKA
ArtistUnicode:dj TAKA
Creator:Ascendance
Version:Sinnoh's Overdose
Source:REFLEC BEAT limelight
Tags:beatmania IIDX 19 Lincle jubeat saucer jukebeat KONAMI music pack 25 pop'n music Sunny Park plus MUSIC PACK 29 + ポップンリズミン パック1 MUSIC PACK 19 cut edit short ver version sinnoh -_magic_bomb_- mbomb chara -plus- osu_gangster ster [sc4v4ng3r] sc4v4ng3r alienflybot spectator sotarks
BeatmapID:1838436
BeatmapSetID:879085

[Difficulty]
HPDrainRate:6
CircleSize:4
OverallDifficulty:9.2
ApproachRate:9.2
SliderMultiplier:2
SliderTickRate:2

[Events]
//Background and Video events
0,0,"bg.jpg",0,0
//Break Periods
//Storyboard Layer 0 (Background)
//Storyboard Layer 1 (Fail)
//Storyboard Layer 2 (Pass)
//Storyboard Layer 3 (Foreground)
//Storyboard Sound Samples

[TimingPoints]
1198,329.67032967033,4,2,22,32,1,0
1198,-100,4,2,22,32,0,0
6472,-100,4,2,22,52,0,0
13066,326.086956521739,4,2,22,62,1,0
13066,-98.0392156862745,4,2,22,62,0,0
37848,322.58064516129,4,2,22,72,1,0
48170,-83.3333333333333,4,2,22,82,0,0
53331,-83.3333333333333,4,2,22,72,0,0
57202,-83.3333333333333,4,2,22,82,0,0
58493,-83.3333333333333,4,2,22,92,0,0
61073,-83.3333333333333,4,2,22,62,0,0
63009,-83.3333333333333,4,2,22,32,0,0
64944,-100,4,2,22,5,0,0

[Colours]
Combo1 : 114,102,255
Combo2 : 255,247,91
Combo3 : 104,255,209
Combo4 : 220,168,255

[HitObjects]
377,352,1198,6,0,L|370:120,1,200,2|0,0:0|0:0,0:0:0:0:
237,293,1692,2,0,L|244:81,1,200,2|0,0:0|0:0,0:0:0:0:
389,214,2187,2,0,L|383:93,1,100,2|0,0:0|0:0,0:0:0:0:
128,297,2516,6,0,P|70:226|136:163,1,200,2|0,0:0|0:0,0:0:0:0:
251,154,3011,2,0,L|446:104,1,200,2|0,0:0|0:0,0:0:0:0:
351,254,3505,2,0,L|343:141,1,100,2|0,0:0|0:0,0:0:0:0:
101,260,3835,6,0,P|104:163|210:134,1,200,2|0,0:0|0:0,0:0:0:0:
313,217,4329,2,0,P|326:139|198:78,1,200,2|0,0:0|0:0,0:0:0:0:
118,165,4824,2,0,L|235:130,1,100,2|0,0:0|0:0,0:0:0:0:
397,250,5154,6,0,P|451:178|378:91,1,200,2|2,0:0|0:0,0:0:0:0:
194,251,5813,1,2,3:2:0:0:
178,204,5895,1,0,3:0:0:0:
190,156,5977,1,0,3:0:0:0:
226,123,6060,1,0,3:0:0:0:
275,115,6143,2,0,L|401:97,1,100,2|0,3:2|1:0,0:0:0:0:
51,296,6472,6,0,L|42:183,1,100,6|0,1:2|0:0,0:0:0:0:
191,282,6802,2,0,L|189:175,1,100,2|0,0:0|0:0,0:0:0:0:
339,283,7132,2,0,L|343:160,1,100,2|0,0:0|0:0,0:0:0:0:
487,292,7461,2,0,L|496:178,1,100,2|0,0:0|0:0,0:0:0:0:
326,236,7791,6,0,L|203:206,1,100,2|0,0:0|0:0,0:0:0:0:
341,178,8121,2,0,L|345:50,1,100,2|0,0:0|0:0,0:0:0:0:
209,239,8450,2,0,L|81:203,1,100,2|0,0:0|0:0,0:0:0:0:
224,154,8780,1,2,0:0:0:0:
91,120,8945,1,0,1:0:0:0:
351,299,9110,6,0,P|431:266|436:144,1,200,6|2,1:2|0:0,0:0:0:0:
355,121,9604,1,0,1:0:0:0:
115,133,9769,2,0,L|316:105,1,200,6|2,1:2|0:0,0:0:0:0:
184,57,10263,1,0,1:0:0:0:
479,162,10428,6,0,L|363:141,1,100,2|0,1:2|1:2,0:0:0:0:
151,290,10758,2,0,L|143:169,1,100,2|0,1:2|1:2,0:0:0:0:
301,199,11088,2,0,L|369:190,1,50,2|0,1:2|1:2,0:0:0:0:
77,130,11335,2,0,L|151:118,1,50,0|2,1:2|1:2,0:0:0:0:
352,242,11582,1,0,1:2:0:0:
216,235,11747,6,0,L|79:213,2,100,0|0|0,0:0|0:0|0:0,0:0:0:0:
352,183,12242,2,0,L|278:164,1,50,0|0,0:0|0:0,0:0:0:0:
140,312,12406,5,0,0:0:0:0:
102,277,12488,1,0,0:0:0:0:
77,234,12570,1,0,0:0:0:0:
68,185,12653,1,0,0:0:0:0:
75,137,12735,1,0,0:0:0:0:
97,92,12818,1,0,0:0:0:0:
133,56,12900,1,0,0:0:0:0:
177,35,12982,1,0,0:0:0:0:
428,272,13066,6,0,L|442:132,1,102.000000622559,6|0,1:2|0:2,0:0:0:0:
283,169,13392,2,0,L|163:132,1,102.000000622559,10|0,0:2|0:2,0:0:0:0:
456,89,13718,2,0,L|317:59,1,102.000000622559,2|0,1:2|0:2,0:0:0:0:
243,198,14044,2,0,L|350:151,1,102.000000622559,10|0,0:2|0:2,0:0:0:0:
69,264,14370,6,0,L|57:155,1,102.000000622559,2|0,1:2|0:2,0:0:0:0:
196,208,14696,2,0,L|204:90,1,102.000000622559,10|0,0:2|0:2,0:0:0:0:
446,115,15022,2,0,L|327:90,1,102.000000622559,2|0,1:2|0:2,0:0:0:0:
78,114,15348,2,0,L|204:63,1,102.000000622559,10|0,0:2|0:2,0:0:0:0:
447,241,15674,5,2,1:2:0:0:
299,214,15837,1,2,0:2:0:0:
423,147,16000,1,10,0:2:0:0:
276,122,16163,1,0,0:2:0:0:
45,240,16326,5,2,1:2:0:0:
193,213,16489,1,2,0:2:0:0:
69,146,16652,1,8,0:2:0:0:
216,121,16815,1,0,0:2:0:0:
351,296,16979,6,0,L|355:174,1,102.000000622559,2|2,1:2|0:2,0:0:0:0:
76,159,17305,2,0,L|208:132,1,102.000000622559,10|0,0:2|0:2,0:0:0:0:
313,136,17631,1,2,1:2:0:0:
172,83,17794,1,2,1:2:0:0:
468,209,17957,2,0,L|346:194,1,102.000000622559,10|0,1:2|1:2,0:0:0:0:
104,265,18283,6,0,L|93:149,1,102.000000622559,6|0,1:2|0:2,0:0:0:0:
404,117,18609,2,0,L|259:90,1,102.000000622559,10|0,0:2|0:2,0:0:0:0:
164,245,18935,2,0,L|175:126,1,102.000000622559,2|0,1:2|0:2,0:0:0:0:
492,149,19261,2,0,L|372:129,1,102.000000622559,10|0,1:2|1:2,0:0:0:0:
229,235,19587,5,2,1:2:0:0:
364,237,19750,1,2,0:2:0:0:
359,186,19831,1,0,0:0:0:0:
355,135,19913,1,10,0:2:0:0:
216,132,20076,1,0,0:2:0:0:
51,237,20239,1,2,1:2:0:0:
185,241,20402,2,0,L|178:115,1,102.000000622559,2|10,1:2|0:2,0:0:0:0:
49,123,20729,1,0,1:2:0:0:
298,245,20892,6,0,L|404:227,1,102.000000622559,2|0,1:2|0:2,0:0:0:0:
134,209,21218,2,0,L|147:90,1,102.000000622559,10|0,0:2|0:2,0:0:0:0:
307,182,21544,2,0,L|322:56,1,102.000000622559,2|0,1:2|0:2,0:0:0:0:
94,148,21870,2,0,L|216:118,1,102.000000622559,10|0,0:2|1:2,0:0:0:0:
301,212,22196,6,0,L|167:196,1,102.000000622559,2|0,0:2|3:2,0:0:0:0:
472,164,22522,2,0,L|353:144,1,102.000000622559,2|0,0:2|3:2,0:0:0:0:
124,193,22849,2,0,L|140:144,1,51.0000003112793,2|0,1:2|1:2,0:0:0:0:
368,93,23093,2,0,L|431:82,1,51.0000003112793,0|2,1:2|1:2,0:0:0:0:
150,141,23337,2,0,L|145:96,2,25.5000001556396,0|0|0,0:2|0:0|0:0,0:0:0:0:
410,242,23500,6,0,L|426:136,1,102.000000622559,6|0,1:2|0:2,0:0:0:0:
282,206,23826,2,0,L|276:87,1,102.000000622559,10|0,0:2|0:2,0:0:0:0:
35,144,24152,2,0,L|139:117,1,102.000000622559,2|0,1:2|0:2,0:0:0:0:
274,94,24478,2,0,L|157:67,1,102.000000622559,10|0,0:2|0:2,0:0:0:0:
488,279,24805,6,0,L|473:172,1,102.000000622559,2|0,1:2|0:2,0:0:0:0:
307,192,25131,2,0,L|186:170,1,102.000000622559,10|0,0:2|0:2,0:0:0:0:
457,140,25457,2,0,L|344:115,1,102.000000622559,2|0,1:2|0:2,0:0:0:0:
68,154,25783,2,0,L|179:122,1,102.000000622559,10|0,0:2|0:2,0:0:0:0:
424,277,26109,5,2,1:2:0:0:
398,181,26272,1,2,0:2:0:0:
261,181,26436,1,10,0:2:0:0:
137,154,26599,1,0,0:2:0:0:
394,277,26761,1,2,1:2:0:0:
398,181,26924,1,2,0:2:0:0:
261,181,27088,1,10,0:2:0:0:
398,181,27251,1,0,0:2:0:0:
126,301,27413,6,0,L|114:174,1,102.000000622559,2|2,1:2|0:2,0:0:0:0:
261,159,27739,2,0,L|361:130,1,102.000000622559,10|0,0:2|0:2,0:0:0:0:
226,89,28065,1,2,1:2:0:0:
368,57,28229,1,2,1:2:0:0:
88,267,28392,2,0,L|78:138,1,102.000000622559,10|0,1:2|1:2,0:0:0:0:
389,198,28718,6,0,L|275:175,1,102.000000622559,6|0,1:2|0:2,0:0:0:0:
33,137,29044,2,0,L|156:103,1,102.000000622559,10|0,0:2|0:2,0:0:0:0:
252,183,29370,2,0,L|130:162,1,102.000000622559,2|0,1:2|0:2,0:0:0:0:
431,239,29695,2,0,B|453:192|453:192|405:157,1,102.000000622559,10|0,0:2|1:2,0:0:0:0:
159,221,30022,5,2,1:2:0:0:
296,212,30185,1,2,0:2:0:0:
296,161,30266,1,0,0:0:0:0:
297,110,30348,1,10,0:2:0:0:
164,92,30511,1,0,0:2:0:0:
290,84,30674,1,2,1:2:0:0:
408,70,30837,1,2,1:2:0:0:
287,248,31000,2,0,L|177:233,1,102.000000622559,10|0,0:2|1:2,0:0:0:0:
454,275,31326,6,0,L|446:163,1,102.000000622559,2|0,1:2|0:2,0:0:0:0:
199,117,31652,2,0,L|330:108,1,102.000000622559,10|0,0:2|0:2,0:0:0:0:
176,290,31979,2,0,L|165:168,1,102.000000622559,2|0,1:2|0:2,0:0:0:0:
460,104,32305,2,0,L|348:94,1,102.000000622559,10|0,0:2|0:2,0:0:0:0:
48,251,32631,6,0,L|58:123,1,102.000000622559,2|0,1:2|1:2,0:0:0:0:
307,141,32957,2,0,L|200:125,1,102.000000622559,10|0,1:2|1:2,0:0:0:0:
458,222,33283,2,0,L|478:148,1,51.0000003112793,2|0,1:2|0:0,0:0:0:0:
162,230,33527,2,0,L|174:135,1,51.0000003112793,0|10,0:0|1:2,0:0:0:0:
444,111,33772,1,0,1:2:0:0:
158,232,33935,5,2,1:2:0:0:
150,182,34016,1,0,1:2:0:0:
175,138,34098,1,0,1:2:0:0:
221,118,34179,1,0,1:2:0:0:
391,280,34261,1,2,1:2:0:0:
425,244,34342,1,0,1:2:0:0:
428,194,34424,1,0,1:2:0:0:
397,155,34505,1,0,1:2:0:0:
221,118,34587,2,0,L|206:31,1,51.0000003112793,2|0,1:2|1:2,0:0:0:0:
326,81,34832,1,0,1:2:0:0:
164,264,34913,1,2,1:2:0:0:
124,235,34994,1,0,1:2:0:0:
128,180,35076,1,0,1:2:0:0:
178,147,35157,1,0,1:2:0:0:
322,169,35239,6,0,L|367:167,14,25.5000001556396,2|0|0|0|0|0|0|0|2|0|0|0|0|0|0,1:2|1:2|1:2|1:2|1:2|1:2|1:2|0:0|1:2|1:2|1:2|1:2|1:2|1:2|1:2,0:0:0:0:
164,184,35892,6,0,L|146:175,12,12.7500000778198,2|0|0|0|0|0|0|0|0|0|0|0|0,1:2|1:2|1:2|1:2|1:2|1:2|1:2|1:2|1:2|1:2|1:2|1:2|1:2,0:0:0:0:
343,256,36218,1,2,1:2:0:0:
355,207,36299,1,0,1:2:0:0:
338,159,36381,1,0,1:2:0:0:
298,129,36462,1,0,0:0:0:0:
230,326,36544,5,0,0:0:0:0:
146,272,36707,1,0,0:0:0:0:
131,174,36870,1,0,0:0:0:0:
194,97,37033,1,0,0:0:0:0:
293,93,37196,1,0,0:0:0:0:
29,137,37359,2,0,L|47:128,1,12.7500000778198,0|0,0:0|0:0,0:0:0:0:
406,309,37523,2,0,P|407:200|403:140,1,153.000000933838,0|0,0:0|0:0,0:0:0:0:
186,162,37848,6,0,L|60:144,1,100,6|0,1:2|0:2,0:0:0:0:
326,162,38170,2,0,L|452:144,1,100,10|0,0:2|0:2,0:0:0:0:
98,210,38493,2,0,L|209:193,1,100,2|0,1:2|0:2,0:0:0:0:
422,220,38815,2,0,L|311:190,1,100,10|0,0:2|0:2,0:0:0:0:
94,292,39138,6,0,L|86:166,1,100,2|0,1:2|0:2,0:0:0:0:
314,118,39460,2,0,L|453:92,1,100,10|0,0:2|0:2,0:0:0:0:
153,238,39783,2,0,L|160:138,1,100,2|0,1:2|0:2,0:0:0:0:
439,257,40106,2,0,L|444:134,1,100,10|0,0:2|0:2,0:0:0:0:
214,169,40428,5,2,1:2:0:0:
98,116,40589,1,2,0:2:0:0:
362,177,40751,1,10,0:2:0:0:
260,118,40912,1,0,0:2:0:0:
40,236,41073,5,2,1:2:0:0:
156,183,41234,1,2,0:2:0:0:
411,270,41396,1,10,0:2:0:0:
390,153,41557,1,0,0:2:0:0:
246,240,41718,6,0,L|118:219,1,100,2|2,1:2|0:2,0:0:0:0:
451,112,42041,2,0,L|333:89,1,100,10|0,0:2|0:2,0:0:0:0:
119,147,42363,1,2,1:2:0:0:
352,207,42524,1,0,0:0:0:0:
36,255,42686,2,0,L|177:235,1,100,10|0,1:2|1:2,0:0:0:0:
455,262,43009,6,0,L|439:128,1,100,6|0,1:2|0:2,0:0:0:0:
196,150,43332,2,0,L|72:120,1,100,10|0,0:2|0:2,0:0:0:0:
357,248,43654,2,0,L|363:144,1,100,2|0,1:2|0:2,0:0:0:0:
94,104,43977,2,0,L|208:81,1,100,10|0,1:2|1:2,0:0:0:0:
429,92,44300,5,2,1:2:0:0:
288,177,44460,1,0,0:2:0:0:
433,243,44622,1,10,0:2:0:0:
288,328,44783,1,0,0:2:0:0:
148,255,44944,1,2,1:2:0:0:
161,100,45106,1,0,1:2:0:0:
295,33,45267,1,10,0:2:0:0:
288,177,45428,1,0,1:2:0:0:
51,211,45589,6,0,L|68:72,1,100,2|0,1:2|0:2,0:0:0:0:
327,157,45912,2,0,L|205:133,1,100,10|0,0:2|0:2,0:0:0:0:
468,249,46235,2,0,L|476:109,1,100,2|0,1:2|0:2,0:0:0:0:
208,197,46557,2,0,L|325:173,1,100,10|0,0:2|0:2,0:0:0:0:
63,136,46880,6,0,L|198:113,1,100,2|0,1:2|1:2,0:0:0:0:
445,174,47202,2,0,L|319:145,1,100,10|0,1:2|1:2,0:0:0:0:
111,249,47524,2,0,L|102:190,2,50,2|0|0,1:2|0:0|0:0,0:0:0:0:
293,234,47767,2,0,L|360:219,1,50,0|10,0:0|1:2,0:0:0:0:
62,130,48009,2,0,L|148:121,1,50,0|0,0:2|0:0,0:0:0:0:
471,140,48170,6,0,L|322:137,1,119.999996337891,6|0,1:2|0:2,0:0:0:0:
72,145,48493,2,0,L|207:123,1,119.999996337891,10|0,0:2|0:2,0:0:0:0:
447,295,48815,1,2,1:2:0:0:
193,242,48976,1,0,0:2:0:0:
453,206,49138,6,0,L|441:76,1,119.999996337891,10|0,0:2|0:2,0:0:0:0:
209,78,49460,2,0,L|366:55,1,119.999996337891,2|0,1:2|0:2,0:0:0:0:
79,157,49783,1,10,0:2:0:0:
329,220,49944,1,0,0:2:0:0:
81,287,50106,6,0,L|77:153,1,119.999996337891,2|0,1:2|0:2,0:0:0:0:
316,115,50428,2,0,L|441:89,1,119.999996337891,10|0,0:2|0:2,0:0:0:0:
66,153,50751,5,2,1:2:0:0:
199,193,50911,1,2,0:2:0:0:
333,234,51073,1,10,0:2:0:0:
467,275,51234,1,0,0:2:0:0:
210,213,51396,1,2,1:2:0:0:
353,142,51557,1,2,0:2:0:0:
69,118,51718,1,10,0:2:0:0:
193,231,51880,1,0,0:2:0:0:
444,257,52041,6,0,L|438:115,1,119.999996337891,2|2,1:2|0:2,0:0:0:0:
186,133,52363,2,0,L|55:103,1,119.999996337891,10|0,0:2|0:2,0:0:0:0:
337,189,52686,2,0,L|488:157,1,119.999996337891,2|2,1:2|1:2,0:0:0:0:
63,206,53009,2,0,L|185:179,1,119.999996337891,10|0,1:2|1:2,0:0:0:0:
420,260,53331,5,4,1:2:0:0:
452,211,53411,1,0,3:0:0:0:
438,155,53492,1,0,3:0:0:0:
387,128,53572,1,0,0:0:0:0:
237,257,53654,1,0,3:0:0:0:
192,218,53734,1,0,3:0:0:0:
184,160,53815,1,0,3:0:0:0:
217,112,53895,1,0,3:0:0:0:
384,223,53977,6,0,L|376:157,1,59.9999981689454,0|0,3:0|3:0,0:0:0:0:
237,132,54138,2,0,L|157:111,1,59.9999981689454,0|0,3:0|3:0,0:0:0:0:
325,207,54299,2,0,L|317:141,1,59.9999981689454,0|0,3:0|3:0,0:0:0:0:
178,116,54460,2,0,L|98:95,1,59.9999981689454,0|0,3:0|3:0,0:0:0:0:
384,314,54622,6,0,L|390:235,1,59.9999981689454,0|0,3:0|3:0,0:0:0:0:
332,206,54783,2,0,L|262:191,1,59.9999981689454,0|0,3:0|3:0,0:0:0:0:
198,173,54944,2,0,L|194:95,1,59.9999981689454,0|0,3:0|3:0,0:0:0:0:
269,91,55106,2,0,L|366:66,1,59.9999981689454,0|0,3:0|3:0,0:0:0:0:
137,129,55267,2,0,L|72:105,1,59.9999981689454,0|0,3:0|3:0,0:0:0:0:
273,177,55428,2,0,L|354:156,1,59.9999981689454,0|0,1:0|3:0,0:0:0:0:
154,215,55589,2,0,L|67:189,1,59.9999981689454,0|0,1:0|3:0,0:0:0:0:
282,245,55751,2,0,L|356:232,1,59.9999981689454,0|0,1:0|3:0,0:0:0:0:
79,291,55912,5,0,1:0:0:0:
53,238,55992,1,0,3:0:0:0:
73,183,56073,1,0,3:0:0:0:
126,158,56153,1,0,3:0:0:0:
291,131,56235,2,0,L|363:110,1,59.9999981689454,0|0,3:0|3:0,0:0:0:0:
162,187,56396,2,0,L|177:74,1,59.9999981689454,0|0,1:0|3:0,0:0:0:0:
382,279,56557,5,0,1:0:0:0:
431,248,56637,1,0,3:0:0:0:
434,191,56718,1,0,3:0:0:0:
389,155,56798,1,0,3:0:0:0:
239,131,56880,2,0,L|180:113,1,59.9999981689454,0|0,3:0|3:0,0:0:0:0:
363,67,57041,2,0,L|295:47,1,59.9999981689454,0|0,1:0|3:0,0:0:0:0:
91,238,57202,6,0,L|98:156,1,59.9999981689454,6|0,1:2|0:0,0:0:0:0:
279,202,57364,2,0,L|356:186,1,59.9999981689454,0|0,1:2|0:0,0:0:0:0:
141,132,57525,2,0,L|148:50,1,59.9999981689454,6|0,1:2|0:0,0:0:0:0:
329,96,57687,2,0,L|406:80,1,59.9999981689454,0|0,1:2|0:0,0:0:0:0:
171,223,57847,2,0,L|166:164,1,59.9999981689454,6|0,1:2|0:0,0:0:0:0:
362,184,58009,2,0,L|439:168,1,59.9999981689454,0|0,1:2|0:0,0:0:0:0:
251,300,58170,2,0,L|246:241,1,59.9999981689454,6|0,1:2|0:0,0:0:0:0:
442,107,58332,2,0,L|519:91,1,59.9999981689454,0|0,1:2|0:0,0:0:0:0:
288,304,58493,5,6,1:2:0:0:
41,197,58654,1,2,1:2:0:0:
313,162,58815,1,2,1:2:0:0:
40,77,58977,1,2,1:2:0:0:
260,95,59138,1,2,1:2:0:0:
487,256,59300,1,2,1:2:0:0:
109,190,59460,1,2,1:2:0:0:
348,232,59622,5,6,1:2:0:0:
256,192,59783,12,0,64944,0:0:0:0:
