osu file format v14

[General]
AudioFilename: audio.mp3
AudioLeadIn: 0
PreviewTime: 37767
Countdown: 0
SampleSet: Soft
StackLeniency: 0.7
Mode: 2
LetterboxInBreaks: 0
WidescreenStoryboard: 1

[Editor]
Bookmarks: 2516
DistanceSpacing: 2.3
BeatDivisor: 4
GridSize: 32
TimelineZoom: 2

[Metadata]
Title:quaver
TitleUnicode:quaver ♪
Artist:dj TAKA
ArtistUnicode:dj TAKA
Creator:Ascendance
Version:Sc4's Rain
Source:REFLEC BEAT limelight
Tags:beatmania IIDX 19 Lincle jubeat saucer jukebeat KONAMI music pack 25 pop'n music Sunny Park plus MUSIC PACK 29 + ポップンリズミン パック1 MUSIC PACK 19 cut edit short ver version sinnoh -_magic_bomb_- mbomb chara -plus- osu_gangster ster [sc4v4ng3r] sc4v4ng3r alienflybot spectator sotarks
BeatmapID:1841428
BeatmapSetID:879085

[Difficulty]
HPDrainRate:6
CircleSize:4
OverallDifficulty:9
ApproachRate:9
SliderMultiplier:1.8
SliderTickRate:2

[Events]
//Background and Video events
0,0,"bg.jpg",0,0
//Break Periods
//Storyboard Layer 0 (Background)
//Storyboard Layer 1 (Fail)
//Storyboard Layer 2 (Pass)
//Storyboard Layer 3 (Foreground)
//Storyboard Sound Samples

[TimingPoints]
1198,329.67032967033,4,2,22,32,1,0
1198,-100,4,2,22,32,0,0
6472,-100,4,2,22,52,0,0
13066,326.086956521739,4,2,22,62,1,0
13066,-100,4,2,22,62,0,0
37848,322.58064516129,4,2,22,72,1,0
48009,-100,4,2,22,72,0,0
48170,-83.3333333333333,4,2,22,82,0,0
53331,-83.3333333333333,4,2,22,72,0,0
57202,-83.3333333333333,4,2,22,82,0,0
58493,-83.3333333333333,4,2,22,92,0,0
59622,-83.3333333333333,4,2,22,92,0,0
61073,-83.3333333333333,4,2,22,62,0,0
63009,-83.3333333333333,4,2,22,32,0,0
64944,-100,4,2,22,5,0,0

[Colours]
Combo1 : 114,102,255
Combo2 : 255,247,91
Combo3 : 104,255,209
Combo4 : 220,168,255

[HitObjects]
112,160,1198,6,0,L|112:280,1,90
219,265,1527,1,0,0:0:0:0:
333,286,1692,2,0,L|165:370,1,180
360,288,2187,2,0,L|464:288,1,90,0|0,2:0|0:0,0:0:0:0:
200,200,2516,6,0,L|96:200,2,90,0|0|0,2:0|0:0|0:0,0:0:0:0:
384,176,3011,2,0,P|368:104|264:80,1,180
96,104,3505,2,0,L|96:200,1,90
368,216,3835,6,0,L|472:216,2,90
112,200,4329,2,0,B|16:200|16:200|104:200,1,180
376,248,4824,2,0,L|472:248,1,90
136,144,5154,6,0,L|264:144,1,90
408,176,5483,2,0,L|296:176,1,90
56,160,5813,1,0,0:0:0:0:
176,160,5978,1,0,0:0:0:0:
216,120,6060,1,0,0:0:0:0:
256,80,6143,1,0,0:0:0:0:
136,80,6307,1,2,0:0:0:0:
448,152,6472,6,0,P|472:216|376:288,1,180,4|0,0:0|0:0,0:0:0:0:
200,280,7132,2,0,L|392:264,1,180
152,224,7791,6,0,L|352:216,3,180
464,232,8945,1,2,0:0:0:0:
184,280,9110,6,0,L|0:280,1,180,4|0,0:0|0:0,0:0:0:0:
160,224,9604,1,2,0:0:0:0:
448,216,9769,2,0,P|488:136|416:64,1,180,4|0,0:0|0:0,0:0:0:0:
288,64,10263,1,2,0:0:0:0:
32,120,10428,6,0,L|24:232,1,90,6|2,0:0|0:0,0:0:0:0:
144,216,10758,1,2,0:0:0:0:
24,216,10923,1,2,0:0:0:0:
296,208,11088,2,0,L|360:208,1,45,6|2,0:0|0:0,0:0:0:0:
456,232,11335,2,0,L|384:232,1,45,2|4,0:0|0:0,0:0:0:0:
296,248,11582,1,2,0:0:0:0:
40,248,11747,5,0,0:0:0:0:
160,248,11912,2,0,L|64:240,1,90
16,232,12159,1,0,0:0:0:0:
70,240,12241,1,0,0:0:0:0:
128,240,12324,1,0,0:0:0:0:
312,208,12406,1,0,0:0:0:0:
368,224,12489,1,0,0:0:0:0:
368,280,12571,1,0,0:0:0:0:
312,304,12654,1,0,0:0:0:0:
232,296,12736,2,0,P|168:224|200:192,1,135
464,256,13066,6,0,L|456:160,1,90,6|0,0:0|0:0,0:0:0:0:
320,96,13392,2,0,L|208:96,1,90,8|0,0:0|0:0,0:0:0:0:
480,160,13718,2,0,L|472:264,1,90,2|0,0:0|0:0,0:0:0:0:
352,240,14044,2,0,L|344:336,1,90,8|0,0:0|0:0,0:0:0:0:
48,280,14370,6,0,L|144:288,1,90,2|0,0:0|0:0,0:0:0:0:
256,232,14696,2,0,L|152:224,1,90,8|0,0:0|0:0,0:0:0:0:
352,192,15022,2,0,L|368:304,1,90,2|0,0:0|0:0,0:0:0:0:
104,160,15348,2,0,L|96:256,1,90,8|0,0:0|0:0,0:0:0:0:
400,296,15674,6,0,L|408:200,1,90,2|0,0:0|0:0,0:0:0:0:
240,192,16000,1,8,0:0:0:0:
360,200,16163,1,0,0:0:0:0:
96,280,16326,2,0,L|88:168,1,90,2|0,0:0|0:0,0:0:0:0:
272,144,16652,1,8,0:0:0:0:
152,144,16816,1,0,0:0:0:0:
416,216,16979,6,0,L|424:320,1,90,2|0,0:0|0:0,0:0:0:0:
240,304,17305,1,8,0:0:0:0:
360,296,17468,1,0,0:0:0:0:
96,272,17631,1,2,0:0:0:0:
192,200,17794,2,0,L|136:192,1,45,2|0,0:0|0:0,0:0:0:0:
96,192,17957,2,0,L|0:192,1,90,8|0,0:0|0:0,0:0:0:0:
360,224,18283,6,0,L|464:216,1,90,6|0,0:0|0:0,0:0:0:0:
192,272,18609,2,0,L|88:256,1,90,8|0,0:0|0:0,0:0:0:0:
288,240,18935,2,0,L|296:144,1,90,2|0,0:0|0:0,0:0:0:0:
24,120,19261,2,0,L|32:216,1,90,8|0,0:0|0:0,0:0:0:0:
376,248,19587,5,2,0:0:0:0:
256,248,19750,2,0,L|200:248,2,45,0|0|8,0:0|0:0|0:0,0:0:0:0:
376,248,20076,1,2,0:0:0:0:
104,184,20239,1,2,0:0:0:0:
224,184,20402,1,2,0:0:0:0:
88,168,20565,2,0,L|96:72,1,90,8|0,0:0|0:0,0:0:0:0:
368,64,20892,6,0,L|472:64,1,90,2|0,0:0|0:0,0:0:0:0:
200,136,21218,2,0,L|208:240,1,90,8|0,0:0|0:0,0:0:0:0:
392,200,21544,2,0,L|488:200,1,90,2|0,0:0|0:0,0:0:0:0:
208,232,21870,2,0,L|216:328,1,90,8|0,0:0|0:0,0:0:0:0:
392,328,22196,5,0,0:0:0:0:
264,328,22359,1,0,0:0:0:0:
88,288,22522,2,0,L|80:192,1,90,8|0,0:0|0:0,0:0:0:0:
304,144,22848,2,0,L|312:80,1,45,2|2,0:0|0:0,0:0:0:0:
168,144,23093,2,0,L|160:80,1,45,2|8,0:0|0:0,0:0:0:0:
312,96,23337,1,0,0:0:0:0:
32,144,23500,6,0,L|136:152,1,90,6|0,0:0|0:0,0:0:0:0:
256,160,23826,2,0,L|152:168,1,90,8|0,0:0|0:0,0:0:0:0:
424,200,24152,2,0,L|320:208,1,90,2|0,0:0|0:0,0:0:0:0:
152,240,24479,2,0,L|56:240,1,90,8|0,0:0|0:0,0:0:0:0:
336,232,24805,6,0,L|432:232,1,90,2|0,0:0|0:0,0:0:0:0:
296,184,25131,2,0,L|416:184,1,90,8|0,0:0|0:0,0:0:0:0:
200,160,25457,2,0,L|96:160,1,90,2|0,0:0|0:0,0:0:0:0:
384,88,25783,2,0,P|352:56|288:64,1,90,8|0,0:0|0:0,0:0:0:0:
32,112,26109,5,2,0:0:0:0:
152,104,26272,1,0,0:0:0:0:
336,128,26435,2,0,L|440:128,1,90,8|0,0:0|0:0,0:0:0:0:
160,240,26761,1,2,0:0:0:0:
280,240,26924,1,0,0:0:0:0:
96,256,27087,2,0,L|88:368,1,90,8|0,0:0|0:0,0:0:0:0:
352,352,27413,6,0,L|344:256,1,90,2|0,0:0|0:0,0:0:0:0:
160,240,27739,2,0,L|272:240,1,90,8|0,0:0|0:0,0:0:0:0:
413,239,28065,1,2,0:0:0:0:
248,183,28229,1,2,0:0:0:0:
474,201,28392,2,0,L|480:106,1,90,8|2,0:0|0:0,0:0:0:0:
104,256,28718,6,0,L|96:144,1,90,6|0,0:0|0:0,0:0:0:0:
352,136,29044,2,0,L|456:136,1,90,8|0,0:0|0:0,0:0:0:0:
264,210,29370,2,0,L|359:224,1,90,2|0,0:0|0:0,0:0:0:0:
126,248,29696,2,0,L|36:248,1,90,8|0,0:0|0:0,0:0:0:0:
408,224,30022,5,2,0:0:0:0:
304,224,30185,1,0,0:0:0:0:
344,184,30267,1,0,0:0:0:0:
392,144,30348,1,8,0:0:0:0:
272,160,30511,1,2,0:0:0:0:
24,208,30674,1,2,0:0:0:0:
136,192,30837,1,2,0:0:0:0:
24,160,31000,1,8,0:0:0:0:
144,144,31163,1,0,0:0:0:0:
488,96,31326,6,0,L|496:200,1,90,2|0,0:0|0:0,0:0:0:0:
240,240,31652,2,0,L|344:248,1,90,8|0,0:0|0:0,0:0:0:0:
144,192,31979,2,0,L|136:72,1,90,2|0,0:0|0:0,0:0:0:0:
392,48,32305,2,0,L|288:40,1,90,8|0,0:0|0:0,0:0:0:0:
40,104,32631,5,2,0:0:0:0:
160,112,32794,1,2,0:0:0:0:
416,160,32957,1,10,0:0:0:0:
296,152,33120,1,2,0:0:0:0:
432,168,33283,2,0,L|440:240,1,45,2|2,0:0|0:0,0:0:0:0:
288,240,33527,2,0,L|280:304,1,45,2|8,0:0|0:0,0:0:0:0:
400,288,33772,1,0,0:0:0:0:
96,288,33935,5,2,0:0:0:0:
56,248,34017,1,2,0:0:0:0:
56,192,34098,1,2,0:0:0:0:
104,160,34180,1,2,0:0:0:0:
160,160,34261,1,2,0:0:0:0:
280,176,34424,1,2,0:0:0:0:
112,104,34587,5,2,0:0:0:0:
128,160,34669,1,2,0:0:0:0:
168,200,34750,1,2,0:0:0:0:
224,216,34832,1,2,0:0:0:0:
280,224,34913,1,2,0:0:0:0:
400,232,35076,1,2,0:0:0:0:
144,232,35239,6,0,L|136:256,6,22.5,2|0|0|0|0|0|2,0:0|0:0|0:0|0:0|0:0|0:0|0:0,0:0:0:0:
200,232,35565,1,2,0:0:0:0:
320,232,35729,1,2,0:0:0:0:
80,264,35892,6,0,L|72:288,9,15
24,248,36218,1,2,0:0:0:0:
8,192,36299,1,2,0:0:0:0:
40,144,36381,1,2,0:0:0:0:
96,144,36462,1,2,0:0:0:0:
320,144,36544,5,0,0:0:0:0:
432,128,36707,1,0,0:0:0:0:
312,136,36870,1,0,0:0:0:0:
392,216,37033,1,0,0:0:0:0:
312,136,37196,1,0,0:0:0:0:
480,128,37359,1,0,0:0:0:0:
304,88,37522,2,0,L|144:88,1,135
391,171,37848,6,0,L|495:171,1,90,6|0,0:0|0:0,0:0:0:0:
224,232,38170,2,0,L|96:232,1,90,8|0,0:0|0:0,0:0:0:0:
392,224,38493,2,0,L|408:120,1,90,2|0,0:0|0:0,0:0:0:0:
216,112,38815,2,0,L|208:8,1,90,8|0,0:0|0:0,0:0:0:0:
480,128,39138,6,0,L|368:152,1,90,2|0,0:0|0:0,0:0:0:0:
208,160,39460,2,0,L|320:184,1,90,8|0,0:0|0:0,0:0:0:0:
40,176,39783,2,0,L|144:200,1,90,2|0,0:0|0:0,0:0:0:0:
392,232,40106,2,0,L|504:240,1,90,8|0,0:0|0:0,0:0:0:0:
120,288,40428,5,2,0:0:0:0:
16,240,40589,1,0,0:0:0:0:
128,288,40751,1,8,0:0:0:0:
32,224,40912,1,0,0:0:0:0:
320,272,41073,1,2,0:0:0:0:
424,224,41234,1,0,0:0:0:0:
312,272,41396,1,8,0:0:0:0:
408,208,41557,1,0,0:0:0:0:
144,200,41718,6,0,L|128:312,1,90,2|0,0:0|0:0,0:0:0:0:
384,256,42041,2,0,L|366:152,1,90,8|0,0:0|0:0,0:0:0:0:
184,136,42364,1,2,0:0:0:0:
72,112,42525,2,0,L|128:104,1,45,2|2,0:0|0:0,0:0:0:0:
312,96,42686,2,0,L|424:104,1,90,8|0,0:0|0:0,0:0:0:0:
104,200,43009,6,0,L|8:200,1,90,6|0,0:0|0:0,0:0:0:0:
272,256,43331,2,0,L|376:256,1,90,8|0,0:0|0:0,0:0:0:0:
176,280,43654,2,0,L|160:176,1,90,2|0,0:0|0:0,0:0:0:0:
432,120,43977,2,0,L|312:112,1,90,8|0,0:0|0:0,0:0:0:0:
80,96,44299,5,2,0:0:0:0:
200,112,44460,2,0,L|264:112,2,45,0|0|8,0:0|0:0|0:0,0:0:0:0:
80,112,44783,1,2,0:0:0:0:
344,144,44944,1,2,0:0:0:0:
464,144,45106,1,2,0:0:0:0:
360,144,45267,1,8,0:0:0:0:
464,144,45428,1,2,0:0:0:0:
208,232,45589,6,0,L|192:104,1,90,2|0,0:0|0:0,0:0:0:0:
456,80,45912,2,0,L|336:80,1,90,8|0,0:0|0:0,0:0:0:0:
112,112,46235,2,0,L|104:216,1,90,2|0,0:0|0:0,0:0:0:0:
400,224,46557,2,0,L|288:224,1,90,8|0,0:0|0:0,0:0:0:0:
40,192,46880,5,2,0:0:0:0:
168,192,47041,1,2,0:0:0:0:
472,120,47202,2,0,L|368:120,1,90,10|2,0:0|0:0,0:0:0:0:
128,112,47525,2,0,L|120:64,1,45,2|2,0:0|0:0,0:0:0:0:
376,176,47767,2,0,L|384:128,1,45,2|8,0:0|0:0,0:0:0:0:
128,144,48009,1,2,0:0:0:0:
480,200,48170,6,0,L|472:320,1,107.999996704102,6|0,0:0|0:0,0:0:0:0:
304,296,48493,2,0,L|416:312,1,107.999996704102,8|0,0:0|0:0,0:0:0:0:
152,320,48815,2,0,P|160:256|192:208,1,107.999996704102,2|0,0:0|0:0,0:0:0:0:
344,200,49138,2,0,L|496:216,1,107.999996704102,8|0,0:0|0:0,0:0:0:0:
112,192,49460,6,0,P|112:240|152:304,1,107.999996704102
312,200,49783,2,0,P|265:174|241:126,1,107.999996704102,8|0,0:0|0:0,0:0:0:0:
496,64,50106,2,0,L|384:64,1,107.999996704102,2|0,0:0|0:0,0:0:0:0:
56,88,50428,2,0,L|176:88,1,107.999996704102,8|0,0:0|0:0,0:0:0:0:
480,88,50751,6,0,L|384:152,2,107.999996704102,2|0|8,0:0|0:0|0:0,0:0:0:0:
400,208,51235,1,0,0:0:0:0:
80,144,51396,2,0,L|176:208,2,107.999996704102,2|0|8,0:0|0:0|0:0,0:0:0:0:
160,264,51880,1,0,0:0:0:0:
480,224,52041,6,0,L|488:112,1,107.999996704102,2|0,0:0|0:0,0:0:0:0:
176,72,52364,2,0,L|56:72,1,107.999996704102,8|0,0:0|0:0,0:0:0:0:
368,128,52686,1,2,0:0:0:0:
512,128,52847,1,2,0:0:0:0:
168,184,53009,1,10,0:0:0:0:
24,184,53170,1,2,0:0:0:0:
328,224,53331,6,0,L|352:168,3,53.9999983520508,6|0|0|0,0:0|0:0|0:0|0:0,0:0:0:0:
152,248,53654,2,0,L|128:192,3,53.9999983520508,0|0|2|0,0:0|0:0|0:0|0:0,0:0:0:0:
344,272,53977,5,0,0:0:0:0:
408,248,54057,1,0,0:0:0:0:
408,176,54138,1,2,0:0:0:0:
344,144,54218,1,0,0:0:0:0:
152,88,54299,1,0,0:0:0:0:
152,160,54380,1,0,0:0:0:0:
192,216,54460,1,2,0:0:0:0:
248,264,54541,1,0,0:0:0:0:
80,256,54622,6,0,P|48:296|112:320,1,107.999996704102,0|2,0:0|0:0,0:0:0:0:
256,352,54944,2,0,L|376:336,1,107.999996704102,0|2,0:0|0:0,0:0:0:0:
208,184,55267,1,0,0:0:0:0:
368,176,55428,2,0,L|488:168,2,107.999996704102,2|2|2,0:0|0:0|0:0,0:0:0:0:
40,152,55912,5,4,0:0:0:0:
8,88,55993,1,0,0:0:0:0:
24,16,56073,1,0,0:0:0:0:
96,16,56154,1,0,0:0:0:0:
280,40,56235,1,0,0:0:0:0:
296,104,56315,1,0,0:0:0:0:
264,168,56396,1,2,0:0:0:0:
200,200,56477,1,0,0:0:0:0:
432,128,56557,5,6,0:0:0:0:
496,152,56638,1,0,0:0:0:0:
496,224,56718,1,0,0:0:0:0:
432,248,56799,1,0,0:0:0:0:
200,256,56880,1,0,0:0:0:0:
144,232,56960,1,0,0:0:0:0:
88,200,57041,1,2,0:0:0:0:
64,136,57122,1,0,0:0:0:0:
328,160,57202,5,6,0:0:0:0:
472,160,57364,1,2,0:0:0:0:
168,192,57525,1,6,0:0:0:0:
32,184,57686,1,2,0:0:0:0:
336,256,57847,2,0,L|408:256,1,53.9999983520508,6|0,0:0|0:0,0:0:0:0:
384,328,58009,2,0,L|312:328,1,53.9999983520508
112,312,58170,2,0,L|104:248,1,53.9999983520508,6|0,0:0|0:0,0:0:0:0:
352,216,58331,2,0,L|408:216,1,53.9999983520508
152,168,58493,6,0,L|40:168,1,107.999996704102,6|2,0:0|0:0,0:0:0:0:
384,120,58815,2,0,L|504:120,1,107.999996704102,2|2,0:0|0:0,0:0:0:0:
160,56,59138,1,2,0:0:0:0:
16,56,59299,1,2,0:0:0:0:
256,112,59460,1,8,0:0:0:0:
496,104,59622,5,4,0:0:0:0:
256,192,59783,12,0,64944,0:0:0:0:
