osu file format v14

[General]
AudioFilename: audio.mp3
AudioLeadIn: 0
PreviewTime: 1218
Countdown: 1
SampleSet: Soft
StackLeniency: 0.7
Mode: 0
LetterboxInBreaks: 0
WidescreenStoryboard: 0

[Editor]
Bookmarks: 23337
DistanceSpacing: 2.3
BeatDivisor: 2
GridSize: 4
TimelineZoom: 2.799999

[Metadata]
Title:quaver
TitleUnicode:quaver ♪
Artist:dj TAKA
ArtistUnicode:dj TAKA
Creator:Ancelysia
Version:extreme
Source:REFLEC BEAT limelight
Tags:jump training risk junk beatmania IIDX 19 Lincle jubeat saucer jukebeat KONAMI music pack 25 pop'n music Sunny Park plus MUSIC PACK 29 + ポップンリズミン パック1 MUSIC PACK 19 cut edit short ver version dementation parkourwizard
BeatmapID:1961300
BeatmapSetID:938945

[Difficulty]
HPDrainRate:5
CircleSize:4
OverallDifficulty:10
ApproachRate:9.5
SliderMultiplier:1.72
SliderTickRate:0.5

[Events]
//Background and Video events
0,0,"BG.jpg",0,0
//Break Periods
//Storyboard Layer 0 (Background)
//Storyboard Layer 1 (Fail)
//Storyboard Layer 2 (Pass)
//Storyboard Layer 3 (Foreground)
//Storyboard Sound Samples

[TimingPoints]
1198,329.67032967033,4,2,1,32,1,0
1198,-192.307692307692,4,2,1,32,0,0
6472,-121.951219512195,4,2,1,52,0,0
13066,326.086956521739,4,2,1,62,1,0
13066,-98.0392156862745,4,2,1,62,0,0
37522,-66.6666666666667,4,2,1,62,0,0
37767,-66.6666666666667,4,2,1,5,0,0
37848,322.58064516129,4,2,2,100,1,1
37928,-100,4,2,1,72,0,1
53331,-82.6446280991736,4,3,1,72,0,0
57202,-100,4,3,1,82,0,0
58493,-100,4,2,1,100,0,1
59622,-250,4,2,2,100,0,1
59642,-250,4,2,1,100,0,1
61073,-100,4,2,0,5,0,1
64944,-100,4,2,1,5,0,0

[Colours]
Combo1 : 114,102,255
Combo2 : 255,247,91
Combo3 : 104,255,209
Combo4 : 220,168,255

[HitObjects]
164,280,1198,5,0,0:0:0:0:
56,216,1362,1,0,0:0:0:0:
68,336,1527,1,0,0:0:0:0:
152,176,1692,2,0,P|193:151|280:172,1,134.159999181152,0|2,0:0|0:0,0:0:0:0:
408,264,2516,5,2,0:0:0:0:
364,176,2681,1,0,0:0:0:0:
304,260,2846,1,0,0:0:0:0:
476,336,3011,2,0,P|492:304|472:208,1,134.159999181152,2|2,0:0|0:0,0:0:0:0:
292,268,3835,5,2,0:0:0:0:
418,273,4000,1,0,0:0:0:0:
364,166,4165,1,0,0:0:0:0:
214,333,4329,2,0,P|198:301|218:205,1,134.159999181152,2|2,0:0|0:0,0:0:0:0:
360,72,5154,1,2,0:0:0:0:
288,264,5483,1,2,0:0:0:0:
164,164,5813,5,2,3:0:0:0:
158,136,5895,1,2,3:0:0:0:
159,108,5977,1,2,3:0:0:0:
165,81,6060,1,2,3:0:0:0:
176,55,6142,1,8,3:2:0:0:
264,124,6307,1,0,3:0:0:0:
92,208,6472,6,0,P|80:144|84:128,1,70.5200010760498,6|0,0:0|0:0,0:0:0:0:
168,248,6802,2,0,P|189:186|201:174,1,70.5200010760498,0|0,0:3|0:3,0:3:0:0:
284,104,7132,6,0,P|294:168|303:181,1,70.5200010760498,2|0,0:0|0:0,0:0:0:0:
364,36,7462,2,0,P|405:86|420:93,1,70.5200010760498,2|0,0:3|0:3,0:3:0:0:
508,188,7791,6,0,P|453:171|416:176,1,70.5200010760498,2|0,0:0|0:0,0:0:0:0:
264,200,8121,2,0,P|302:241|340:256,1,70.5200010760498,2|0,0:3|0:0,0:0:0:0:
488,340,8450,2,0,P|475:284|446:254,1,70.5200010760498
382,104,8780,2,0,P|347:149|340:180,1,70.5200010760498,2|0,0:3|0:0,0:0:0:0:
324,348,9110,6,0,P|371:317|393:233,1,141.0400021521,4|0,0:0|0:0,0:0:0:0:
224,176,9604,1,4,3:0:0:0:
488,184,9769,6,0,P|457:136|373:115,1,141.0400021521,4|0,0:0|0:0,0:0:0:0:
212,196,10263,1,4,3:0:0:0:
84,48,10428,5,4,1:2:0:0:
92,320,10593,1,0,1:0:0:0:
292,80,10758,1,0,1:0:0:0:
356,340,10923,1,0,1:0:0:0:
144,168,11088,1,4,1:2:0:0:
144,168,11170,1,0,1:0:0:0:
408,124,11335,1,0,1:0:0:0:
408,124,11417,1,0,1:0:0:0:
196,296,11582,1,0,1:0:0:0:
256,192,11665,12,0,12901,0:0:0:0:
88,32,13066,5,6,0:0:0:0:
216,52,13229,1,0,0:0:0:0:
56,136,13392,1,8,0:0:0:0:
196,136,13555,1,0,0:0:0:0:
36,248,13718,5,2,3:2:0:0:
224,224,13881,1,0,0:0:0:0:
20,344,14044,1,8,0:0:0:0:
264,304,14207,1,0,0:0:0:0:
116,46,14370,5,4,3:0:0:0:
224,224,14533,1,0,0:0:0:0:
28,126,14696,1,8,0:0:0:0:
237,90,14859,1,0,0:0:0:0:
74,242,15022,5,8,3:0:0:0:
128,24,15185,1,0,0:0:0:0:
332,260,15348,1,8,0:0:0:0:
278,42,15511,1,0,0:0:0:0:
200,288,15674,5,8,3:0:0:0:
368,132,15837,1,0,0:0:0:0:
471,346,16000,1,8,0:0:0:0:
287,252,16163,1,0,0:0:0:0:
488,88,16326,5,4,3:0:0:0:
364,288,16489,1,0,0:0:0:0:
364,56,16652,1,8,0:0:0:0:
468,296,16816,1,0,0:0:0:0:
280,124,16979,5,4,3:0:0:0:
512,176,17142,1,0,0:0:0:0:
244,236,17305,1,8,0:0:0:0:
392,156,17468,1,0,0:0:0:0:
152,100,17631,5,4,3:0:0:0:
368,276,17794,1,4,3:0:0:0:
352,32,17957,1,8,0:0:0:0:
209,271,18120,1,4,3:0:0:0:
443,124,18283,5,4,0:0:0:0:
268,51,18446,1,0,0:0:0:0:
360,288,18609,1,8,0:0:0:0:
244,137,18772,1,0,0:0:0:0:
176,332,18935,5,4,3:0:0:0:
151,143,19098,1,0,0:3:0:0:
0,288,19261,1,8,0:0:0:0:
72,111,19424,1,0,0:3:0:0:
176,332,19587,5,8,3:0:0:0:
64,208,19750,1,0,0:0:0:0:
64,208,19832,1,0,0:0:0:0:
64,208,19913,1,8,0:0:0:0:
16,368,20076,1,0,0:0:0:0:
208,200,20239,5,4,3:0:0:0:
64,80,20402,1,4,3:0:0:0:
192,320,20566,1,8,0:0:0:0:
324,104,20729,1,4,3:0:0:0:
104,216,20892,5,4,3:0:0:0:
304,324,21055,1,0,0:0:0:0:
192,132,21218,1,8,0:0:0:0:
68,360,21381,1,0,0:0:0:0:
332,228,21544,5,8,3:0:0:0:
104,104,21707,1,0,0:0:0:0:
192,364,21870,1,8,0:0:0:0:
268,48,22033,1,0,0:0:0:0:
80,264,22196,5,2,0:0:0:0:
356,88,22359,1,2,0:0:0:0:
356,88,22685,1,2,0:0:0:0:
244,164,22848,5,4,3:0:0:0:
244,164,22930,1,4,3:0:0:0:
244,164,23011,2,4,L|184:156,1,43.8600002677002,4|4,3:0|3:0,3:0:0:0:
348,252,23174,5,4,3:0:0:0:
348,252,23337,2,4,L|408:244,1,43.8600002677002,4|4,3:0|3:0,3:0:0:0:
216,344,23500,5,4,3:2:0:0:
360,136,23663,1,2,0:0:0:0:
412,376,23826,1,8,0:0:0:0:
268,168,23989,1,2,0:0:0:0:
480,284,24152,5,4,3:0:0:0:
240,356,24315,1,2,0:0:0:0:
364,120,24479,1,8,0:0:0:0:
460,368,24642,1,2,0:0:0:0:
256,204,24805,5,4,3:0:0:0:
472,44,24968,1,2,0:0:0:0:
392,304,25131,1,8,0:0:0:0:
232,88,25294,1,2,0:0:0:0:
476,160,25457,5,8,3:0:0:0:
300,328,25620,1,2,0:0:0:0:
388,52,25783,1,8,0:0:0:0:
445,288,25946,1,2,0:0:0:0:
260,88,26109,5,8,3:0:0:0:
496,20,26272,1,2,0:0:0:0:
248,212,26435,1,8,0:0:0:0:
493,228,26598,1,2,0:0:0:0:
352,64,26761,5,4,3:0:0:0:
292,308,26924,1,2,0:0:0:0:
444,124,27087,1,8,0:0:0:0:
504,368,27250,1,2,0:0:0:0:
264,228,27413,5,4,3:0:0:0:
420,384,27576,1,2,0:0:0:0:
440,132,27739,1,8,0:0:0:0:
300,368,27902,1,2,0:0:0:0:
140,140,28065,5,4,3:0:0:0:
340,260,28229,1,4,3:0:0:0:
104,348,28392,1,8,0:0:0:0:
304,112,28556,1,4,3:0:0:0:
212,376,28718,5,4,0:0:0:0:
32,228,28881,1,0,0:0:0:0:
200,108,29044,1,8,0:0:0:0:
124,336,29207,1,0,0:0:0:0:
56,48,29370,5,8,3:0:0:0:
224,220,29533,1,0,0:0:0:0:
16,320,29696,1,8,0:0:0:0:
172,132,29859,1,0,0:0:0:0:
296,352,30022,5,8,3:0:0:0:
112,248,30185,1,0,0:0:0:0:
112,248,30267,1,0,0:0:0:0:
112,248,30348,1,8,0:0:0:0:
308,136,30511,1,0,0:0:0:0:
156,352,30674,5,4,3:0:0:0:
196,160,30837,1,0,0:0:0:0:
360,340,31000,1,8,0:0:0:0:
333,205,31163,1,0,0:0:0:0:
244,312,31326,5,4,3:0:0:0:
452,272,31489,1,0,0:0:0:0:
256,160,31652,1,8,0:0:0:0:
320,376,31815,1,0,0:0:0:0:
432,160,31979,5,4,3:0:0:0:
224,220,32142,1,0,0:0:0:0:
416,323,32305,1,8,0:0:0:0:
358,76,32468,1,0,0:0:0:0:
204,312,32631,5,4,3:0:0:0:
471,185,32794,1,4,3:0:0:0:
204,115,32957,1,8,3:2:0:0:
418,347,33120,1,4,3:0:0:0:
354,53,33283,5,8,3:0:0:0:
182,322,33446,1,4,3:0:0:0:
485,193,33609,1,8,3:2:0:0:
182,108,33772,1,4,3:0:0:0:
403,339,33935,5,8,3:0:0:0:
349,62,34098,1,4,3:0:0:0:
187,332,34261,1,2,3:1:0:0:
464,278,34424,1,2,3:1:0:0:
198,52,34587,5,8,3:0:0:0:
262,384,34750,1,4,3:0:0:0:
460,72,34913,1,2,3:1:0:0:
128,135,35076,1,2,3:1:0:0:
439,346,35239,5,8,3:0:0:0:
345,76,35402,1,8,3:0:0:0:
126,364,35565,1,2,3:1:0:0:
220,94,35728,1,2,3:1:0:0:
363,339,35892,5,8,3:0:0:0:
442,48,36055,1,8,3:0:0:0:
245,357,36218,1,2,0:1:0:0:
166,66,36381,1,2,0:1:0:0:
156,52,37359,6,0,P|152:80|156:104,1,43.8600002677002,2|0,0:0|0:0,0:0:0:0:
168,112,37522,2,0,B|284:100|216:180|372:152,1,193.50000738144,0|0,0:0|0:0,1:0:0:0:
440,44,37848,5,6,0:0:0:0:
472,172,38009,1,0,0:0:0:0:
328,54,38170,1,8,0:0:0:0:
404,224,38331,1,0,0:0:0:0:
188,108,38493,5,4,3:0:0:0:
336,296,38654,1,0,0:0:0:0:
112,192,38815,1,8,0:0:0:0:
266,351,38976,1,0,0:0:0:0:
328,156,39138,5,8,3:0:0:0:
164,356,39299,1,0,0:0:0:0:
176,108,39460,1,8,0:0:0:0:
284,292,39621,1,0,0:0:0:0:
296,48,39783,5,4,3:0:0:0:
148,264,39944,1,4,3:0:0:0:
64,28,40106,1,8,0:0:0:0:
236,192,40267,1,0,0:0:0:0:
32,348,40428,5,8,3:0:0:0:
160,124,40589,1,0,0:0:0:0:
263,350,40751,1,8,0:0:0:0:
61,235,40912,1,0,0:0:0:0:
300,100,41073,5,4,3:0:0:0:
183,300,41234,1,0,0:0:0:0:
224,56,41396,1,8,0:0:0:0:
364,243,41557,1,0,0:0:0:0:
172,160,41718,5,4,3:0:0:0:
428,104,41880,1,0,0:0:0:0:
280,320,42041,1,10,0:0:0:0:
216,40,42203,1,2,0:0:0:0:
452,236,42364,5,4,3:0:0:0:
144,248,42525,1,4,3:0:0:0:
380,52,42686,1,8,0:0:0:0:
384,348,42847,1,4,3:0:0:0:
264,144,43009,5,4,0:0:0:0:
484,228,43170,1,0,0:0:0:0:
224,284,43331,1,8,0:0:0:0:
468,136,43493,1,0,0:0:0:0:
280,372,43654,5,8,3:0:0:0:
292,64,43815,1,0,0:0:0:0:
440,312,43977,1,8,0:0:0:0:
192,152,44138,1,4,3:0:0:0:
464,44,44299,5,8,3:0:0:0:
340,288,44460,1,0,3:0:0:0:
340,288,44541,1,0,3:0:0:0:
340,288,44622,1,8,0:0:0:0:
252,48,44783,1,0,0:0:0:0:
448,200,44944,5,4,3:0:0:0:
212,332,45106,1,4,3:0:0:0:
348,120,45267,1,8,0:0:0:0:
352,384,45429,1,4,3:0:0:0:
208,156,45589,5,4,3:0:0:0:
416,296,45751,1,0,0:0:0:0:
322,37,45912,1,8,0:0:0:0:
248,329,46074,1,2,0:0:0:0:
416,112,46235,5,8,3:0:0:0:
88,128,46396,1,0,0:0:0:0:
328,336,46557,1,8,0:0:0:0:
240,36,46718,1,2,0:0:0:0:
104,288,46880,5,4,3:0:0:0:
400,200,47041,1,4,3:0:0:0:
140,40,47202,1,8,0:0:0:0:
210,361,47363,1,4,3:0:0:0:
344,44,47525,5,8,3:0:0:0:
52,252,47686,1,8,3:0:0:0:
412,356,47847,1,8,0:0:0:0:
224,68,48008,1,8,3:0:0:0:
120,352,48170,5,6,0:0:0:0:
336,148,48331,1,0,0:0:0:0:
72,256,48493,1,8,0:0:0:0:
357,266,48654,1,0,0:0:0:0:
104,136,48815,5,4,3:0:0:0:
279,360,48976,1,0,0:0:0:0:
216,88,49138,1,8,0:0:0:0:
144,360,49299,1,0,0:0:0:0:
336,140,49460,5,6,3:0:0:0:
41,228,49622,1,0,0:0:0:0:
369,271,49783,1,8,0:0:0:0:
112,102,49945,1,0,0:0:0:0:
277,334,50106,5,4,3:0:0:0:
242,28,50268,1,4,3:0:0:0:
142,329,50428,1,8,0:0:0:0:
353,104,50590,1,0,0:0:0:0:
64,168,50751,5,10,3:0:0:0:
304,352,50912,1,2,0:0:0:0:
244,120,51073,1,8,0:0:0:0:
108,348,51234,1,2,0:0:0:0:
328,220,51396,5,0,0:0:0:0:
136,44,51557,1,2,0:0:0:0:
232,292,51718,1,8,0:0:0:0:
328,52,51880,1,2,0:0:0:0:
140,224,52041,5,6,3:0:0:0:
412,324,52202,1,0,0:0:0:0:
308,92,52364,1,8,0:0:0:0:
184,332,52525,1,0,0:0:0:0:
404,184,52686,5,10,3:0:0:0:
144,52,52847,1,4,3:0:0:0:
324,320,53009,1,4,3:0:0:0:
396,44,53170,1,4,3:0:0:0:
184,320,53331,5,6,0:2:0:0:
147,342,53411,1,0,0:0:0:0:
105,344,53492,1,0,0:0:0:0:
67,324,53572,1,0,0:0:0:0:
45,288,53653,1,0,0:0:0:0:
43,246,53734,1,0,0:0:0:0:
62,208,53814,1,0,0:0:0:0:
98,185,53895,1,0,0:0:0:0:
140,183,53977,6,0,P|171:187|215:223,3,52.0299985312577,2|0|0|0,0:2|0:0|0:0|0:0,0:0:0:0:
272,268,54299,2,0,P|303:263|347:227,3,52.0299985312577
224,352,54622,5,2,0:2:0:0:
226,316,54702,1,0,0:0:0:0:
228,281,54783,1,0,0:0:0:0:
231,245,54863,1,0,0:0:0:0:
233,210,54944,1,0,0:0:0:0:
237,174,55025,1,0,0:0:0:0:
239,139,55105,1,0,0:0:0:0:
242,104,55186,1,0,0:0:0:0:
244,76,55267,6,0,L|313:64,1,52.0299985312577,2|0,0:2|0:0,0:0:0:0:
104,164,55428,2,0,L|35:152,1,52.0299985312577,4|0,0:0|0:0,0:0:0:0:
260,228,55589,2,0,L|329:216,1,52.0299985312577,4|0,0:0|0:0,0:0:0:0:
120,304,55750,2,0,L|51:292,1,52.0299985312577,4|0,0:0|0:0,0:0:0:0:
280,364,55912,6,0,L|349:352,4,52.0299985312577,4|0|0|0|0,0:2|0:0|0:0|0:0|0:0,0:0:0:0:
172,156,56396,1,4,0:0:0:0:
80,320,56557,6,0,L|11:308,4,52.0299985312577,4|0|0|0|0,0:2|0:0|0:0|0:0|0:0,0:0:0:0:
252,112,57041,1,4,0:0:0:0:
184,340,57202,5,6,0:2:0:0:
120,72,57364,1,0,0:0:0:0:
340,192,57525,1,4,0:2:0:0:
64,240,57686,1,0,0:0:0:0:
272,60,57847,5,6,0:2:0:0:
152,352,58009,1,0,0:0:0:0:
84,28,58170,1,6,0:2:0:0:
352,256,58331,1,0,0:0:0:0:
72,156,58493,5,12,3:2:0:0:
397,69,58654,1,0,3:0:0:0:
225,363,58815,5,0,3:0:0:0:
139,38,58976,1,0,3:0:0:0:
416,214,59138,5,0,3:0:0:0:
84,339,59299,1,0,3:0:0:0:
304,43,59460,5,8,3:2:0:0:
468,304,59622,2,0,B|287:249|369:395|177:341,1,309.6,6|0,0:0|0:0,0:0:0:0:
