osu file format v14

[General]
AudioFilename: audio.mp3
AudioLeadIn: 0
PreviewTime: 37767
Countdown: 0
SampleSet: Normal
StackLeniency: 0.7
Mode: 1
LetterboxInBreaks: 0
WidescreenStoryboard: 1

[Editor]
Bookmarks: 1198,6472,13066,23500,33935,37848,48170,53331,58493,59783,64944
DistanceSpacing: 1
BeatDivisor: 4
GridSize: 32
TimelineZoom: 2.999999

[Metadata]
Title:quaver
TitleUnicode:quaver ♪
Artist:dj TAKA
ArtistUnicode:dj TAKA
Creator:Aesa
Version:divided white
Source:REFLEC BEAT limelight
Tags:REFLEC BEAT beatmania IIDX ][ -GH- ][ mikurio shirai- Ayomikasa o_Owata
BeatmapID:2042583
BeatmapSetID:975111

[Difficulty]
HPDrainRate:3
CircleSize:5
OverallDifficulty:6
ApproachRate:5
SliderMultiplier:1.4
SliderTickRate:1

[Events]
//Background and Video events
0,0,"bg.jpg",0,0
//Break Periods
//Storyboard Layer 0 (Background)
//Storyboard Layer 1 (Fail)
//Storyboard Layer 2 (Pass)
//Storyboard Layer 3 (Foreground)
//Storyboard Sound Samples

[TimingPoints]
1198,329.67032967033,4,1,0,100,1,0
13066,326.086956521739,4,1,0,100,1,0
13066,-75.7575757575758,4,1,0,100,0,0
33935,-75.7575757575758,4,1,0,100,0,0
35239,-74.0740740740741,4,1,0,100,0,0
35484,-71.9424460431655,4,1,0,100,0,0
35565,-69.9300699300699,4,1,0,100,0,0
35810,-68.0272108843537,4,1,0,100,0,0
35892,-66.2251655629139,4,1,0,100,0,0
35946,-65.7894736842105,4,1,0,100,0,0
36000,-65.359477124183,4,1,0,100,0,0
36055,-64.9350649350649,4,1,0,100,0,0
36109,-64.5161290322581,4,1,0,100,0,0
36163,-64.1025641025641,4,1,0,100,0,0
36218,-63.6942675159236,4,1,0,100,0,0
36299,-62.5,4,1,0,100,0,0
36381,-60.6060606060606,4,1,0,100,0,0
36544,-100,4,1,0,100,0,0
37848,322.58064516129,4,1,0,100,1,0
37848,-75.7575757575758,4,1,0,100,0,0
58493,-75.7575757575758,4,1,0,100,0,0

[HitObjects]
265,128,1198,5,8,0:0:0:0:
265,128,1362,1,0,0:0:0:0:
265,128,1527,1,0,0:0:0:0:
265,128,1692,1,8,0:0:0:0:
274,247,2022,1,0,0:0:0:0:
272,186,2187,1,8,0:0:0:0:
268,66,2516,1,0,0:0:0:0:
284,184,2846,1,0,0:0:0:0:
274,124,3011,1,8,0:0:0:0:
274,124,3340,1,8,0:0:0:0:
274,124,3505,1,0,0:0:0:0:
274,124,3835,1,8,0:0:0:0:
286,129,4000,1,0,0:0:0:0:
307,129,4165,1,0,0:0:0:0:
205,290,4329,1,8,0:0:0:0:
293,208,4659,1,0,0:0:0:0:
337,168,4824,1,8,0:0:0:0:
337,168,5154,1,0,0:0:0:0:
366,284,5483,1,0,0:0:0:0:
336,167,5813,1,8,0:0:0:0:
232,133,5895,1,0,0:0:0:0:
277,155,5978,1,0,0:0:0:0:
257,132,6060,1,0,0:0:0:0:
366,283,6143,1,0,0:0:0:0:
313,254,6307,1,4,0:0:0:0:
294,186,6472,1,4,0:0:0:0:
301,305,6802,1,0,0:0:0:0:
377,212,7132,1,8,0:0:0:0:
244,157,7461,1,8,0:0:0:0:
377,212,7791,1,0,0:0:0:0:
262,177,8121,1,0,0:0:0:0:
156,119,8450,1,8,0:0:0:0:
156,119,8615,1,0,0:0:0:0:
156,119,8698,1,0,0:0:0:0:
156,119,8780,1,8,0:0:0:0:
156,119,8945,1,4,0:0:0:0:
355,189,9110,1,4,0:0:0:0:
299,211,9274,1,0,0:0:0:0:
299,211,9439,1,8,0:0:0:0:
299,211,9604,1,4,0:0:0:0:
299,211,9769,1,4,0:0:0:0:
335,163,9934,1,0,0:0:0:0:
335,163,10016,1,0,0:0:0:0:
335,163,10099,1,8,0:0:0:0:
319,105,10263,1,4,0:0:0:0:
366,232,10428,1,4,0:0:0:0:
321,191,10593,1,0,0:0:0:0:
321,191,10676,1,0,0:0:0:0:
321,191,10758,1,8,0:0:0:0:
321,191,10840,1,0,0:0:0:0:
21,123,10923,1,0,0:0:0:0:
281,145,11088,1,0,0:0:0:0:
251,144,11170,1,0,0:0:0:0:
190,143,11335,1,0,0:0:0:0:
190,143,11417,1,8,0:0:0:0:
220,124,11500,1,8,0:0:0:0:
290,127,11582,1,0,0:0:0:0:
101,140,11747,2,8,L|204:127,2,70
101,140,12241,1,0,0:0:0:0:
101,140,12324,1,0,0:0:0:0:
223,192,12406,1,8,0:0:0:0:
223,192,12571,1,8,0:0:0:0:
223,192,12736,1,0,0:0:0:0:
210,214,13066,1,0,0:0:0:0:
230,100,13147,1,0,0:0:0:0:
336,186,13229,1,0,0:0:0:0:
230,100,13310,1,0,0:0:0:0:
209,157,13392,1,8,0:0:0:0:
291,102,13473,1,0,0:0:0:0:
331,174,13555,1,8,0:0:0:0:
313,92,13636,1,8,0:0:0:0:
225,127,13718,1,0,0:0:0:0:
317,127,13799,1,0,0:0:0:0:
431,208,13881,1,0,0:0:0:0:
317,127,13962,1,0,0:0:0:0:
317,99,14044,1,8,0:0:0:0:
333,143,14125,1,0,0:0:0:0:
423,204,14207,1,8,0:0:0:0:
306,136,14288,1,8,0:0:0:0:
341,166,14370,1,0,0:0:0:0:
303,126,14451,1,8,0:0:0:0:
341,166,14533,1,0,0:0:0:0:
280,68,14614,1,0,0:0:0:0:
335,163,14696,1,8,0:0:0:0:
280,68,14777,1,8,0:0:0:0:
360,154,14859,1,0,0:0:0:0:
284,134,14913,1,0,0:0:0:0:
124,114,14968,1,0,0:0:0:0:
359,151,15022,1,8,0:0:0:0:
278,112,15104,1,8,0:0:0:0:
357,144,15185,1,0,0:0:0:0:
278,112,15267,1,0,0:0:0:0:
357,144,15348,1,8,0:0:0:0:
351,173,15430,1,0,0:0:0:0:
341,126,15511,1,8,0:0:0:0:
346,172,15593,1,8,0:0:0:0:
341,126,15674,1,0,0:0:0:0:
116,115,15756,1,0,0:0:0:0:
196,103,15837,1,8,0:0:0:0:
131,103,15919,1,0,0:0:0:0:
196,103,16000,1,8,0:0:0:0:
113,101,16055,1,8,0:0:0:0:
298,89,16109,1,8,0:0:0:0:
229,75,16163,1,0,0:0:0:0:
132,103,16245,1,0,0:0:0:0:
229,75,16326,1,8,0:0:0:0:
298,89,16408,1,8,0:0:0:0:
261,114,16489,1,0,0:0:0:0:
21,122,16571,1,0,0:0:0:0:
261,105,16652,1,8,0:0:0:0:
326,70,16734,1,0,0:0:0:0:
268,85,16816,1,8,0:0:0:0:
326,70,16870,1,8,0:0:0:0:
164,106,16924,1,8,0:0:0:0:
268,85,16979,1,0,0:0:0:0:
316,97,17060,1,0,0:0:0:0:
218,165,17142,1,8,0:0:0:0:
218,165,17196,1,0,0:0:0:0:
237,77,17250,1,0,0:0:0:0:
218,165,17305,1,8,0:0:0:0:
324,127,17386,1,0,0:0:0:0:
284,241,17468,1,8,0:0:0:0:
306,112,17549,1,8,0:0:0:0:
284,241,17631,1,0,0:0:0:0:
131,116,17685,1,0,0:0:0:0:
138,101,17739,1,0,0:0:0:0:
274,211,17794,1,8,0:0:0:0:
274,211,17875,1,0,0:0:0:0:
274,211,17957,1,8,0:0:0:0:
212,107,18011,1,0,0:0:0:0:
120,85,18066,1,0,0:0:0:0:
241,202,18120,1,8,0:0:0:0:
218,104,18174,1,8,0:0:0:0:
46,112,18229,1,8,0:0:0:0:
241,202,18283,1,0,0:0:0:0:
287,147,18364,1,0,0:0:0:0:
369,186,18446,1,0,0:0:0:0:
369,186,18527,1,0,0:0:0:0:
369,186,18609,1,8,0:0:0:0:
369,186,18691,1,0,0:0:0:0:
359,176,18772,1,8,0:0:0:0:
359,176,18854,1,8,0:0:0:0:
359,176,18935,1,0,0:0:0:0:
287,147,18989,1,0,0:0:0:0:
214,81,19044,1,0,0:0:0:0:
384,174,19098,1,8,0:0:0:0:
384,174,19180,1,0,0:0:0:0:
384,174,19261,1,8,0:0:0:0:
384,174,19343,1,0,0:0:0:0:
384,174,19424,1,8,0:0:0:0:
384,174,19479,1,8,0:0:0:0:
154,101,19533,1,8,0:0:0:0:
384,174,19587,1,0,0:0:0:0:
216,111,19669,1,0,0:0:0:0:
216,111,19750,1,8,0:0:0:0:
216,111,19805,1,8,0:0:0:0:
172,78,19859,1,8,0:0:0:0:
209,107,19913,1,0,0:0:0:0:
281,85,19995,1,0,0:0:0:0:
267,74,20076,1,8,0:0:0:0:
286,137,20131,1,0,0:0:0:0:
186,77,20185,1,0,0:0:0:0:
286,142,20239,1,8,0:0:0:0:
260,158,20294,1,8,0:0:0:0:
187,117,20348,1,8,0:0:0:0:
260,158,20402,1,0,0:0:0:0:
260,158,20484,1,0,0:0:0:0:
260,158,20565,1,8,0:0:0:0:
312,186,20647,1,0,0:0:0:0:
312,186,20729,1,8,0:0:0:0:
312,186,20783,1,8,0:0:0:0:
107,109,20837,1,8,0:0:0:0:
310,175,20892,1,0,0:0:0:0:
306,134,20973,1,0,0:0:0:0:
307,135,21055,1,8,0:0:0:0:
308,135,21136,1,0,0:0:0:0:
311,134,21218,1,8,0:0:0:0:
311,134,21299,1,0,0:0:0:0:
311,134,21381,1,8,0:0:0:0:
311,134,21435,1,8,0:0:0:0:
306,134,21489,1,8,0:0:0:0:
306,134,21544,1,0,0:0:0:0:
126,109,21625,1,0,0:0:0:0:
306,134,21707,1,8,0:0:0:0:
306,134,21788,1,0,0:0:0:0:
306,134,21870,1,8,0:0:0:0:
343,180,21951,1,0,0:0:0:0:
336,180,22033,1,8,0:0:0:0:
335,180,22087,1,8,0:0:0:0:
151,87,22142,1,8,0:0:0:0:
316,155,22196,1,0,0:0:0:0:
224,129,22277,1,8,0:0:0:0:
326,160,22359,1,0,0:0:0:0:
126,102,22413,1,0,0:0:0:0:
301,80,22468,1,0,0:0:0:0:
126,102,22522,1,8,0:0:0:0:
126,102,22604,1,0,0:0:0:0:
126,102,22685,1,8,0:0:0:0:
117,102,22739,1,8,0:0:0:0:
252,101,22794,1,8,0:0:0:0:
326,168,22848,1,0,0:0:0:0:
328,168,22902,1,0,0:0:0:0:
181,83,22957,1,0,0:0:0:0:
245,107,23011,1,8,0:0:0:0:
329,168,23093,1,0,0:0:0:0:
324,168,23174,1,8,0:0:0:0:
307,118,23229,1,0,0:0:0:0:
195,72,23283,1,0,0:0:0:0:
337,160,23337,1,8,0:0:0:0:
303,111,23392,1,8,0:0:0:0:
229,58,23446,1,8,0:0:0:0:
210,214,23500,1,0,0:0:0:0:
230,100,23581,1,0,0:0:0:0:
336,186,23663,1,8,0:0:0:0:
216,145,23745,1,0,0:0:0:0:
209,157,23826,1,8,0:0:0:0:
291,102,23907,1,8,0:0:0:0:
331,174,23989,1,0,0:0:0:0:
313,92,24044,1,0,0:0:0:0:
68,119,24098,1,0,0:0:0:0:
225,127,24152,1,8,0:0:0:0:
181,112,24234,1,0,0:0:0:0:
431,208,24315,1,8,0:0:0:0:
317,127,24396,1,0,0:0:0:0:
317,99,24478,1,8,0:0:0:0:
333,143,24533,1,8,0:0:0:0:
128,113,24587,1,8,0:0:0:0:
423,204,24641,1,0,0:0:0:0:
306,136,24722,1,0,0:0:0:0:
341,166,24804,1,8,0:0:0:0:
303,126,24859,1,8,0:0:0:0:
172,121,24913,1,8,0:0:0:0:
341,166,24967,1,0,0:0:0:0:
280,68,25048,1,0,0:0:0:0:
335,163,25130,1,8,0:0:0:0:
280,68,25211,1,0,0:0:0:0:
360,154,25293,1,8,0:0:0:0:
284,134,25375,1,0,0:0:0:0:
359,151,25456,1,8,0:0:0:0:
339,122,25511,1,8,0:0:0:0:
278,112,25565,1,8,0:0:0:0:
357,144,25619,1,0,0:0:0:0:
94,102,25673,1,0,0:0:0:0:
278,112,25728,1,0,0:0:0:0:
357,144,25782,1,8,0:0:0:0:
351,173,25864,1,0,0:0:0:0:
341,126,25945,1,8,0:0:0:0:
346,172,26027,1,8,0:0:0:0:
341,126,26108,1,0,0:0:0:0:
101,84,26190,1,0,0:0:0:0:
196,103,26271,1,8,0:0:0:0:
329,148,26353,1,0,0:0:0:0:
196,103,26434,1,8,0:0:0:0:
307,162,26489,1,8,0:0:0:0:
113,101,26543,1,8,0:0:0:0:
229,75,26597,1,0,0:0:0:0:
298,89,26679,1,0,0:0:0:0:
229,75,26760,1,8,0:0:0:0:
298,89,26815,1,8,0:0:0:0:
206,109,26870,1,8,0:0:0:0:
261,114,26923,1,0,0:0:0:0:
21,122,27005,1,0,0:0:0:0:
261,105,27086,1,8,0:0:0:0:
326,70,27168,1,0,0:0:0:0:
268,85,27250,1,8,0:0:0:0:
326,70,27304,1,8,0:0:0:0:
164,106,27358,1,8,0:0:0:0:
268,85,27413,1,0,0:0:0:0:
316,97,27494,1,0,0:0:0:0:
218,165,27576,1,8,0:0:0:0:
218,165,27630,1,0,0:0:0:0:
237,77,27684,1,0,0:0:0:0:
218,165,27739,1,8,0:0:0:0:
324,127,27820,1,0,0:0:0:0:
284,241,27902,1,8,0:0:0:0:
306,112,27983,1,8,0:0:0:0:
284,241,28065,1,0,0:0:0:0:
131,116,28119,1,0,0:0:0:0:
138,101,28173,1,0,0:0:0:0:
274,211,28228,1,8,0:0:0:0:
274,211,28309,1,0,0:0:0:0:
274,211,28391,1,8,0:0:0:0:
212,107,28445,1,0,0:0:0:0:
120,85,28500,1,0,0:0:0:0:
241,202,28554,1,8,0:0:0:0:
218,104,28608,1,8,0:0:0:0:
46,112,28663,1,8,0:0:0:0:
241,202,28717,1,0,0:0:0:0:
287,147,28798,1,0,0:0:0:0:
369,186,28880,1,0,0:0:0:0:
369,186,28961,1,0,0:0:0:0:
369,186,29043,1,8,0:0:0:0:
369,186,29125,1,0,0:0:0:0:
359,176,29206,1,8,0:0:0:0:
359,176,29288,1,8,0:0:0:0:
359,176,29369,1,0,0:0:0:0:
287,147,29423,1,0,0:0:0:0:
214,81,29478,1,0,0:0:0:0:
384,174,29532,1,8,0:0:0:0:
384,174,29614,1,0,0:0:0:0:
384,174,29695,1,8,0:0:0:0:
384,174,29777,1,0,0:0:0:0:
384,174,29858,1,8,0:0:0:0:
384,174,29913,1,8,0:0:0:0:
154,101,29967,1,8,0:0:0:0:
384,174,30021,1,0,0:0:0:0:
216,111,30103,1,0,0:0:0:0:
216,111,30184,1,8,0:0:0:0:
216,111,30239,1,8,0:0:0:0:
172,78,30293,1,8,0:0:0:0:
209,107,30347,1,0,0:0:0:0:
281,85,30429,1,0,0:0:0:0:
267,74,30510,1,8,0:0:0:0:
286,137,30565,1,0,0:0:0:0:
186,77,30619,1,0,0:0:0:0:
286,142,30673,1,8,0:0:0:0:
260,158,30728,1,8,0:0:0:0:
187,117,30782,1,8,0:0:0:0:
260,158,30836,1,0,0:0:0:0:
260,158,30918,1,0,0:0:0:0:
260,158,30999,1,8,0:0:0:0:
312,186,31081,1,0,0:0:0:0:
312,186,31163,1,8,0:0:0:0:
312,186,31244,1,8,0:0:0:0:
310,175,31326,1,0,0:0:0:0:
306,134,31380,1,0,0:0:0:0:
107,109,31434,1,0,0:0:0:0:
307,135,31489,1,8,0:0:0:0:
308,135,31570,1,0,0:0:0:0:
311,134,31652,1,8,0:0:0:0:
311,134,31733,1,0,0:0:0:0:
311,134,31815,1,8,0:0:0:0:
311,134,31869,1,8,0:0:0:0:
306,134,31923,1,8,0:0:0:0:
306,134,31978,1,0,0:0:0:0:
126,109,32059,1,0,0:0:0:0:
306,134,32141,1,8,0:0:0:0:
306,134,32222,1,0,0:0:0:0:
306,134,32304,1,8,0:0:0:0:
343,180,32385,1,0,0:0:0:0:
336,180,32467,1,8,0:0:0:0:
335,180,32521,1,8,0:0:0:0:
151,87,32576,1,8,0:0:0:0:
316,155,32630,1,0,0:0:0:0:
224,129,32711,1,8,0:0:0:0:
326,160,32793,1,0,0:0:0:0:
126,102,32847,1,0,0:0:0:0:
301,80,32902,1,0,0:0:0:0:
126,102,32956,1,8,0:0:0:0:
126,102,33038,1,0,0:0:0:0:
126,102,33119,1,8,0:0:0:0:
117,102,33173,1,8,0:0:0:0:
252,101,33228,1,8,0:0:0:0:
326,168,33282,1,0,0:0:0:0:
328,168,33336,1,0,0:0:0:0:
181,83,33391,1,0,0:0:0:0:
245,107,33445,1,8,0:0:0:0:
329,168,33527,1,0,0:0:0:0:
324,168,33608,1,8,0:0:0:0:
307,118,33663,1,8,0:0:0:0:
195,72,33717,1,8,0:0:0:0:
337,160,33771,1,0,0:0:0:0:
303,111,33826,1,8,0:0:0:0:
229,58,33880,1,8,0:0:0:0:
343,188,33935,1,0,0:0:0:0:
201,161,34017,1,0,0:0:0:0:
336,198,34098,1,0,0:0:0:0:
196,145,34180,1,0,0:0:0:0:
336,198,34261,1,8,0:0:0:0:
336,198,34424,1,0,0:0:0:0:
336,198,34587,1,0,0:0:0:0:
345,96,34669,1,0,0:0:0:0:
336,198,34750,1,0,0:0:0:0:
320,109,34832,1,0,0:0:0:0:
336,198,34913,1,8,0:0:0:0:
81,142,34995,1,0,0:0:0:0:
336,198,35076,1,8,0:0:0:0:
262,167,35158,1,8,0:0:0:0:
334,188,35239,1,0,0:0:0:0:
261,99,35294,1,0,0:0:0:0:
266,93,35348,1,0,0:0:0:0:
276,138,35402,1,8,0:0:0:0:
173,110,35484,1,0,0:0:0:0:
290,138,35565,1,8,0:0:0:0:
179,99,35620,1,0,0:0:0:0:
179,98,35674,1,0,0:0:0:0:
290,138,35729,1,8,0:0:0:0:
371,179,35810,1,8,0:0:0:0:
353,77,35892,1,0,0:0:0:0:
191,112,35946,1,0,0:0:0:0:
116,96,36000,1,0,0:0:0:0:
353,77,36055,1,8,0:0:0:0:
217,57,36109,1,8,0:0:0:0:
116,126,36163,1,8,0:0:0:0:
366,82,36218,1,0,0:0:0:0:
112,164,36299,1,0,0:0:0:0:
219,76,36381,1,8,0:0:0:0:
104,152,36544,1,8,0:0:0:0:
254,169,36707,1,8,0:0:0:0:
254,169,36788,1,8,0:0:0:0:
255,162,36870,1,0,0:0:0:0:
248,159,37033,1,0,0:0:0:0:
254,161,37196,1,8,0:0:0:0:
283,107,37277,1,0,0:0:0:0:
283,107,37359,1,8,0:0:0:0:
283,107,37440,1,8,0:0:0:0:
283,107,37522,1,0,0:0:0:0:
283,107,37604,1,0,0:0:0:0:
283,107,37685,1,8,0:0:0:0:
358,63,37726,1,8,0:0:0:0:
358,63,37767,1,8,0:0:0:0:
458,90,37848,1,0,0:0:0:0:
366,137,37928,1,0,0:0:0:0:
366,137,38009,1,0,0:0:0:0:
366,137,38089,1,0,0:0:0:0:
236,51,38170,1,8,0:0:0:0:
366,137,38251,1,0,0:0:0:0:
236,51,38331,1,8,0:0:0:0:
366,137,38412,1,0,0:0:0:0:
236,51,38493,1,8,0:0:0:0:
236,51,38573,1,8,0:0:0:0:
110,100,38654,1,0,0:0:0:0:
121,95,38735,1,0,0:0:0:0:
121,95,38815,1,8,0:0:0:0:
115,95,38896,1,0,0:0:0:0:
243,77,38977,1,0,0:0:0:0:
225,102,39057,1,0,0:0:0:0:
305,62,39138,1,8,0:0:0:0:
270,184,39218,1,8,0:0:0:0:
255,89,39299,1,0,0:0:0:0:
255,89,39380,1,0,0:0:0:0:
262,65,39460,1,8,0:0:0:0:
221,165,39541,1,0,0:0:0:0:
262,65,39622,1,8,0:0:0:0:
276,75,39702,1,0,0:0:0:0:
262,65,39783,1,8,0:0:0:0:
262,65,39864,1,8,0:0:0:0:
267,92,39944,1,0,0:0:0:0:
271,92,40025,1,0,0:0:0:0:
241,173,40106,1,8,0:0:0:0:
272,102,40186,1,0,0:0:0:0:
272,102,40267,1,8,0:0:0:0:
139,163,40321,1,8,0:0:0:0:
272,102,40374,1,8,0:0:0:0:
296,132,40428,1,0,0:0:0:0:
341,107,40509,1,0,0:0:0:0:
183,139,40589,1,8,0:0:0:0:
261,137,40670,1,0,0:0:0:0:
192,171,40751,1,8,0:0:0:0:
261,137,40831,1,0,0:0:0:0:
183,139,40912,1,8,0:0:0:0:
183,139,40993,1,8,0:0:0:0:
261,129,41073,1,0,0:0:0:0:
331,117,41127,1,0,0:0:0:0:
160,129,41181,1,0,0:0:0:0:
261,129,41235,1,8,0:0:0:0:
261,129,41315,1,0,0:0:0:0:
261,129,41396,1,8,0:0:0:0:
333,102,41450,1,0,0:0:0:0:
333,102,41503,1,0,0:0:0:0:
316,102,41557,1,8,0:0:0:0:
263,118,41638,1,8,0:0:0:0:
326,110,41718,1,0,0:0:0:0:
293,114,41799,1,0,0:0:0:0:
293,114,41880,1,0,0:0:0:0:
293,114,41960,1,0,0:0:0:0:
278,112,42041,1,8,0:0:0:0:
278,112,42095,1,0,0:0:0:0:
278,112,42149,1,0,0:0:0:0:
278,112,42202,1,8,0:0:0:0:
110,146,42283,1,8,0:0:0:0:
278,112,42364,1,0,0:0:0:0:
269,102,42417,1,0,0:0:0:0:
269,102,42471,1,0,0:0:0:0:
269,102,42525,1,8,0:0:0:0:
243,122,42606,1,0,0:0:0:0:
269,102,42686,1,8,0:0:0:0:
341,117,42767,1,0,0:0:0:0:
341,117,42847,1,8,0:0:0:0:
341,117,42901,1,8,0:0:0:0:
129,108,42955,1,8,0:0:0:0:
341,117,43009,1,0,0:0:0:0:
359,99,43063,1,0,0:0:0:0:
35,127,43116,1,0,0:0:0:0:
341,198,43170,1,8,0:0:0:0:
336,193,43251,1,0,0:0:0:0:
326,187,43331,1,8,0:0:0:0:
368,86,43385,1,8,0:0:0:0:
213,105,43439,1,8,0:0:0:0:
372,158,43493,1,0,0:0:0:0:
302,74,43573,1,0,0:0:0:0:
372,158,43654,1,8,0:0:0:0:
388,154,43708,1,8,0:0:0:0:
174,118,43761,1,8,0:0:0:0:
388,154,43815,1,0,0:0:0:0:
388,154,43896,1,0,0:0:0:0:
388,154,43977,1,8,0:0:0:0:
224,88,44057,1,0,0:0:0:0:
380,153,44138,1,8,0:0:0:0:
380,153,44218,1,0,0:0:0:0:
380,153,44299,1,8,0:0:0:0:
469,201,44380,1,8,0:0:0:0:
469,201,44460,1,0,0:0:0:0:
469,201,44541,1,0,0:0:0:0:
469,201,44622,1,8,0:0:0:0:
460,198,44702,1,0,0:0:0:0:
460,198,44783,1,8,0:0:0:0:
460,198,44837,1,8,0:0:0:0:
91,141,44891,1,8,0:0:0:0:
460,198,44944,1,0,0:0:0:0:
469,201,45025,1,0,0:0:0:0:
469,201,45106,1,8,0:0:0:0:
469,201,45159,1,0,0:0:0:0:
136,95,45213,1,0,0:0:0:0:
469,201,45267,1,8,0:0:0:0:
125,122,45347,1,0,0:0:0:0:
178,54,45428,1,8,0:0:0:0:
115,100,45509,1,8,0:0:0:0:
186,42,45589,1,0,0:0:0:0:
111,141,45670,1,0,0:0:0:0:
181,158,45751,1,8,0:0:0:0:
86,117,45804,1,0,0:0:0:0:
181,158,45858,1,0,0:0:0:0:
181,158,45912,1,8,0:0:0:0:
292,179,45993,1,0,0:0:0:0:
286,173,46073,1,8,0:0:0:0:
286,173,46127,1,8,0:0:0:0:
196,105,46181,1,8,0:0:0:0:
282,164,46235,1,0,0:0:0:0:
282,163,46315,1,0,0:0:0:0:
281,163,46396,1,8,0:0:0:0:
281,163,46450,1,0,0:0:0:0:
176,79,46503,1,0,0:0:0:0:
280,159,46557,1,8,0:0:0:0:
280,159,46638,1,0,0:0:0:0:
280,159,46718,1,8,0:0:0:0:
275,158,46772,1,8,0:0:0:0:
86,106,46826,1,8,0:0:0:0:
275,158,46880,1,0,0:0:0:0:
242,128,46960,1,0,0:0:0:0:
288,81,47041,1,8,0:0:0:0:
288,81,47095,1,0,0:0:0:0:
88,101,47149,1,0,0:0:0:0:
288,81,47202,1,8,0:0:0:0:
161,132,47283,1,0,0:0:0:0:
157,125,47364,1,8,0:0:0:0:
154,121,47417,1,0,0:0:0:0:
82,114,47471,1,0,0:0:0:0:
153,121,47525,1,8,0:0:0:0:
153,119,47606,1,8,0:0:0:0:
153,119,47686,1,0,0:0:0:0:
151,115,47740,1,0,0:0:0:0:
93,117,47794,1,0,0:0:0:0:
146,113,47847,1,8,0:0:0:0:
433,86,47901,1,0,0:0:0:0:
294,86,47955,1,0,0:0:0:0:
201,148,48009,1,8,0:0:0:0:
359,55,48049,1,8,0:0:0:0:
359,55,48089,1,8,0:0:0:0:
458,90,48170,1,0,0:0:0:0:
366,137,48250,1,0,0:0:0:0:
366,137,48331,1,0,0:0:0:0:
366,137,48411,1,0,0:0:0:0:
236,51,48492,1,8,0:0:0:0:
366,137,48546,1,8,0:0:0:0:
92,133,48600,1,8,0:0:0:0:
236,51,48653,1,0,0:0:0:0:
366,137,48734,1,0,0:0:0:0:
236,51,48815,1,8,0:0:0:0:
236,51,48869,1,8,0:0:0:0:
116,103,48923,1,8,0:0:0:0:
110,100,48976,1,0,0:0:0:0:
121,95,49057,1,0,0:0:0:0:
121,95,49137,1,8,0:0:0:0:
115,95,49218,1,0,0:0:0:0:
243,77,49299,1,8,0:0:0:0:
225,102,49379,1,0,0:0:0:0:
305,62,49460,1,8,0:0:0:0:
270,184,49514,1,8,0:0:0:0:
154,122,49568,1,8,0:0:0:0:
255,89,49621,1,0,0:0:0:0:
255,89,49702,1,0,0:0:0:0:
262,65,49782,1,8,0:0:0:0:
221,165,49863,1,0,0:0:0:0:
262,65,49944,1,8,0:0:0:0:
276,75,50024,1,0,0:0:0:0:
262,65,50105,1,8,0:0:0:0:
262,65,50159,1,8,0:0:0:0:
195,91,50213,1,8,0:0:0:0:
267,92,50266,1,0,0:0:0:0:
271,92,50347,1,0,0:0:0:0:
241,173,50428,1,8,0:0:0:0:
272,102,50482,1,8,0:0:0:0:
133,112,50536,1,8,0:0:0:0:
272,102,50589,1,0,0:0:0:0:
272,102,50670,1,0,0:0:0:0:
296,132,50750,1,8,0:0:0:0:
341,107,50831,1,0,0:0:0:0:
183,139,50911,1,8,0:0:0:0:
261,137,50966,1,0,0:0:0:0:
91,130,51020,1,0,0:0:0:0:
192,171,51073,1,8,0:0:0:0:
261,137,51153,1,0,0:0:0:0:
183,139,51234,1,8,0:0:0:0:
183,139,51288,1,8,0:0:0:0:
116,161,51342,1,8,0:0:0:0:
261,129,51395,1,0,0:0:0:0:
331,117,51449,1,0,0:0:0:0:
160,129,51503,1,0,0:0:0:0:
261,129,51557,1,8,0:0:0:0:
261,129,51637,1,0,0:0:0:0:
261,129,51718,1,8,0:0:0:0:
333,102,51799,1,0,0:0:0:0:
316,102,51879,1,8,0:0:0:0:
263,118,51960,1,8,0:0:0:0:
326,110,52040,1,0,0:0:0:0:
293,114,52121,1,0,0:0:0:0:
293,114,52202,1,8,0:0:0:0:
293,114,52256,1,0,0:0:0:0:
72,125,52310,1,0,0:0:0:0:
278,112,52363,1,8,0:0:0:0:
278,112,52444,1,0,0:0:0:0:
278,112,52524,1,8,0:0:0:0:
110,146,52579,1,8,0:0:0:0:
128,131,52632,1,8,0:0:0:0:
278,112,52686,1,0,0:0:0:0:
269,102,52739,1,0,0:0:0:0:
269,102,52793,1,0,0:0:0:0:
269,102,52847,1,8,0:0:0:0:
243,122,52928,1,0,0:0:0:0:
269,102,53008,1,8,0:0:0:0:
341,117,53063,1,0,0:0:0:0:
141,82,53116,1,0,0:0:0:0:
341,117,53169,1,8,0:0:0:0:
341,117,53223,1,8,0:0:0:0:
129,108,53277,1,8,0:0:0:0:
341,117,53331,1,0,0:0:0:0:
243,109,53385,1,0,0:0:0:0:
92,153,53439,1,0,0:0:0:0:
243,109,53493,1,8,0:0:0:0:
239,110,53573,1,8,0:0:0:0:
231,111,53654,1,0,0:0:0:0:
231,111,53708,1,0,0:0:0:0:
214,103,53761,1,0,0:0:0:0:
231,111,53815,1,8,0:0:0:0:
231,111,53896,1,8,0:0:0:0:
231,111,53977,1,0,0:0:0:0:
231,111,54030,1,0,0:0:0:0:
173,98,54084,1,0,0:0:0:0:
231,111,54138,1,8,0:0:0:0:
231,111,54218,1,8,0:0:0:0:
231,111,54299,1,0,0:0:0:0:
231,111,54353,1,0,0:0:0:0:
101,116,54407,1,0,0:0:0:0:
231,111,54460,1,8,0:0:0:0:
231,111,54541,1,8,0:0:0:0:
231,111,54622,1,0,0:0:0:0:
231,111,54675,1,0,0:0:0:0:
227,110,54729,1,0,0:0:0:0:
231,111,54783,1,8,0:0:0:0:
231,111,54864,1,0,0:0:0:0:
231,111,54944,1,8,0:0:0:0:
168,148,54998,1,8,0:0:0:0:
231,111,55052,1,8,0:0:0:0:
319,157,55106,1,0,0:0:0:0:
319,157,55186,1,0,0:0:0:0:
314,153,55267,1,8,0:0:0:0:
314,153,55321,1,8,0:0:0:0:
155,123,55374,1,0,0:0:0:0:
307,152,55428,1,8,0:0:0:0:
307,152,55482,1,0,0:0:0:0:
211,105,55536,1,0,0:0:0:0:
306,148,55589,1,8,0:0:0:0:
303,158,55643,1,0,0:0:0:0:
285,113,55697,1,0,0:0:0:0:
205,128,55751,1,8,0:0:0:0:
101,104,55804,1,8,0:0:0:0:
189,43,55858,1,8,0:0:0:0:
295,127,55912,1,0,0:0:0:0:
394,169,56073,1,0,0:0:0:0:
476,122,56127,1,8,0:0:0:0:
476,122,56181,1,8,0:0:0:0:
467,129,56235,1,8,0:0:0:0:
450,138,56396,1,4,0:0:0:0:
449,138,56557,1,4,0:0:0:0:
449,138,56718,1,0,0:0:0:0:
446,138,56772,1,8,0:0:0:0:
445,138,56826,1,8,0:0:0:0:
441,138,56880,1,8,0:0:0:0:
439,138,57041,1,4,0:0:0:0:
439,138,57202,1,4,0:0:0:0:
439,138,57364,1,0,0:0:0:0:
439,138,57417,1,8,0:0:0:0:
439,138,57471,1,8,0:0:0:0:
439,138,57525,1,0,0:0:0:0:
387,116,57686,1,0,0:0:0:0:
387,116,57847,1,0,0:0:0:0:
218,87,57928,1,0,0:0:0:0:
213,88,58089,1,0,0:0:0:0:
298,94,58170,1,8,0:0:0:0:
275,65,58331,1,0,0:0:0:0:
270,72,58412,1,0,0:0:0:0:
278,109,58493,1,8,0:0:0:0:
356,90,58573,1,8,0:0:0:0:
347,115,58654,1,0,0:0:0:0:
347,115,58815,1,0,0:0:0:0:
347,115,58977,1,0,0:0:0:0:
347,115,59138,1,8,0:0:0:0:
347,115,59299,1,0,0:0:0:0:
204,194,59380,1,0,0:0:0:0:
396,165,59460,1,0,0:0:0:0:
391,158,59622,1,4,0:0:0:0:
