osu file format v14

[General]
AudioFilename: audio.mp3
AudioLeadIn: 0
PreviewTime: 80881
Countdown: 1
SampleSet: Normal
StackLeniency: 0.7
Mode: 1
LetterboxInBreaks: 0
WidescreenStoryboard: 0

[Editor]
Bookmarks: 24220,49098,59707,81659,105713,117329,179982,236415,280684
DistanceSpacing: 0.9
BeatDivisor: 4
GridSize: 4
TimelineZoom: 1.6

[Metadata]
Title:True Blue
TitleUnicode:True Blue
Artist:dj TAKA
ArtistUnicode:dj TAKA
Creator:n1doking
Version:Guilt
Source:jubeat saucer
Tags:aimee Beatmania IIDX 20 tricoro KONAMI BEMANI REFLEC BEAT colette pop'n music Sunny Park SOUND VOLTEX II -infinite infection- POLICY BREAK Dance Dance Revolution
BeatmapID:1099865
BeatmapSetID:517666

[Difficulty]
HPDrainRate:5
CircleSize:2
OverallDifficulty:7
ApproachRate:5
SliderMultiplier:1.4
SliderTickRate:1

[Events]
//Background and Video events
0,0,"Tokumu.Kyuu.full.1533595.jpg",0,0
//Break Periods
//Storyboard Layer 0 (Background)
//Storyboard Layer 1 (Fail)
//Storyboard Layer 2 (Pass)
//Storyboard Layer 3 (Foreground)
//Storyboard Sound Samples

[TimingPoints]
1191,731.707317073171,4,1,0,30,1,0
24605,365.853658536585,4,1,0,40,1,0
24605,-133.333333333333,4,1,0,40,0,0
48019,-117.647058823529,4,1,0,50,0,0
58263,-113.636363636364,4,1,0,55,0,0
58629,-109.89010989011,4,1,0,60,0,0
58995,-106.382978723404,4,1,0,65,0,0
59360,-103.092783505155,4,1,0,70,0,0
59726,-100,4,1,0,75,0,0
80946,-90.9090909090909,4,1,0,75,0,0
81678,-90.9090909090909,4,1,0,80,0,1
103629,-92.5925925925926,4,1,0,80,0,1
103812,-93.4579439252336,4,1,0,80,0,1
103995,-94.3396226415094,4,1,0,80,0,1
104178,-95.2380952380952,4,1,0,80,0,1
104361,-96.1538461538461,4,1,0,80,0,1
104544,-97.0873786407767,4,1,0,80,0,1
104726,-98.0392156862745,4,1,0,80,0,1
104909,-99.009900990099,4,1,0,80,0,1
105092,-100,4,1,0,75,0,0
127684,-101.010101010101,4,1,0,75,0,0
127775,-102.040816326531,4,1,0,75,0,0
127958,-104.166666666667,4,1,0,75,0,0
128050,-105.263157894737,4,1,0,75,0,0
128141,-106.382978723404,4,1,0,75,0,0
128324,-108.695652173913,4,1,0,75,0,0
128507,-111.111111111111,4,1,0,60,0,0
139117,-106.382978723404,4,1,0,75,0,0
139482,-104.166666666667,4,1,0,75,0,0
139848,-102.040816326531,4,1,0,75,0,0
140214,-100,4,1,0,75,0,0
150458,-98.0392156862745,4,1,0,75,0,0
150641,-97.0873786407767,4,1,0,75,0,0
150824,-96.1538461538461,4,1,0,75,0,0
151007,-95.2380952380952,4,1,0,75,0,0
151190,-94.3396226415094,4,1,0,75,0,0
151373,-93.4579439252336,4,1,0,75,0,0
151556,-92.5925925925926,4,1,0,75,0,0
151739,-91.743119266055,4,1,0,75,0,0
151922,-90.9090909090909,4,1,0,80,0,1
197104,-91.743119266055,4,1,0,75,0,0
197287,-92.5925925925926,4,1,0,80,0,1
197470,-93.4579439252336,4,1,0,80,0,1
197653,-94.3396226415094,4,1,0,80,0,1
197836,-95.2380952380952,4,1,0,75,0,0
198019,-96.1538461538461,4,1,0,75,0,0
198202,-97.0873786407767,4,1,0,75,0,0
198385,-98.0392156862745,4,1,0,75,0,0
198568,-99.009900990099,4,1,0,75,0,0
198751,-100,4,1,0,75,0,0
244665,-100,4,1,0,75,0,0
244848,-102.040816326531,4,1,0,75,0,0
245031,-104.166666666667,4,1,0,75,0,0
245214,-106.382978723404,4,1,0,75,0,0
245397,-108.695652173913,4,1,0,75,0,0
245580,-111.111111111111,4,1,0,75,0,0
251434,-142.857142857143,4,1,0,50,0,0
268996,731.707317073171,4,1,0,50,1,8

[HitObjects]
256,188,1191,5,8,0:0:0:0:
252,168,2654,1,0,0:0:0:0:
252,168,4117,1,8,0:0:0:0:
252,168,5581,1,0,0:0:0:0:
252,168,5947,1,0,0:0:0:0:
252,168,6312,1,8,0:0:0:0:
252,168,6678,1,8,0:0:0:0:
252,168,7044,1,8,0:0:0:0:
252,168,7410,1,0,0:0:0:0:
252,168,7776,1,0,0:0:0:0:
252,168,8142,1,0,0:0:0:0:
252,168,8508,1,8,0:0:0:0:
252,168,9239,1,8,0:0:0:0:
252,168,9971,1,8,0:0:0:0:
252,168,10337,1,0,0:0:0:0:
252,168,10703,1,0,0:0:0:0:
252,168,11069,1,0,0:0:0:0:
252,168,11434,1,8,0:0:0:0:
256,188,12166,1,0,0:0:0:0:
256,188,12898,1,8,0:0:0:0:
256,188,14361,1,0,0:0:0:0:
256,188,15825,1,8,0:0:0:0:
256,188,17288,1,0,0:0:0:0:
256,188,17654,1,0,0:0:0:0:
256,188,18020,1,8,0:0:0:0:
256,188,18386,1,8,0:0:0:0:
256,188,18751,1,8,0:0:0:0:
256,188,19117,1,0,0:0:0:0:
256,188,19483,1,0,0:0:0:0:
256,188,19849,1,0,0:0:0:0:
256,188,20215,1,8,0:0:0:0:
256,188,20947,1,8,0:0:0:0:
256,188,21678,1,8,0:0:0:0:
256,188,22044,1,8,0:0:0:0:
256,188,22410,1,0,0:0:0:0:
256,188,22776,1,0,0:0:0:0:
256,188,23142,1,8,0:0:0:0:
256,188,23873,1,8,0:0:0:0:
256,188,24605,1,8,0:0:0:0:
256,188,24787,1,0,0:0:0:0:
256,188,24970,1,0,0:0:0:0:
256,188,25153,1,8,0:0:0:0:
256,188,25519,1,0,0:0:0:0:
256,188,25702,1,0,0:0:0:0:
256,188,25885,1,0,0:0:0:0:
256,188,26068,1,8,0:0:0:0:
256,188,26251,1,0,0:0:0:0:
256,188,26434,1,0,0:0:0:0:
256,188,26617,1,8,0:0:0:0:
256,188,26983,1,8,0:0:0:0:
256,188,27165,1,8,0:0:0:0:
256,188,27348,1,0,0:0:0:0:
256,188,27531,1,0,0:0:0:0:
256,188,27714,1,0,0:0:0:0:
256,188,27897,1,8,0:0:0:0:
256,188,28080,1,8,0:0:0:0:
256,188,28263,1,0,0:0:0:0:
256,188,28446,1,0,0:0:0:0:
256,188,28629,1,8,0:0:0:0:
256,188,28812,1,0,0:0:0:0:
256,188,28995,1,0,0:0:0:0:
256,188,29178,1,0,0:0:0:0:
256,188,29361,1,0,0:0:0:0:
256,188,29544,1,8,0:0:0:0:
256,188,29909,1,0,0:0:0:0:
256,188,30092,1,8,0:0:0:0:
256,188,30458,1,8,0:0:0:0:
256,188,30641,1,8,0:0:0:0:
256,188,30824,1,0,0:0:0:0:
256,188,31007,1,8,0:0:0:0:
256,188,31373,1,0,0:0:0:0:
256,188,31556,1,0,0:0:0:0:
256,188,31739,1,0,0:0:0:0:
256,188,31922,1,8,0:0:0:0:
256,188,32287,1,8,0:0:0:0:
256,188,32470,1,0,0:0:0:0:
256,188,32653,1,8,0:0:0:0:
256,188,32836,1,8,0:0:0:0:
256,188,33202,1,8,0:0:0:0:
256,188,33385,1,0,0:0:0:0:
256,188,33568,1,0,0:0:0:0:
256,188,33751,1,0,0:0:0:0:
256,188,33934,1,8,0:0:0:0:
256,188,34300,1,8,0:0:0:0:
256,188,34483,1,8,0:0:0:0:
256,188,34665,1,0,0:0:0:0:
256,188,34848,1,0,0:0:0:0:
256,188,35214,1,8,0:0:0:0:
256,188,35580,1,8,0:0:0:0:
256,188,35946,1,0,0:0:0:0:
256,188,36312,1,8,0:0:0:0:
256,188,36495,1,0,0:0:0:0:
256,188,36678,1,0,0:0:0:0:
256,188,36861,1,8,0:0:0:0:
256,188,37226,1,0,0:0:0:0:
256,188,37409,1,8,0:0:0:0:
256,188,37592,1,0,0:0:0:0:
256,188,37775,1,8,0:0:0:0:
256,188,37958,1,0,0:0:0:0:
256,188,38141,1,0,0:0:0:0:
256,188,38324,1,8,0:0:0:0:
256,188,38690,1,8,0:0:0:0:
256,188,38873,1,8,0:0:0:0:
256,188,39056,1,0,0:0:0:0:
256,188,39239,1,0,0:0:0:0:
256,188,39422,1,0,0:0:0:0:
256,188,39604,1,8,0:0:0:0:
256,188,39787,1,8,0:0:0:0:
256,188,39970,1,0,0:0:0:0:
256,188,40153,1,0,0:0:0:0:
256,188,40336,1,8,0:0:0:0:
256,188,40519,1,0,0:0:0:0:
256,188,40702,1,0,0:0:0:0:
256,188,40885,1,0,0:0:0:0:
256,188,41068,1,0,0:0:0:0:
256,188,41251,1,8,0:0:0:0:
256,188,41617,1,0,0:0:0:0:
256,188,41800,1,0,0:0:0:0:
256,188,42165,1,8,0:0:0:0:
256,188,42348,1,8,0:0:0:0:
256,188,42531,1,0,0:0:0:0:
256,188,42714,1,8,0:0:0:0:
256,188,43080,1,0,0:0:0:0:
256,188,43263,1,8,0:0:0:0:
256,188,43446,1,0,0:0:0:0:
256,188,43629,1,8,0:0:0:0:
256,188,43995,1,8,0:0:0:0:
256,188,44178,1,0,0:0:0:0:
256,188,44361,1,8,0:0:0:0:
256,188,44544,1,8,0:0:0:0:
256,188,44909,1,8,0:0:0:0:
256,188,45092,1,0,0:0:0:0:
256,188,45275,1,0,0:0:0:0:
256,188,45458,1,8,0:0:0:0:
256,188,45641,1,8,0:0:0:0:
256,188,46007,1,8,0:0:0:0:
256,188,46190,1,8,0:0:0:0:
256,188,46373,1,0,0:0:0:0:
256,188,46556,1,0,0:0:0:0:
256,188,46922,1,8,0:0:0:0:
256,188,47287,1,8,0:0:0:0:
256,188,47653,1,0,0:0:0:0:
256,188,48019,1,8,0:0:0:0:
256,188,48202,1,0,0:0:0:0:
256,188,48385,1,0,0:0:0:0:
256,188,48568,1,8,0:0:0:0:
256,188,48751,1,8,0:0:0:0:
256,188,49117,1,0,0:0:0:0:
256,188,49300,1,0,0:0:0:0:
256,188,49483,1,8,0:0:0:0:
256,188,49665,1,0,0:0:0:0:
256,188,49848,1,8,0:0:0:0:
256,188,50031,1,8,0:0:0:0:
256,188,50214,1,0,0:0:0:0:
256,188,50397,1,8,0:0:0:0:
256,188,50580,1,8,0:0:0:0:
256,188,50763,1,0,0:0:0:0:
256,188,50946,1,0,0:0:0:0:
256,188,51129,1,0,0:0:0:0:
256,188,51312,1,0,0:0:0:0:
256,188,51495,1,8,0:0:0:0:
256,188,51861,1,0,0:0:0:0:
256,188,52044,1,8,0:0:0:0:
256,188,52226,1,8,0:0:0:0:
256,188,52409,1,0,0:0:0:0:
256,188,52592,1,0,0:0:0:0:
256,188,52775,1,0,0:0:0:0:
256,188,52958,1,8,0:0:0:0:
256,188,53141,1,8,0:0:0:0:
256,188,53507,1,0,0:0:0:0:
256,188,53873,1,0,0:0:0:0:
256,188,54056,1,0,0:0:0:0:
256,188,54239,1,0,0:0:0:0:
256,188,54422,1,8,0:0:0:0:
256,188,54787,1,0,0:0:0:0:
256,188,54970,1,8,0:0:0:0:
256,188,55153,1,8,0:0:0:0:
256,188,55336,1,8,0:0:0:0:
256,188,55702,1,8,0:0:0:0:
256,188,55885,1,8,0:0:0:0:
256,188,56068,1,0,0:0:0:0:
256,188,56251,1,8,0:0:0:0:
256,188,56434,1,0,0:0:0:0:
256,188,56617,1,8,0:0:0:0:
256,188,56800,1,0,0:0:0:0:
256,188,57165,1,0,0:0:0:0:
256,188,57348,1,8,0:0:0:0:
256,188,57714,1,0,0:0:0:0:
256,188,57897,1,8,0:0:0:0:
256,188,58080,1,8,0:0:0:0:
256,188,58263,1,0,0:0:0:0:
256,188,58629,1,8,0:0:0:0:
256,188,58995,1,8,0:0:0:0:
256,188,59361,1,8,0:0:0:0:
256,188,59726,1,12,0:0:0:0:
256,188,59909,1,0,0:0:0:0:
256,188,60092,1,8,0:0:0:0:
256,188,60275,1,0,0:0:0:0:
256,188,60367,1,8,0:0:0:0:
256,188,60458,1,8,0:0:0:0:
256,188,60641,1,8,0:0:0:0:
256,188,60824,1,0,0:0:0:0:
256,188,61007,1,8,0:0:0:0:
256,188,61190,1,8,0:0:0:0:
256,188,61373,1,0,0:0:0:0:
256,188,61556,1,8,0:0:0:0:
256,188,61739,1,8,0:0:0:0:
256,188,61830,1,8,0:0:0:0:
256,188,61922,1,8,0:0:0:0:
256,188,62104,1,0,0:0:0:0:
256,188,62287,1,8,0:0:0:0:
256,188,62653,1,8,0:0:0:0:
256,188,62836,1,0,0:0:0:0:
256,188,63019,1,8,0:0:0:0:
256,188,63202,1,8,0:0:0:0:
256,188,63294,1,0,0:0:0:0:
256,188,63385,1,0,0:0:0:0:
256,188,63568,1,8,0:0:0:0:
256,188,63751,1,0,0:0:0:0:
256,188,63842,1,0,0:0:0:0:
256,188,63934,1,8,0:0:0:0:
256,188,64117,1,8,0:0:0:0:
256,188,64300,1,0,0:0:0:0:
256,188,64483,1,8,0:0:0:0:
256,188,64665,1,0,0:0:0:0:
256,188,64848,1,8,0:0:0:0:
256,188,65031,1,0,0:0:0:0:
256,188,65123,1,0,0:0:0:0:
256,188,65214,1,0,0:0:0:0:
256,188,65580,1,8,0:0:0:0:
256,188,65763,1,8,0:0:0:0:
256,188,65854,1,0,0:0:0:0:
256,188,65946,1,0,0:0:0:0:
256,188,66129,1,8,0:0:0:0:
256,188,66312,1,0,0:0:0:0:
256,188,66403,1,0,0:0:0:0:
256,188,66495,1,0,0:0:0:0:
256,188,66678,1,8,0:0:0:0:
256,188,66861,1,8,0:0:0:0:
256,188,67044,1,0,0:0:0:0:
256,188,67226,1,0,0:0:0:0:
256,188,67409,1,8,0:0:0:0:
256,188,67592,1,0,0:0:0:0:
256,188,67684,1,0,0:0:0:0:
256,188,67775,1,8,0:0:0:0:
256,188,68141,1,8,0:0:0:0:
256,188,68233,1,8,0:0:0:0:
256,188,68324,1,0,0:0:0:0:
256,188,68507,1,12,0:0:0:0:
200,158,68690,1,0,0:0:0:0:
256,188,68781,1,0,0:0:0:0:
256,188,68964,1,0,0:0:0:0:
256,188,69056,1,8,0:0:0:0:
256,188,69147,1,0,0:0:0:0:
256,188,69239,1,8,0:0:0:0:
256,188,69422,1,0,0:0:0:0:
256,188,69513,1,0,0:0:0:0:
256,188,69696,1,0,0:0:0:0:
256,188,69787,1,8,0:0:0:0:
256,188,69879,1,0,0:0:0:0:
256,188,69970,1,8,0:0:0:0:
256,188,70153,1,0,0:0:0:0:
256,188,70245,1,0,0:0:0:0:
256,188,70428,1,0,0:0:0:0:
256,188,70519,1,8,0:0:0:0:
256,188,70611,1,0,0:0:0:0:
256,188,70702,1,0,0:0:0:0:
256,188,70885,1,8,0:0:0:0:
256,188,71068,1,8,0:0:0:0:
256,188,71251,1,8,0:0:0:0:
256,188,71434,1,4,0:0:0:0:
256,188,71617,1,0,0:0:0:0:
256,188,71708,1,0,0:0:0:0:
256,188,71891,1,0,0:0:0:0:
256,188,71983,1,8,0:0:0:0:
256,188,72074,1,0,0:0:0:0:
256,188,72165,1,8,0:0:0:0:
256,188,72348,1,0,0:0:0:0:
256,188,72440,1,0,0:0:0:0:
256,188,72623,1,0,0:0:0:0:
256,188,72714,1,8,0:0:0:0:
256,188,72806,1,0,0:0:0:0:
256,188,72897,1,8,0:0:0:0:
318,185,73080,1,0,0:0:0:0:
256,188,73172,1,0,0:0:0:0:
256,188,73354,1,0,0:0:0:0:
256,188,73446,1,8,0:0:0:0:
256,188,73537,1,0,0:0:0:0:
256,188,73629,1,8,0:0:0:0:
256,188,73812,1,8,0:0:0:0:
256,188,73873,1,8,0:0:0:0:
256,188,73934,1,8,0:0:0:0:
256,188,73995,1,8,0:0:0:0:
256,188,74178,1,8,0:0:0:0:
256,188,74269,1,0,0:0:0:0:
256,188,74361,1,8,0:0:0:0:
256,188,74544,1,0,0:0:0:0:
256,188,74635,1,0,0:0:0:0:
256,188,74818,1,0,0:0:0:0:
256,188,74909,1,8,0:0:0:0:
256,188,75001,1,0,0:0:0:0:
256,188,75092,1,0,0:0:0:0:
256,188,75275,1,8,0:0:0:0:
256,188,75458,1,8,0:0:0:0:
256,188,75641,1,8,0:0:0:0:
256,188,75824,1,4,0:0:0:0:
256,188,76007,1,0,0:0:0:0:
256,188,76098,1,0,0:0:0:0:
256,188,76281,1,0,0:0:0:0:
284,172,76373,1,8,0:0:0:0:
256,188,76464,1,0,0:0:0:0:
256,188,76556,1,0,0:0:0:0:
256,188,76739,1,8,0:0:0:0:
256,188,76922,1,8,0:0:0:0:
256,188,77104,1,8,0:0:0:0:
256,188,77287,1,4,0:0:0:0:
256,188,77470,1,8,0:0:0:0:
256,188,77653,1,8,0:0:0:0:
256,188,77836,1,8,0:0:0:0:
256,188,78019,1,4,0:0:0:0:
256,188,78202,1,8,0:0:0:0:
256,188,78385,1,8,0:0:0:0:
256,188,78568,1,8,0:0:0:0:
256,188,78659,1,8,0:0:0:0:
256,188,78751,1,0,0:0:0:0:
256,188,78842,1,8,0:0:0:0:
256,188,78934,1,8,0:0:0:0:
256,188,79025,1,0,0:0:0:0:
256,188,79117,1,0,0:0:0:0:
256,188,79208,1,8,0:0:0:0:
256,188,79300,1,8,0:0:0:0:
256,188,79391,1,0,0:0:0:0:
256,188,79483,1,0,0:0:0:0:
256,188,79574,1,8,0:0:0:0:
256,188,79665,1,0,0:0:0:0:
256,188,79757,1,8,0:0:0:0:
256,188,79848,1,0,0:0:0:0:
256,188,79940,1,8,0:0:0:0:
256,188,80031,1,8,0:0:0:0:
256,188,80123,1,0,0:0:0:0:
256,188,80946,1,8,0:0:0:0:
256,188,81129,1,0,0:0:0:0:
256,188,81220,1,0,0:0:0:0:
256,188,81312,1,8,0:0:0:0:
256,188,81403,1,8,0:0:0:0:
256,188,81495,1,8,0:0:0:0:
256,188,81586,1,0,0:0:0:0:
256,188,81678,1,8,0:0:0:0:
256,188,81769,1,0,0:0:0:0:
256,188,81861,1,0,0:0:0:0:
256,188,81952,1,0,0:0:0:0:
256,188,82044,1,8,0:0:0:0:
256,188,82226,1,0,0:0:0:0:
256,188,82318,1,0,0:0:0:0:
256,188,82409,1,8,0:0:0:0:
256,188,82501,1,0,0:0:0:0:
256,188,82592,1,8,0:0:0:0:
256,188,82775,1,8,0:0:0:0:
256,188,82867,1,0,0:0:0:0:
256,188,82958,1,0,0:0:0:0:
256,188,83050,1,0,0:0:0:0:
256,188,83141,1,8,0:0:0:0:
256,188,83233,1,8,0:0:0:0:
256,188,83324,1,0,0:0:0:0:
256,188,83415,1,0,0:0:0:0:
256,188,83507,1,8,0:0:0:0:
256,188,83690,1,0,0:0:0:0:
256,188,83781,1,0,0:0:0:0:
256,188,83873,1,8,0:0:0:0:
256,188,83964,1,0,0:0:0:0:
256,188,84056,1,8,0:0:0:0:
256,188,84239,1,8,0:0:0:0:
256,188,84330,1,8,0:0:0:0:
256,188,84422,1,0,0:0:0:0:
256,188,84513,1,0,0:0:0:0:
256,188,84604,1,8,0:0:0:0:
256,188,84696,1,0,0:0:0:0:
256,188,84787,1,0,0:0:0:0:
256,188,84879,1,0,0:0:0:0:
256,188,84970,1,8,0:0:0:0:
256,188,85062,1,8,0:0:0:0:
256,188,85153,1,0,0:0:0:0:
256,188,85245,1,0,0:0:0:0:
256,188,85336,1,8,0:0:0:0:
256,188,85428,1,8,0:0:0:0:
256,188,85519,1,0,0:0:0:0:
256,188,85611,1,0,0:0:0:0:
256,188,85702,1,8,0:0:0:0:
256,188,85794,1,8,0:0:0:0:
256,188,85885,1,8,0:0:0:0:
256,188,85976,1,0,0:0:0:0:
256,188,86068,1,8,0:0:0:0:
256,188,86159,1,0,0:0:0:0:
256,188,86251,1,0,0:0:0:0:
256,188,86342,1,8,0:0:0:0:
256,188,86434,1,8,0:0:0:0:
256,188,86525,1,0,0:0:0:0:
256,188,86617,1,0,0:0:0:0:
256,188,86708,1,8,0:0:0:0:
256,188,86800,1,0,0:0:0:0:
256,188,86891,1,0,0:0:0:0:
256,188,86983,1,8,0:0:0:0:
256,188,87074,1,0,0:0:0:0:
256,188,87165,1,8,0:0:0:0:
256,188,87257,1,0,0:0:0:0:
256,188,87348,1,0,0:0:0:0:
256,188,87440,1,0,0:0:0:0:
256,188,87531,1,8,0:0:0:0:
256,188,87623,1,0,0:0:0:0:
256,188,87714,1,0,0:0:0:0:
256,188,87806,1,0,0:0:0:0:
256,188,87897,1,8,0:0:0:0:
256,188,88080,1,8,0:0:0:0:
256,188,88172,1,8,0:0:0:0:
256,188,88263,1,0,0:0:0:0:
256,188,88354,1,0,0:0:0:0:
256,188,88446,1,8,0:0:0:0:
256,188,88629,1,8,0:0:0:0:
256,188,88720,1,0,0:0:0:0:
256,188,88812,1,0,0:0:0:0:
256,188,88903,1,0,0:0:0:0:
256,188,88995,1,8,0:0:0:0:
256,188,89086,1,8,0:0:0:0:
256,188,89178,1,0,0:0:0:0:
256,188,89269,1,0,0:0:0:0:
256,188,89361,1,8,0:0:0:0:
256,188,89452,1,8,0:0:0:0:
256,188,89544,1,0,0:0:0:0:
256,188,89635,1,0,0:0:0:0:
256,188,89726,1,8,0:0:0:0:
256,188,89818,1,8,0:0:0:0:
256,188,89909,1,8,0:0:0:0:
256,188,90001,1,0,0:0:0:0:
256,188,90092,1,8,0:0:0:0:
256,188,90184,1,8,0:0:0:0:
256,188,90275,1,0,0:0:0:0:
256,188,90458,1,0,0:0:0:0:
256,188,90550,1,0,0:0:0:0:
256,188,90641,1,0,0:0:0:0:
256,188,90733,1,0,0:0:0:0:
256,188,90824,1,8,0:0:0:0:
256,188,90915,1,0,0:0:0:0:
256,188,91007,1,0,0:0:0:0:
256,188,91098,1,0,0:0:0:0:
256,188,91190,1,8,0:0:0:0:
256,188,91281,1,8,0:0:0:0:
256,188,91373,1,0,0:0:0:0:
256,188,91464,1,0,0:0:0:0:
256,188,91556,1,8,0:0:0:0:
256,188,91647,1,8,0:0:0:0:
256,188,91739,1,8,0:0:0:0:
256,188,91830,1,8,0:0:0:0:
256,188,91922,1,0,0:0:0:0:
256,188,92013,1,0,0:0:0:0:
256,188,92104,1,8,0:0:0:0:
256,188,92196,1,0,0:0:0:0:
256,188,92287,1,8,0:0:0:0:
256,188,92379,1,0,0:0:0:0:
256,188,92470,1,0,0:0:0:0:
256,188,92562,1,0,0:0:0:0:
256,188,92653,1,8,0:0:0:0:
256,188,92745,1,0,0:0:0:0:
256,188,92836,1,0,0:0:0:0:
256,188,92928,1,0,0:0:0:0:
256,188,93019,1,8,0:0:0:0:
256,188,93111,1,8,0:0:0:0:
256,188,93202,1,0,0:0:0:0:
256,188,93294,1,0,0:0:0:0:
256,188,93385,1,8,0:0:0:0:
256,188,93476,1,0,0:0:0:0:
256,188,93568,1,0,0:0:0:0:
256,188,93659,1,0,0:0:0:0:
256,188,93751,1,8,0:0:0:0:
256,188,93934,1,8,0:0:0:0:
256,188,94025,1,8,0:0:0:0:
256,188,94117,1,8,0:0:0:0:
256,188,94208,1,0,0:0:0:0:
256,188,94300,1,8,0:0:0:0:
256,188,94483,1,8,0:0:0:0:
256,188,94574,1,8,0:0:0:0:
256,188,94665,1,0,0:0:0:0:
256,188,94757,1,0,0:0:0:0:
256,188,94848,1,8,0:0:0:0:
256,188,94940,1,0,0:0:0:0:
256,188,95031,1,0,0:0:0:0:
256,188,95123,1,0,0:0:0:0:
256,188,95214,1,8,0:0:0:0:
256,188,95397,1,8,0:0:0:0:
256,188,95489,1,8,0:0:0:0:
256,188,95580,1,8,0:0:0:0:
256,188,95672,1,0,0:0:0:0:
256,188,95763,1,8,0:0:0:0:
256,188,95946,1,8,0:0:0:0:
256,188,96037,1,8,0:0:0:0:
256,188,96129,1,0,0:0:0:0:
256,188,96220,1,0,0:0:0:0:
256,188,96312,1,8,0:0:0:0:
256,188,96403,1,8,0:0:0:0:
256,188,96495,1,0,0:0:0:0:
256,188,96586,1,8,0:0:0:0:
256,188,96678,1,8,0:0:0:0:
256,188,96861,1,8,0:0:0:0:
256,188,96952,1,8,0:0:0:0:
256,188,97044,1,0,0:0:0:0:
256,188,97135,1,0,0:0:0:0:
256,188,97226,1,8,0:0:0:0:
256,188,97409,1,8,0:0:0:0:
256,188,97501,1,8,0:0:0:0:
256,188,97592,1,0,0:0:0:0:
256,188,97684,1,0,0:0:0:0:
256,188,97775,1,8,0:0:0:0:
256,188,97867,1,8,0:0:0:0:
256,188,97958,1,8,0:0:0:0:
256,188,98050,1,0,0:0:0:0:
256,188,98141,1,8,0:0:0:0:
256,188,98233,1,8,0:0:0:0:
256,188,98324,1,0,0:0:0:0:
256,188,98415,1,8,0:0:0:0:
256,188,98507,1,0,0:0:0:0:
256,188,98598,1,0,0:0:0:0:
256,188,98690,1,8,0:0:0:0:
256,188,98781,1,8,0:0:0:0:
256,188,98873,1,0,0:0:0:0:
256,188,98964,1,0,0:0:0:0:
256,188,99056,1,0,0:0:0:0:
256,188,99147,1,0,0:0:0:0:
256,188,99239,1,8,0:0:0:0:
292,188,99330,1,0,0:0:0:0:
292,188,99422,1,0,0:0:0:0:
256,188,99513,1,0,0:0:0:0:
256,188,99604,1,8,0:0:0:0:
256,188,99787,1,8,0:0:0:0:
256,188,99879,1,8,0:0:0:0:
256,188,99970,1,8,0:0:0:0:
256,188,100062,1,0,0:0:0:0:
256,188,100153,1,8,0:0:0:0:
256,188,100336,1,8,0:0:0:0:
256,188,100428,1,8,0:0:0:0:
256,188,100519,1,0,0:0:0:0:
256,188,100611,1,0,0:0:0:0:
256,188,100702,1,8,0:0:0:0:
256,188,100794,1,0,0:0:0:0:
256,188,100885,1,0,0:0:0:0:
256,188,100976,1,0,0:0:0:0:
256,188,101068,1,8,0:0:0:0:
256,188,101159,1,8,0:0:0:0:
256,188,101251,1,0,0:0:0:0:
256,188,101342,1,0,0:0:0:0:
256,188,101434,1,8,0:0:0:0:
256,188,101525,1,8,0:0:0:0:
256,188,101617,1,8,0:0:0:0:
256,188,101708,1,8,0:0:0:0:
256,188,101800,1,0,0:0:0:0:
256,188,101891,1,0,0:0:0:0:
256,188,101983,1,0,0:0:0:0:
256,188,102074,1,0,0:0:0:0:
256,188,102165,1,8,0:0:0:0:
256,188,102257,1,0,0:0:0:0:
256,188,102348,1,0,0:0:0:0:
256,188,102440,1,0,0:0:0:0:
256,188,102531,1,8,0:0:0:0:
256,188,102623,1,8,0:0:0:0:
256,188,102714,1,0,0:0:0:0:
256,188,102806,1,0,0:0:0:0:
256,188,102897,1,8,0:0:0:0:
256,188,102989,1,0,0:0:0:0:
256,188,103080,1,8,0:0:0:0:
256,188,103172,1,0,0:0:0:0:
256,188,103263,1,8,0:0:0:0:
256,188,103354,1,8,0:0:0:0:
256,188,103446,1,0,0:0:0:0:
256,188,103629,1,0,0:0:0:0:
256,188,103720,1,0,0:0:0:0:
256,188,103812,1,0,0:0:0:0:
256,188,103903,1,0,0:0:0:0:
256,188,103995,1,8,0:0:0:0:
256,188,104086,1,0,0:0:0:0:
256,188,104178,1,0,0:0:0:0:
256,188,104269,1,0,0:0:0:0:
256,188,104361,1,8,0:0:0:0:
256,188,104452,1,0,0:0:0:0:
256,188,104544,1,8,0:0:0:0:
256,188,104635,1,0,0:0:0:0:
256,188,104726,1,8,0:0:0:0:
256,188,104818,1,8,0:0:0:0:
256,188,104909,1,8,0:0:0:0:
256,188,105001,1,8,0:0:0:0:
256,188,105092,1,0,0:0:0:0:
256,188,105275,1,0,0:0:0:0:
256,188,105458,1,8,0:0:0:0:
256,188,105641,1,0,0:0:0:0:
256,188,105733,1,0,0:0:0:0:
256,188,105824,1,8,0:0:0:0:
256,188,106007,1,8,0:0:0:0:
256,188,106190,1,0,0:0:0:0:
256,188,106373,1,0,0:0:0:0:
256,188,106556,1,8,0:0:0:0:
256,188,106739,1,0,0:0:0:0:
256,188,106830,1,0,0:0:0:0:
256,188,106922,1,0,0:0:0:0:
256,188,107104,1,8,0:0:0:0:
256,188,107196,1,8,0:0:0:0:
256,188,107287,1,0,0:0:0:0:
256,188,107470,1,0,0:0:0:0:
256,188,107653,1,8,0:0:0:0:
256,188,107836,1,0,0:0:0:0:
256,188,108019,1,0,0:0:0:0:
256,188,108202,1,0,0:0:0:0:
256,188,108294,1,0,0:0:0:0:
256,188,108385,1,8,0:0:0:0:
256,188,108568,1,8,0:0:0:0:
256,188,108751,1,8,0:0:0:0:
256,188,108842,1,0,0:0:0:0:
256,188,108934,1,0,0:0:0:0:
256,188,109117,1,0,0:0:0:0:
256,188,109300,1,8,0:0:0:0:
256,188,109483,1,0,0:0:0:0:
256,188,109665,1,0,0:0:0:0:
256,188,109757,1,0,0:0:0:0:
256,188,109848,1,0,0:0:0:0:
256,188,110031,1,0,0:0:0:0:
256,188,110214,1,8,0:0:0:0:
256,188,110397,1,0,0:0:0:0:
256,188,110489,1,0,0:0:0:0:
256,188,110580,1,8,0:0:0:0:
256,188,110763,1,8,0:0:0:0:
256,188,110854,1,8,0:0:0:0:
256,188,110946,1,0,0:0:0:0:
256,188,111129,1,0,0:0:0:0:
256,188,111312,1,8,0:0:0:0:
256,188,111495,1,0,0:0:0:0:
256,188,111586,1,0,0:0:0:0:
256,188,111678,1,8,0:0:0:0:
256,188,111861,1,0,0:0:0:0:
256,188,112044,1,8,0:0:0:0:
256,188,112135,1,8,0:0:0:0:
256,188,112226,1,0,0:0:0:0:
256,188,112409,1,8,0:0:0:0:
256,188,112592,1,0,0:0:0:0:
256,188,112684,1,0,0:0:0:0:
256,188,112775,1,0,0:0:0:0:
256,188,112958,1,8,0:0:0:0:
256,188,113050,1,0,0:0:0:0:
256,188,113141,1,0,0:0:0:0:
256,188,113324,1,0,0:0:0:0:
256,188,113507,1,8,0:0:0:0:
256,188,113690,1,0,0:0:0:0:
256,188,113781,1,0,0:0:0:0:
256,188,113873,1,8,0:0:0:0:
256,188,114056,1,0,0:0:0:0:
256,188,114239,1,8,0:0:0:0:
256,188,114422,1,0,0:0:0:0:
256,188,114513,1,0,0:0:0:0:
256,188,114604,1,0,0:0:0:0:
256,188,114696,1,0,0:0:0:0:
256,188,114787,1,0,0:0:0:0:
256,188,114970,1,8,0:0:0:0:
256,188,115153,1,0,0:0:0:0:
256,188,115336,1,0,0:0:0:0:
256,188,115428,1,0,0:0:0:0:
256,188,115519,1,0,0:0:0:0:
256,188,115611,1,8,0:0:0:0:
256,188,115702,1,8,0:0:0:0:
256,188,115885,1,8,0:0:0:0:
256,188,115976,1,0,0:0:0:0:
256,188,116068,1,0,0:0:0:0:
256,188,116159,1,0,0:0:0:0:
256,188,116251,1,8,0:0:0:0:
256,188,116434,1,8,0:0:0:0:
256,188,116525,1,8,0:0:0:0:
256,188,116617,1,0,0:0:0:0:
256,188,116708,1,0,0:0:0:0:
256,188,116800,1,0,0:0:0:0:
256,188,116983,1,0,0:0:0:0:
256,188,117074,1,0,0:0:0:0:
256,188,117165,1,8,0:0:0:0:
256,188,117348,1,0,0:0:0:0:
256,188,117440,1,0,0:0:0:0:
256,188,117531,1,0,0:0:0:0:
256,188,117714,1,0,0:0:0:0:
256,188,117897,1,8,0:0:0:0:
256,188,118080,1,0,0:0:0:0:
256,188,118263,1,8,0:0:0:0:
256,188,118446,1,8,0:0:0:0:
256,188,118537,1,0,0:0:0:0:
256,188,118629,1,8,0:0:0:0:
256,188,118812,1,8,0:0:0:0:
256,188,118995,1,0,0:0:0:0:
256,188,119086,1,0,0:0:0:0:
256,188,119178,1,8,0:0:0:0:
256,188,119361,1,8,0:0:0:0:
256,188,119544,1,0,0:0:0:0:
256,188,119726,1,8,0:0:0:0:
256,188,119909,1,0,0:0:0:0:
256,188,120001,1,0,0:0:0:0:
256,188,120092,1,8,0:0:0:0:
256,188,120275,1,8,0:0:0:0:
256,188,120458,1,0,0:0:0:0:
256,188,120550,1,0,0:0:0:0:
256,188,120641,1,8,0:0:0:0:
256,188,120824,1,8,0:0:0:0:
256,188,120915,1,0,0:0:0:0:
256,188,121007,1,8,0:0:0:0:
256,188,121190,1,0,0:0:0:0:
224,242,121373,1,0,0:0:0:0:
240,215,121464,1,0,0:0:0:0:
256,188,121556,1,8,0:0:0:0:
256,188,121739,1,8,0:0:0:0:
256,188,121830,1,0,0:0:0:0:
256,188,121922,1,8,0:0:0:0:
256,188,122104,1,0,0:0:0:0:
256,188,122287,1,8,0:0:0:0:
256,188,122470,1,0,0:0:0:0:
256,188,122562,1,0,0:0:0:0:
256,188,122653,1,0,0:0:0:0:
256,188,122836,1,0,0:0:0:0:
256,188,123019,1,8,0:0:0:0:
256,188,123202,1,8,0:0:0:0:
256,188,123294,1,0,0:0:0:0:
256,188,123385,1,0,0:0:0:0:
256,188,123568,1,0,0:0:0:0:
256,188,123751,1,8,0:0:0:0:
256,188,123934,1,0,0:0:0:0:
256,188,124025,1,0,0:0:0:0:
256,188,124117,1,0,0:0:0:0:
256,188,124300,1,0,0:0:0:0:
256,188,124483,1,8,0:0:0:0:
256,188,124665,1,0,0:0:0:0:
256,188,124848,1,0,0:0:0:0:
256,188,124940,1,0,0:0:0:0:
256,188,125031,1,0,0:0:0:0:
256,188,125214,1,8,0:0:0:0:
256,188,125397,1,0,0:0:0:0:
256,188,125580,1,8,0:0:0:0:
256,188,125763,1,0,0:0:0:0:
256,188,125946,1,8,0:0:0:0:
256,188,126129,1,8,0:0:0:0:
256,188,126220,1,0,0:0:0:0:
256,188,126312,1,0,0:0:0:0:
256,188,126495,1,0,0:0:0:0:
256,188,126678,1,8,0:0:0:0:
256,188,126861,1,0,0:0:0:0:
256,188,127044,1,0,0:0:0:0:
256,188,127135,1,0,0:0:0:0:
256,188,127226,1,0,0:0:0:0:
256,188,127318,1,0,0:0:0:0:
256,188,127409,1,8,0:0:0:0:
256,188,127592,1,0,0:0:0:0:
256,188,127684,1,0,0:0:0:0:
256,188,127775,1,8,0:0:0:0:
256,188,127958,1,8,0:0:0:0:
256,188,128050,1,8,0:0:0:0:
256,188,128141,1,8,0:0:0:0:
256,188,128324,1,8,0:0:0:0:
256,188,128507,1,12,0:0:0:0:
256,188,128873,1,0,0:0:0:0:
256,188,129056,1,8,0:0:0:0:
256,188,129422,1,8,0:0:0:0:
256,188,129787,1,8,0:0:0:0:
256,188,129970,1,0,0:0:0:0:
256,188,130519,1,0,0:0:0:0:
256,188,131068,1,0,0:0:0:0:
256,188,131434,1,8,0:0:0:0:
256,188,131983,1,8,0:0:0:0:
228,192,132897,1,0,0:0:0:0:
228,192,132989,1,0,0:0:0:0:
228,192,133080,1,8,0:0:0:0:
228,192,133263,1,0,0:0:0:0:
228,192,133354,1,0,0:0:0:0:
228,192,133446,1,8,0:0:0:0:
228,192,133629,1,8,0:0:0:0:
228,192,133720,1,0,0:0:0:0:
228,192,133812,1,8,0:0:0:0:
228,192,133995,1,8,0:0:0:0:
228,192,134178,1,8,0:0:0:0:
228,192,134269,1,8,0:0:0:0:
228,192,134361,1,0,0:0:0:0:
228,192,134726,1,0,0:0:0:0:
228,192,134909,1,8,0:0:0:0:
228,192,135275,1,0,0:0:0:0:
228,192,135458,1,8,0:0:0:0:
228,192,135641,1,8,0:0:0:0:
228,192,135824,1,8,0:0:0:0:
228,192,136190,1,0,0:0:0:0:
228,192,136373,1,0,0:0:0:0:
228,192,136922,1,0,0:0:0:0:
229,249,137104,1,0,0:0:0:0:
228,192,137287,1,8,0:0:0:0:
228,192,137653,1,8,0:0:0:0:
228,192,137836,1,0,0:0:0:0:
228,192,138202,1,0,0:0:0:0:
228,192,138568,1,8,0:0:0:0:
228,192,139117,1,0,0:0:0:0:
228,192,139483,1,0,0:0:0:0:
228,192,139848,1,8,0:0:0:0:
228,192,140214,1,12,0:0:0:0:
228,192,140580,1,0,0:0:0:0:
228,192,140763,1,8,0:0:0:0:
228,192,141129,1,0,0:0:0:0:
228,192,141495,1,8,0:0:0:0:
228,192,141678,1,0,0:0:0:0:
228,192,141861,1,8,0:0:0:0:
228,192,142226,1,8,0:0:0:0:
228,192,142592,1,8,0:0:0:0:
228,192,142958,1,0,0:0:0:0:
228,192,143141,1,8,0:0:0:0:
228,192,143324,1,8,0:0:0:0:
228,192,143507,1,0,0:0:0:0:
228,192,143690,1,8,0:0:0:0:
228,192,144056,1,8,0:0:0:0:
228,192,144239,1,0,0:0:0:0:
228,192,144422,1,8,0:0:0:0:
228,192,144604,1,8,0:0:0:0:
228,192,144970,1,8,0:0:0:0:
228,192,145336,1,8,0:0:0:0:
228,192,145702,1,8,0:0:0:0:
228,192,146068,1,12,0:0:0:0:
228,192,146251,1,0,0:0:0:0:
228,192,146434,1,8,0:0:0:0:
228,192,146617,1,0,0:0:0:0:
228,192,146800,1,8,0:0:0:0:
228,192,146983,1,0,0:0:0:0:
228,192,147165,1,8,0:0:0:0:
228,192,147348,1,0,0:0:0:0:
228,192,147531,1,8,0:0:0:0:
228,192,147714,1,0,0:0:0:0:
228,192,147897,1,8,0:0:0:0:
228,192,148080,1,0,0:0:0:0:
228,192,148172,1,0,0:0:0:0:
228,192,148263,1,8,0:0:0:0:
228,192,148446,1,0,0:0:0:0:
228,192,148629,1,8,0:0:0:0:
228,192,148720,1,8,0:0:0:0:
228,192,148903,1,8,0:0:0:0:
228,192,148995,1,8,0:0:0:0:
228,192,149178,1,0,0:0:0:0:
228,192,149361,1,0,0:0:0:0:
228,192,149544,1,0,0:0:0:0:
228,192,149726,1,8,0:0:0:0:
228,192,149909,1,0,0:0:0:0:
228,192,150092,1,0,0:0:0:0:
228,192,150275,1,0,0:0:0:0:
228,192,150458,1,8,0:0:0:0:
228,192,150550,1,0,0:0:0:0:
228,192,150641,1,0,0:0:0:0:
228,192,150733,1,0,0:0:0:0:
228,192,150824,1,0,0:0:0:0:
228,192,150915,1,0,0:0:0:0:
228,192,151007,1,0,0:0:0:0:
228,192,151098,1,0,0:0:0:0:
228,192,151190,1,8,0:0:0:0:
228,192,151281,1,8,0:0:0:0:
228,192,151373,1,8,0:0:0:0:
228,192,151464,1,8,0:0:0:0:
228,192,151556,1,8,0:0:0:0:
228,192,151647,1,8,0:0:0:0:
228,192,151739,1,8,0:0:0:0:
228,192,151922,1,12,0:0:0:0:
228,192,152104,1,0,0:0:0:0:
228,192,152196,1,0,0:0:0:0:
228,192,152287,1,8,0:0:0:0:
228,192,152470,1,0,0:0:0:0:
228,192,152562,1,0,0:0:0:0:
228,192,152653,1,8,0:0:0:0:
228,192,152745,1,8,0:0:0:0:
228,192,152836,1,0,0:0:0:0:
228,192,152928,1,0,0:0:0:0:
228,192,153019,1,8,0:0:0:0:
228,192,153111,1,0,0:0:0:0:
228,192,153202,1,8,0:0:0:0:
228,192,153294,1,0,0:0:0:0:
228,192,153385,1,8,0:0:0:0:
228,192,153476,1,0,0:0:0:0:
228,192,153568,1,0,0:0:0:0:
228,192,153659,1,8,0:0:0:0:
228,192,153751,1,0,0:0:0:0:
228,192,153842,1,0,0:0:0:0:
228,192,153934,1,8,0:0:0:0:
228,192,154025,1,0,0:0:0:0:
228,192,154117,1,0,0:0:0:0:
228,192,154208,1,8,0:0:0:0:
228,192,154300,1,8,0:0:0:0:
228,192,154391,1,0,0:0:0:0:
228,192,154483,1,8,0:0:0:0:
228,192,154574,1,8,0:0:0:0:
228,192,154665,1,8,0:0:0:0:
228,192,154757,1,0,0:0:0:0:
228,192,154848,1,0,0:0:0:0:
228,192,154940,1,0,0:0:0:0:
228,192,155031,1,8,0:0:0:0:
228,192,155123,1,0,0:0:0:0:
228,192,155214,1,8,0:0:0:0:
228,192,155397,1,8,0:0:0:0:
228,192,155489,1,8,0:0:0:0:
228,192,155580,1,8,0:0:0:0:
228,192,155672,1,0,0:0:0:0:
228,192,155763,1,8,0:0:0:0:
228,192,155854,1,0,0:0:0:0:
228,192,155946,1,8,0:0:0:0:
228,192,156037,1,8,0:0:0:0:
228,192,156129,1,0,0:0:0:0:
228,192,156220,1,0,0:0:0:0:
228,192,156312,1,0,0:0:0:0:
228,192,156403,1,0,0:0:0:0:
228,192,156495,1,0,0:0:0:0:
228,192,156586,1,8,0:0:0:0:
228,192,156678,1,8,0:0:0:0:
228,192,156861,1,8,0:0:0:0:
228,192,156952,1,0,0:0:0:0:
228,192,157044,1,8,0:0:0:0:
228,192,157226,1,0,0:0:0:0:
228,192,157318,1,8,0:0:0:0:
228,192,157409,1,8,0:0:0:0:
228,192,157592,1,0,0:0:0:0:
228,192,157684,1,0,0:0:0:0:
228,192,157775,1,8,0:0:0:0:
228,192,157867,1,0,0:0:0:0:
228,192,157958,1,8,0:0:0:0:
228,192,158050,1,0,0:0:0:0:
228,192,158141,1,8,0:0:0:0:
228,192,158233,1,8,0:0:0:0:
228,192,158324,1,8,0:0:0:0:
228,192,158415,1,8,0:0:0:0:
228,192,158507,1,0,0:0:0:0:
228,192,158598,1,0,0:0:0:0:
228,192,158690,1,0,0:0:0:0:
228,192,158781,1,0,0:0:0:0:
228,192,158873,1,8,0:0:0:0:
228,192,158964,1,8,0:0:0:0:
228,192,159056,1,0,0:0:0:0:
228,192,159147,1,0,0:0:0:0:
228,192,159239,1,8,0:0:0:0:
228,192,159330,1,0,0:0:0:0:
228,192,159422,1,0,0:0:0:0:
228,192,159513,1,0,0:0:0:0:
228,192,159604,1,8,0:0:0:0:
228,192,159787,1,8,0:0:0:0:
228,192,159879,1,0,0:0:0:0:
228,192,159970,1,8,0:0:0:0:
228,192,160062,1,0,0:0:0:0:
228,192,160153,1,8,0:0:0:0:
228,192,160245,1,0,0:0:0:0:
228,192,160336,1,8,0:0:0:0:
228,192,160428,1,8,0:0:0:0:
228,192,160519,1,8,0:0:0:0:
228,192,160611,1,0,0:0:0:0:
228,192,160702,1,8,0:0:0:0:
228,192,160794,1,8,0:0:0:0:
188,204,160885,1,0,0:0:0:0:
228,192,160976,1,8,0:0:0:0:
228,192,161068,1,8,0:0:0:0:
228,192,161251,1,0,0:0:0:0:
228,192,161342,1,0,0:0:0:0:
228,192,161434,1,8,0:0:0:0:
228,192,161525,1,0,0:0:0:0:
228,192,161617,1,8,0:0:0:0:
228,192,161708,1,0,0:0:0:0:
228,192,161800,1,8,0:0:0:0:
228,192,161891,1,8,0:0:0:0:
228,192,161983,1,8,0:0:0:0:
228,192,162074,1,0,0:0:0:0:
228,192,162165,1,0,0:0:0:0:
228,192,162257,1,0,0:0:0:0:
228,192,162348,1,8,0:0:0:0:
228,192,162440,1,0,0:0:0:0:
228,192,162531,1,8,0:0:0:0:
228,192,162623,1,8,0:0:0:0:
228,192,162714,1,8,0:0:0:0:
228,192,162806,1,0,0:0:0:0:
228,192,162897,1,8,0:0:0:0:
228,192,162989,1,0,0:0:0:0:
228,192,163080,1,0,0:0:0:0:
228,192,163172,1,0,0:0:0:0:
228,192,163263,1,8,0:0:0:0:
228,192,163354,1,0,0:0:0:0:
228,192,163446,1,0,0:0:0:0:
228,192,163537,1,0,0:0:0:0:
228,192,163629,1,8,0:0:0:0:
228,192,163812,1,0,0:0:0:0:
228,192,163903,1,0,0:0:0:0:
228,192,163995,1,8,0:0:0:0:
228,192,164178,1,0,0:0:0:0:
228,192,164269,1,0,0:0:0:0:
228,192,164361,1,8,0:0:0:0:
228,192,164452,1,8,0:0:0:0:
228,192,164544,1,0,0:0:0:0:
228,192,164635,1,0,0:0:0:0:
228,192,164726,1,8,0:0:0:0:
228,192,164818,1,0,0:0:0:0:
228,192,164909,1,8,0:0:0:0:
228,192,165001,1,0,0:0:0:0:
228,192,165092,1,8,0:0:0:0:
228,192,165184,1,0,0:0:0:0:
228,192,165275,1,0,0:0:0:0:
228,192,165367,1,8,0:0:0:0:
228,192,165458,1,0,0:0:0:0:
228,192,165550,1,0,0:0:0:0:
228,192,165641,1,8,0:0:0:0:
228,192,165733,1,0,0:0:0:0:
228,192,165824,1,0,0:0:0:0:
228,192,165915,1,8,0:0:0:0:
228,192,166007,1,8,0:0:0:0:
228,192,166098,1,0,0:0:0:0:
228,192,166190,1,8,0:0:0:0:
228,192,166281,1,0,0:0:0:0:
228,192,166373,1,8,0:0:0:0:
228,192,166464,1,0,0:0:0:0:
228,192,166556,1,0,0:0:0:0:
228,192,166647,1,0,0:0:0:0:
228,192,166739,1,8,0:0:0:0:
228,192,166830,1,0,0:0:0:0:
228,192,166922,1,8,0:0:0:0:
228,192,167104,1,8,0:0:0:0:
228,192,167196,1,0,0:0:0:0:
228,192,167287,1,8,0:0:0:0:
228,192,167379,1,8,0:0:0:0:
228,192,167470,1,8,0:0:0:0:
228,192,167562,1,0,0:0:0:0:
228,192,167653,1,8,0:0:0:0:
228,192,167745,1,8,0:0:0:0:
228,192,167836,1,0,0:0:0:0:
228,192,167928,1,0,0:0:0:0:
228,192,168019,1,0,0:0:0:0:
228,192,168111,1,0,0:0:0:0:
228,192,168202,1,0,0:0:0:0:
228,192,168294,1,8,0:0:0:0:
228,192,168385,1,8,0:0:0:0:
228,192,168568,1,8,0:0:0:0:
228,192,168659,1,0,0:0:0:0:
228,192,168751,1,8,0:0:0:0:
228,192,168934,1,0,0:0:0:0:
228,192,169025,1,8,0:0:0:0:
228,192,169117,1,8,0:0:0:0:
228,192,169300,1,0,0:0:0:0:
228,192,169391,1,0,0:0:0:0:
228,192,169483,1,8,0:0:0:0:
228,192,169574,1,8,0:0:0:0:
228,192,169665,1,8,0:0:0:0:
228,192,169757,1,0,0:0:0:0:
228,192,169848,1,8,0:0:0:0:
228,192,169940,1,8,0:0:0:0:
228,192,170031,1,8,0:0:0:0:
228,192,170123,1,8,0:0:0:0:
228,192,170214,1,0,0:0:0:0:
228,192,170306,1,0,0:0:0:0:
228,192,170397,1,0,0:0:0:0:
228,192,170489,1,0,0:0:0:0:
228,192,170580,1,8,0:0:0:0:
228,192,170672,1,0,0:0:0:0:
228,192,170763,1,0,0:0:0:0:
228,192,170854,1,0,0:0:0:0:
228,192,170946,1,8,0:0:0:0:
228,192,171037,1,0,0:0:0:0:
228,192,171129,1,8,0:0:0:0:
228,192,171220,1,8,0:0:0:0:
228,192,171312,1,8,0:0:0:0:
228,192,171495,1,0,0:0:0:0:
228,192,171586,1,0,0:0:0:0:
228,192,171678,1,8,0:0:0:0:
228,192,171769,1,0,0:0:0:0:
228,192,171861,1,8,0:0:0:0:
228,192,171952,1,8,0:0:0:0:
228,192,172044,1,8,0:0:0:0:
228,192,172135,1,0,0:0:0:0:
228,192,172226,1,8,0:0:0:0:
228,192,172318,1,0,0:0:0:0:
228,192,172409,1,8,0:0:0:0:
228,192,172501,1,8,0:0:0:0:
228,192,172592,1,0,0:0:0:0:
228,192,172684,1,0,0:0:0:0:
228,192,172775,1,8,0:0:0:0:
228,192,172958,1,8,0:0:0:0:
228,192,173050,1,0,0:0:0:0:
228,192,173141,1,0,0:0:0:0:
228,192,173233,1,0,0:0:0:0:
228,192,173324,1,8,0:0:0:0:
228,192,173415,1,0,0:0:0:0:
228,192,173507,1,8,0:0:0:0:
228,192,173598,1,8,0:0:0:0:
228,192,173690,1,8,0:0:0:0:
228,192,173781,1,8,0:0:0:0:
228,192,173873,1,0,0:0:0:0:
228,192,173964,1,0,0:0:0:0:
228,192,174056,1,8,0:0:0:0:
228,192,174147,1,0,0:0:0:0:
228,192,174239,1,8,0:0:0:0:
228,192,174330,1,8,0:0:0:0:
228,192,174422,1,8,0:0:0:0:
228,192,174513,1,8,0:0:0:0:
228,192,174604,1,8,0:0:0:0:
228,192,174696,1,0,0:0:0:0:
228,192,174787,1,0,0:0:0:0:
228,192,174879,1,0,0:0:0:0:
228,192,174970,1,8,0:0:0:0:
228,192,175062,1,0,0:0:0:0:
228,192,175153,1,0,0:0:0:0:
228,192,175245,1,0,0:0:0:0:
228,192,175336,1,8,0:0:0:0:
228,192,175519,1,0,0:0:0:0:
228,192,175611,1,0,0:0:0:0:
228,192,175702,1,8,0:0:0:0:
228,192,175885,1,0,0:0:0:0:
228,192,175976,1,0,0:0:0:0:
228,192,176068,1,8,0:0:0:0:
228,192,176159,1,8,0:0:0:0:
228,192,176251,1,0,0:0:0:0:
228,192,176342,1,0,0:0:0:0:
228,192,176434,1,8,0:0:0:0:
228,192,176525,1,0,0:0:0:0:
228,192,176617,1,8,0:0:0:0:
228,192,176708,1,0,0:0:0:0:
228,192,176800,1,8,0:0:0:0:
228,192,176891,1,0,0:0:0:0:
228,192,176983,1,0,0:0:0:0:
228,192,177074,1,8,0:0:0:0:
228,192,177165,1,0,0:0:0:0:
228,192,177257,1,0,0:0:0:0:
228,192,177348,1,8,0:0:0:0:
228,192,177440,1,0,0:0:0:0:
228,192,177531,1,0,0:0:0:0:
228,192,177623,1,8,0:0:0:0:
228,192,177714,1,8,0:0:0:0:
228,192,177806,1,0,0:0:0:0:
228,192,177897,1,8,0:0:0:0:
228,192,177989,1,8,0:0:0:0:
228,192,178080,1,8,0:0:0:0:
228,192,178172,1,0,0:0:0:0:
228,192,178263,1,8,0:0:0:0:
228,192,178354,1,0,0:0:0:0:
228,192,178446,1,8,0:0:0:0:
228,192,178537,1,8,0:0:0:0:
228,192,178629,1,8,0:0:0:0:
228,192,178812,1,8,0:0:0:0:
228,192,178903,1,8,0:0:0:0:
228,192,178995,1,8,0:0:0:0:
228,192,179086,1,0,0:0:0:0:
228,192,179178,1,8,0:0:0:0:
228,192,179269,1,8,0:0:0:0:
228,192,179361,1,8,0:0:0:0:
228,192,179452,1,0,0:0:0:0:
228,192,179544,1,8,0:0:0:0:
228,192,179635,1,0,0:0:0:0:
228,192,179726,1,8,0:0:0:0:
228,192,179818,1,8,0:0:0:0:
228,192,179909,1,0,0:0:0:0:
228,192,180001,1,8,0:0:0:0:
228,192,180092,1,8,0:0:0:0:
228,192,180275,1,8,0:0:0:0:
228,192,180367,1,0,0:0:0:0:
228,192,180458,1,8,0:0:0:0:
228,192,180641,1,0,0:0:0:0:
228,192,180733,1,8,0:0:0:0:
228,192,180824,1,8,0:0:0:0:
228,192,181007,1,0,0:0:0:0:
228,192,181098,1,0,0:0:0:0:
228,192,181190,1,8,0:0:0:0:
228,192,181281,1,0,0:0:0:0:
228,192,181373,1,8,0:0:0:0:
228,192,181464,1,0,0:0:0:0:
228,192,181556,1,8,0:0:0:0:
228,192,181647,1,8,0:0:0:0:
228,192,181739,1,8,0:0:0:0:
228,192,181830,1,0,0:0:0:0:
228,192,181922,1,8,0:0:0:0:
228,192,182013,1,8,0:0:0:0:
228,192,182104,1,0,0:0:0:0:
228,192,182196,1,0,0:0:0:0:
228,192,182287,1,8,0:0:0:0:
228,192,182379,1,0,0:0:0:0:
228,192,182470,1,0,0:0:0:0:
228,192,182562,1,0,0:0:0:0:
228,192,182653,1,8,0:0:0:0:
228,192,182745,1,8,0:0:0:0:
228,192,182836,1,0,0:0:0:0:
228,192,182928,1,0,0:0:0:0:
228,192,183019,1,8,0:0:0:0:
228,192,183202,1,8,0:0:0:0:
228,192,183294,1,0,0:0:0:0:
228,192,183385,1,8,0:0:0:0:
228,192,183476,1,8,0:0:0:0:
228,192,183568,1,8,0:0:0:0:
228,192,183659,1,0,0:0:0:0:
228,192,183751,1,8,0:0:0:0:
228,192,183842,1,8,0:0:0:0:
228,192,183934,1,0,0:0:0:0:
228,192,184025,1,0,0:0:0:0:
228,192,184117,1,8,0:0:0:0:
228,192,184208,1,8,0:0:0:0:
228,192,184300,1,0,0:0:0:0:
228,192,184391,1,8,0:0:0:0:
228,192,184483,1,8,0:0:0:0:
228,192,184574,1,0,0:0:0:0:
228,192,184665,1,0,0:0:0:0:
228,192,184757,1,8,0:0:0:0:
228,192,184848,1,8,0:0:0:0:
228,192,184940,1,0,0:0:0:0:
228,192,185031,1,8,0:0:0:0:
228,192,185123,1,0,0:0:0:0:
228,192,185214,1,8,0:0:0:0:
228,192,185306,1,8,0:0:0:0:
228,192,185397,1,8,0:0:0:0:
228,192,185489,1,0,0:0:0:0:
228,192,185580,1,0,0:0:0:0:
228,192,185672,1,0,0:0:0:0:
228,192,185763,1,8,0:0:0:0:
228,192,185854,1,0,0:0:0:0:
228,192,185946,1,8,0:0:0:0:
228,192,186037,1,8,0:0:0:0:
228,192,186129,1,8,0:0:0:0:
228,192,186220,1,8,0:0:0:0:
228,192,186312,1,8,0:0:0:0:
228,192,186403,1,0,0:0:0:0:
228,192,186495,1,8,0:0:0:0:
228,192,186586,1,8,0:0:0:0:
228,192,186678,1,8,0:0:0:0:
228,192,186769,1,0,0:0:0:0:
228,192,186861,1,0,0:0:0:0:
228,192,186952,1,0,0:0:0:0:
228,192,187044,1,8,0:0:0:0:
228,192,187226,1,0,0:0:0:0:
228,192,187318,1,0,0:0:0:0:
228,192,187409,1,8,0:0:0:0:
228,192,187592,1,0,0:0:0:0:
228,192,187684,1,0,0:0:0:0:
228,192,187775,1,8,0:0:0:0:
228,192,187867,1,8,0:0:0:0:
228,192,187958,1,0,0:0:0:0:
228,192,188050,1,0,0:0:0:0:
228,192,188141,1,8,0:0:0:0:
228,192,188233,1,0,0:0:0:0:
228,192,188324,1,8,0:0:0:0:
228,192,188415,1,0,0:0:0:0:
228,192,188507,1,8,0:0:0:0:
228,192,188598,1,0,0:0:0:0:
228,192,188690,1,0,0:0:0:0:
228,192,188781,1,8,0:0:0:0:
228,192,188873,1,0,0:0:0:0:
228,192,188964,1,0,0:0:0:0:
228,192,189056,1,8,0:0:0:0:
228,192,189147,1,0,0:0:0:0:
228,192,189239,1,0,0:0:0:0:
228,192,189330,1,8,0:0:0:0:
228,192,189422,1,8,0:0:0:0:
228,192,189513,1,0,0:0:0:0:
228,192,189604,1,8,0:0:0:0:
228,192,189696,1,8,0:0:0:0:
228,192,189787,1,8,0:0:0:0:
228,192,189879,1,0,0:0:0:0:
228,192,189970,1,0,0:0:0:0:
228,192,190062,1,0,0:0:0:0:
228,192,190153,1,8,0:0:0:0:
228,192,190245,1,0,0:0:0:0:
228,192,190336,1,8,0:0:0:0:
228,192,190519,1,8,0:0:0:0:
228,192,190611,1,8,0:0:0:0:
228,192,190702,1,0,0:0:0:0:
228,192,190794,1,0,0:0:0:0:
228,192,190885,1,8,0:0:0:0:
228,192,190976,1,0,0:0:0:0:
228,192,191068,1,8,0:0:0:0:
228,192,191159,1,0,0:0:0:0:
228,192,191251,1,0,0:0:0:0:
228,192,191342,1,0,0:0:0:0:
228,192,191434,1,8,0:0:0:0:
228,192,191525,1,8,0:0:0:0:
228,192,191617,1,0,0:0:0:0:
228,192,191708,1,8,0:0:0:0:
228,192,191800,1,8,0:0:0:0:
228,192,191983,1,8,0:0:0:0:
228,192,192074,1,0,0:0:0:0:
228,192,192165,1,8,0:0:0:0:
228,192,192348,1,0,0:0:0:0:
228,192,192440,1,8,0:0:0:0:
228,192,192531,1,8,0:0:0:0:
228,192,192714,1,8,0:0:0:0:
228,192,192806,1,0,0:0:0:0:
228,192,192897,1,8,0:0:0:0:
228,192,193080,1,8,0:0:0:0:
228,192,193172,1,0,0:0:0:0:
228,192,193263,1,8,0:0:0:0:
228,192,193354,1,8,0:0:0:0:
228,192,193446,1,8,0:0:0:0:
228,192,193537,1,0,0:0:0:0:
228,192,193629,1,0,0:0:0:0:
228,192,193720,1,0,0:0:0:0:
228,192,193812,1,8,0:0:0:0:
228,192,193903,1,0,0:0:0:0:
228,192,193995,1,8,0:0:0:0:
228,192,194086,1,8,0:0:0:0:
228,192,194178,1,0,0:0:0:0:
228,192,194269,1,0,0:0:0:0:
228,192,194361,1,8,0:0:0:0:
228,192,194452,1,8,0:0:0:0:
228,192,194544,1,0,0:0:0:0:
228,192,194635,1,0,0:0:0:0:
228,192,194726,1,8,0:0:0:0:
228,192,194909,1,8,0:0:0:0:
228,192,195001,1,8,0:0:0:0:
228,192,195092,1,0,0:0:0:0:
228,192,195184,1,0,0:0:0:0:
228,192,195275,1,8,0:0:0:0:
228,192,195367,1,8,0:0:0:0:
228,192,195458,1,8,0:0:0:0:
228,192,195550,1,0,0:0:0:0:
228,192,195641,1,0,0:0:0:0:
228,192,195733,1,0,0:0:0:0:
228,192,195824,1,8,0:0:0:0:
228,192,195915,1,8,0:0:0:0:
228,192,196007,1,8,0:0:0:0:
228,192,196098,1,0,0:0:0:0:
228,192,196190,1,8,0:0:0:0:
228,192,196373,1,8,0:0:0:0:
228,192,196464,1,0,0:0:0:0:
228,192,196556,1,0,0:0:0:0:
228,192,196647,1,0,0:0:0:0:
228,192,196739,1,8,0:0:0:0:
228,192,196830,1,0,0:0:0:0:
228,192,196922,1,8,0:0:0:0:
228,192,197104,1,8,0:0:0:0:
228,192,197196,1,0,0:0:0:0:
228,192,197287,1,0,0:0:0:0:
228,192,197379,1,0,0:0:0:0:
228,192,197470,1,8,0:0:0:0:
228,192,197562,1,8,0:0:0:0:
228,192,197653,1,0,0:0:0:0:
228,192,197745,1,8,0:0:0:0:
228,192,197836,1,8,0:0:0:0:
228,192,197928,1,8,0:0:0:0:
228,192,198019,1,0,0:0:0:0:
228,192,198111,1,8,0:0:0:0:
228,192,198202,1,8,0:0:0:0:
228,192,198294,1,0,0:0:0:0:
228,192,198385,1,8,0:0:0:0:
228,192,198476,1,8,0:0:0:0:
228,192,198568,1,0,0:0:0:0:
228,192,198659,1,8,0:0:0:0:
228,192,198751,1,0,0:0:0:0:
228,192,198934,1,8,0:0:0:0:
228,192,199025,1,0,0:0:0:0:
228,192,199117,1,8,0:0:0:0:
228,192,199208,1,0,0:0:0:0:
228,192,199300,1,0,0:0:0:0:
228,192,199483,1,8,0:0:0:0:
228,192,199665,1,8,0:0:0:0:
228,192,199757,1,0,0:0:0:0:
228,192,199848,1,0,0:0:0:0:
228,192,199940,1,0,0:0:0:0:
228,192,200031,1,0,0:0:0:0:
228,192,200214,1,8,0:0:0:0:
228,192,200397,1,8,0:0:0:0:
228,192,200489,1,0,0:0:0:0:
228,192,200580,1,8,0:0:0:0:
228,192,200763,1,8,0:0:0:0:
228,192,200854,1,8,0:0:0:0:
228,192,200946,1,0,0:0:0:0:
228,192,201037,1,0,0:0:0:0:
228,192,201129,1,8,0:0:0:0:
228,192,201312,1,8,0:0:0:0:
228,192,201495,1,8,0:0:0:0:
228,192,201678,1,0,0:0:0:0:
228,192,201769,1,0,0:0:0:0:
228,192,201861,1,0,0:0:0:0:
228,192,202044,1,8,0:0:0:0:
228,192,202226,1,8,0:0:0:0:
228,192,202318,1,0,0:0:0:0:
228,192,202409,1,8,0:0:0:0:
228,192,202592,1,8,0:0:0:0:
228,192,202684,1,8,0:0:0:0:
228,192,202775,1,8,0:0:0:0:
228,192,202958,1,8,0:0:0:0:
228,192,203050,1,0,0:0:0:0:
228,192,203141,1,0,0:0:0:0:
228,192,203324,1,0,0:0:0:0:
228,192,203507,1,8,0:0:0:0:
228,192,203690,1,0,0:0:0:0:
228,192,203781,1,0,0:0:0:0:
228,192,203873,1,8,0:0:0:0:
228,192,204056,1,0,0:0:0:0:
228,192,204147,1,0,0:0:0:0:
228,192,204239,1,8,0:0:0:0:
228,192,204330,1,8,0:0:0:0:
228,192,204422,1,0,0:0:0:0:
228,192,204604,1,8,0:0:0:0:
228,192,204787,1,0,0:0:0:0:
228,192,204879,1,0,0:0:0:0:
228,192,204970,1,8,0:0:0:0:
228,192,205153,1,0,0:0:0:0:
228,192,205245,1,0,0:0:0:0:
228,192,205336,1,0,0:0:0:0:
228,192,205519,1,0,0:0:0:0:
228,192,205702,1,8,0:0:0:0:
228,192,205885,1,8,0:0:0:0:
228,192,205976,1,0,0:0:0:0:
228,192,206068,1,8,0:0:0:0:
228,192,206251,1,0,0:0:0:0:
228,192,206342,1,0,0:0:0:0:
228,192,206434,1,0,0:0:0:0:
228,192,206617,1,8,0:0:0:0:
228,192,206708,1,0,0:0:0:0:
228,192,206800,1,8,0:0:0:0:
228,192,206983,1,8,0:0:0:0:
228,192,207074,1,0,0:0:0:0:
228,192,207165,1,8,0:0:0:0:
228,192,207257,1,8,0:0:0:0:
228,192,207348,1,0,0:0:0:0:
228,192,207531,1,8,0:0:0:0:
228,192,207714,1,0,0:0:0:0:
228,192,207806,1,0,0:0:0:0:
228,192,207897,1,0,0:0:0:0:
228,192,208080,1,8,0:0:0:0:
228,192,208263,1,0,0:0:0:0:
228,192,208354,1,0,0:0:0:0:
228,192,208446,1,8,0:0:0:0:
228,192,208629,1,8,0:0:0:0:
228,192,208720,1,0,0:0:0:0:
228,192,208812,1,8,0:0:0:0:
228,192,208995,1,0,0:0:0:0:
228,192,209178,1,0,0:0:0:0:
228,192,209269,1,0,0:0:0:0:
228,192,209361,1,8,0:0:0:0:
228,192,209544,1,8,0:0:0:0:
228,192,209635,1,0,0:0:0:0:
228,192,209726,1,8,0:0:0:0:
228,192,209909,1,0,0:0:0:0:
228,192,210001,1,0,0:0:0:0:
228,192,210092,1,8,0:0:0:0:
228,192,210275,1,0,0:0:0:0:
228,192,210458,1,12,0:0:0:0:
228,192,210641,1,0,0:0:0:0:
228,192,210824,1,8,0:0:0:0:
228,192,210915,1,0,0:0:0:0:
228,192,211007,1,0,0:0:0:0:
228,192,211098,1,8,0:0:0:0:
228,192,211190,1,8,0:0:0:0:
228,192,211373,1,8,0:0:0:0:
228,192,211464,1,8,0:0:0:0:
228,192,211556,1,0,0:0:0:0:
228,192,211739,1,0,0:0:0:0:
228,192,211922,1,0,0:0:0:0:
228,192,212104,1,0,0:0:0:0:
228,192,212196,1,0,0:0:0:0:
228,192,212287,1,8,0:0:0:0:
228,192,212470,1,8,0:0:0:0:
228,192,212562,1,8,0:0:0:0:
228,192,212653,1,8,0:0:0:0:
228,192,212836,1,0,0:0:0:0:
228,192,213019,1,8,0:0:0:0:
228,192,213202,1,8,0:0:0:0:
228,192,213385,1,0,0:0:0:0:
204,172,213476,1,0,0:0:0:0:
228,192,213568,1,0,0:0:0:0:
228,192,213751,1,8,0:0:0:0:
204,172,213842,1,0,0:0:0:0:
204,172,213934,1,0,0:0:0:0:
228,192,214117,1,8,0:0:0:0:
228,192,214208,1,0,0:0:0:0:
228,192,214300,1,8,0:0:0:0:
228,192,214483,1,8,0:0:0:0:
228,192,214665,1,8,0:0:0:0:
228,192,214757,1,0,0:0:0:0:
228,192,214848,1,0,0:0:0:0:
228,192,215031,1,0,0:0:0:0:
228,192,215214,1,8,0:0:0:0:
228,192,215397,1,0,0:0:0:0:
228,192,215489,1,0,0:0:0:0:
228,192,215580,1,8,0:0:0:0:
228,192,215763,1,0,0:0:0:0:
228,192,215854,1,0,0:0:0:0:
228,192,215946,1,8,0:0:0:0:
228,192,216129,1,0,0:0:0:0:
228,192,216312,1,8,0:0:0:0:
228,192,216403,1,8,0:0:0:0:
228,192,216495,1,0,0:0:0:0:
228,192,216678,1,0,0:0:0:0:
228,192,216861,1,8,0:0:0:0:
228,192,217044,1,0,0:0:0:0:
228,192,217135,1,0,0:0:0:0:
228,192,217226,1,0,0:0:0:0:
228,192,217409,1,8,0:0:0:0:
228,192,217592,1,8,0:0:0:0:
228,192,217775,1,0,0:0:0:0:
228,192,217958,1,0,0:0:0:0:
228,192,218050,1,0,0:0:0:0:
228,192,218141,1,8,0:0:0:0:
228,192,218324,1,0,0:0:0:0:
228,192,218507,1,8,0:0:0:0:
228,192,218598,1,0,0:0:0:0:
228,192,218690,1,0,0:0:0:0:
228,192,218873,1,8,0:0:0:0:
228,192,218964,1,0,0:0:0:0:
228,192,219056,1,8,0:0:0:0:
228,192,219239,1,0,0:0:0:0:
228,192,219330,1,0,0:0:0:0:
228,192,219422,1,8,0:0:0:0:
228,192,219513,1,8,0:0:0:0:
228,192,219604,1,0,0:0:0:0:
228,192,219696,1,0,0:0:0:0:
228,192,219787,1,8,0:0:0:0:
228,192,219879,1,8,0:0:0:0:
228,192,219970,1,0,0:0:0:0:
228,192,220153,1,8,0:0:0:0:
228,192,220245,1,8,0:0:0:0:
228,192,220336,1,0,0:0:0:0:
228,192,220519,1,8,0:0:0:0:
228,192,220702,1,0,0:0:0:0:
228,192,220885,1,8,0:0:0:0:
228,192,221251,1,8,0:0:0:0:
228,192,221434,1,0,0:0:0:0:
228,192,221617,1,0,0:0:0:0:
228,192,221800,1,0,0:0:0:0:
228,192,221983,1,0,0:0:0:0:
228,192,222165,1,4,0:0:0:0:
228,192,222348,1,0,0:0:0:0:
228,192,222440,1,0,0:0:0:0:
228,192,222531,1,8,0:0:0:0:
228,192,222714,1,8,0:0:0:0:
228,192,222806,1,0,0:0:0:0:
228,192,222897,1,0,0:0:0:0:
228,192,223080,1,0,0:0:0:0:
228,192,223263,1,8,0:0:0:0:
228,192,223446,1,0,0:0:0:0:
228,192,223537,1,0,0:0:0:0:
228,192,223629,1,8,0:0:0:0:
228,192,223812,1,0,0:0:0:0:
228,192,223903,1,0,0:0:0:0:
228,192,223995,1,8,0:0:0:0:
228,192,224178,1,8,0:0:0:0:
228,192,224361,1,0,0:0:0:0:
228,192,224544,1,8,0:0:0:0:
228,192,224635,1,0,0:0:0:0:
228,192,224726,1,0,0:0:0:0:
228,192,224909,1,8,0:0:0:0:
228,192,225001,1,8,0:0:0:0:
228,192,225092,1,0,0:0:0:0:
228,192,225275,1,0,0:0:0:0:
228,192,225367,1,0,0:0:0:0:
228,192,225458,1,8,0:0:0:0:
228,192,225550,1,8,0:0:0:0:
228,192,225641,1,0,0:0:0:0:
228,192,225733,1,0,0:0:0:0:
228,192,225824,1,8,0:0:0:0:
228,192,226007,1,8,0:0:0:0:
228,192,226098,1,0,0:0:0:0:
228,192,226190,1,8,0:0:0:0:
228,192,226373,1,8,0:0:0:0:
228,192,226556,1,0,0:0:0:0:
228,192,226739,1,0,0:0:0:0:
228,192,226830,1,0,0:0:0:0:
228,192,226922,1,8,0:0:0:0:
228,192,227104,1,0,0:0:0:0:
228,192,227196,1,0,0:0:0:0:
228,192,227287,1,0,0:0:0:0:
228,192,227470,1,0,0:0:0:0:
228,192,227562,1,0,0:0:0:0:
228,192,227653,1,8,0:0:0:0:
232,200,227745,1,0,0:0:0:0:
228,192,227836,1,0,0:0:0:0:
228,192,227928,1,0,0:0:0:0:
228,192,228019,1,8,0:0:0:0:
228,192,228202,1,0,0:0:0:0:
228,192,228385,1,8,0:0:0:0:
228,192,228568,1,8,0:0:0:0:
228,192,228659,1,8,0:0:0:0:
228,192,228751,1,0,0:0:0:0:
228,192,228842,1,0,0:0:0:0:
228,192,228934,1,0,0:0:0:0:
228,192,229117,1,8,0:0:0:0:
228,192,229300,1,8,0:0:0:0:
228,192,229391,1,0,0:0:0:0:
228,192,229483,1,0,0:0:0:0:
228,192,229665,1,0,0:0:0:0:
228,192,229757,1,0,0:0:0:0:
228,192,229848,1,8,0:0:0:0:
228,192,230031,1,8,0:0:0:0:
228,192,230123,1,0,0:0:0:0:
228,192,230214,1,0,0:0:0:0:
228,192,230397,1,8,0:0:0:0:
228,192,230489,1,0,0:0:0:0:
228,192,230580,1,8,0:0:0:0:
228,192,230763,1,0,0:0:0:0:
228,192,230946,1,0,0:0:0:0:
228,192,231129,1,0,0:0:0:0:
228,192,231220,1,0,0:0:0:0:
228,192,231312,1,8,0:0:0:0:
228,192,231495,1,8,0:0:0:0:
228,192,231678,1,0,0:0:0:0:
228,192,231861,1,0,0:0:0:0:
228,192,231952,1,0,0:0:0:0:
228,192,232044,1,8,0:0:0:0:
228,192,232226,1,8,0:0:0:0:
228,192,232409,1,0,0:0:0:0:
228,192,232592,1,0,0:0:0:0:
228,192,232684,1,0,0:0:0:0:
228,192,232775,1,8,0:0:0:0:
228,192,232958,1,0,0:0:0:0:
228,192,233050,1,0,0:0:0:0:
228,192,233141,1,8,0:0:0:0:
228,192,233233,1,8,0:0:0:0:
228,192,233324,1,0,0:0:0:0:
228,192,233507,1,8,0:0:0:0:
228,192,233598,1,8,0:0:0:0:
228,192,233690,1,0,0:0:0:0:
228,192,233873,1,12,0:0:0:0:
228,192,234056,1,0,0:0:0:0:
228,192,234147,1,0,0:0:0:0:
228,192,234239,1,8,0:0:0:0:
228,192,234422,1,0,0:0:0:0:
228,192,234513,1,8,0:0:0:0:
228,192,234604,1,8,0:0:0:0:
228,192,234787,1,0,0:0:0:0:
228,192,234970,1,8,0:0:0:0:
228,192,235153,1,8,0:0:0:0:
228,192,235245,1,8,0:0:0:0:
228,192,235336,1,0,0:0:0:0:
228,192,235519,1,0,0:0:0:0:
228,192,235611,1,0,0:0:0:0:
228,192,235702,1,8,0:0:0:0:
228,192,235885,1,8,0:0:0:0:
228,192,235976,1,8,0:0:0:0:
228,192,236068,1,8,0:0:0:0:
228,192,236251,1,0,0:0:0:0:
228,192,236434,1,8,0:0:0:0:
228,192,236525,1,0,0:0:0:0:
228,192,236617,1,0,0:0:0:0:
228,192,236708,1,0,0:0:0:0:
228,192,236800,1,0,0:0:0:0:
228,192,236983,1,0,0:0:0:0:
228,192,237165,1,8,0:0:0:0:
228,192,237348,1,8,0:0:0:0:
228,192,237531,1,0,0:0:0:0:
228,192,237714,1,8,0:0:0:0:
228,192,237897,1,8,0:0:0:0:
228,192,238080,1,8,0:0:0:0:
228,192,238172,1,8,0:0:0:0:
228,192,238263,1,0,0:0:0:0:
228,192,238446,1,0,0:0:0:0:
228,192,238629,1,8,0:0:0:0:
228,192,238812,1,0,0:0:0:0:
228,192,238903,1,0,0:0:0:0:
228,192,238995,1,8,0:0:0:0:
228,192,239178,1,0,0:0:0:0:
228,192,239269,1,0,0:0:0:0:
228,192,239361,1,8,0:0:0:0:
228,192,239452,1,0,0:0:0:0:
228,192,239544,1,0,0:0:0:0:
228,192,239726,1,8,0:0:0:0:
228,192,239909,1,0,0:0:0:0:
228,192,240001,1,0,0:0:0:0:
228,192,240092,1,8,0:0:0:0:
228,192,240184,1,0,0:0:0:0:
228,192,240275,1,0,0:0:0:0:
228,192,240458,1,0,0:0:0:0:
228,192,240550,1,0,0:0:0:0:
228,192,240641,1,0,0:0:0:0:
228,192,240824,1,8,0:0:0:0:
228,192,240915,1,8,0:0:0:0:
228,192,241007,1,8,0:0:0:0:
228,192,241190,1,0,0:0:0:0:
228,192,241373,1,0,0:0:0:0:
228,192,241464,1,0,0:0:0:0:
228,192,241556,1,8,0:0:0:0:
228,192,241739,1,8,0:0:0:0:
228,192,241830,1,0,0:0:0:0:
228,192,241922,1,8,0:0:0:0:
228,192,242104,1,0,0:0:0:0:
228,192,242196,1,0,0:0:0:0:
228,192,242287,1,8,0:0:0:0:
228,192,242470,1,8,0:0:0:0:
228,192,242653,1,0,0:0:0:0:
228,192,242745,1,0,0:0:0:0:
228,192,242836,1,0,0:0:0:0:
228,192,242928,1,0,0:0:0:0:
228,192,243019,1,8,0:0:0:0:
228,192,243202,1,0,0:0:0:0:
228,192,243294,1,0,0:0:0:0:
228,192,243385,1,0,0:0:0:0:
228,192,243568,1,0,0:0:0:0:
228,192,243751,1,8,0:0:0:0:
228,192,243842,1,0,0:0:0:0:
228,192,243934,1,0,0:0:0:0:
228,192,244025,1,0,0:0:0:0:
228,192,244117,1,0,0:0:0:0:
228,192,244483,1,8,0:0:0:0:
228,192,244665,1,0,0:0:0:0:
228,192,244848,1,0,0:0:0:0:
228,192,245031,1,0,0:0:0:0:
228,192,245214,1,8,0:0:0:0:
228,192,245397,1,0,0:0:0:0:
228,192,245580,1,4,0:0:0:0:
228,192,246312,1,8,0:0:0:0:
228,192,247044,1,8,0:0:0:0:
228,192,247409,1,0,0:0:0:0:
228,192,247592,1,8,0:0:0:0:
228,192,247958,1,8,0:0:0:0:
228,192,248324,1,0,0:0:0:0:
256,192,248507,12,0,249970,0:0:0:0:
256,188,251434,5,8,0:0:0:0:
256,188,251617,1,0,0:0:0:0:
256,188,251800,1,8,0:0:0:0:
256,188,251983,1,8,0:0:0:0:
256,188,252531,1,0,0:0:0:0:
256,188,252897,1,8,0:0:0:0:
256,188,253263,1,0,0:0:0:0:
256,188,253446,1,8,0:0:0:0:
256,188,253812,1,8,0:0:0:0:
256,188,253995,1,8,0:0:0:0:
256,188,254361,1,0,0:0:0:0:
256,188,254483,1,8,0:0:0:0:
256,188,254604,1,8,0:0:0:0:
256,188,254726,1,0,0:0:0:0:
256,188,254848,1,8,0:0:0:0:
256,188,254970,1,8,0:0:0:0:
256,188,255092,1,0,0:0:0:0:
256,188,255214,1,8,0:0:0:0:
256,188,255336,1,8,0:0:0:0:
256,188,255458,1,0,0:0:0:0:
256,188,255580,1,8,0:0:0:0:
256,188,255702,1,8,0:0:0:0:
256,188,255824,1,0,0:0:0:0:
256,188,255946,1,8,0:0:0:0:
256,188,256068,1,8,0:0:0:0:
256,188,256190,1,0,0:0:0:0:
256,188,256312,1,8,0:0:0:0:
256,188,256434,1,8,0:0:0:0:
256,188,256556,1,0,0:0:0:0:
256,188,256678,1,0,0:0:0:0:
256,188,256800,1,8,0:0:0:0:
256,188,256922,1,8,0:0:0:0:
256,188,257044,1,0,0:0:0:0:
256,188,257165,1,8,0:0:0:0:
256,188,257928,1,8,0:0:0:0:
256,188,258751,1,8,0:0:0:0:
256,188,259117,1,0,0:0:0:0:
256,188,259300,1,8,0:0:0:0:
256,188,259665,1,0,0:0:0:0:
256,188,260031,1,8,0:0:0:0:
256,188,261129,1,8,0:0:0:0:
256,188,261312,1,0,0:0:0:0:
256,188,261495,1,8,0:0:0:0:
256,188,262592,1,0,0:0:0:0:
256,188,262775,1,0,0:0:0:0:
256,188,262958,1,8,0:0:0:0:
256,188,263141,1,8,0:0:0:0:
256,188,263507,1,0,0:0:0:0:
256,188,263690,1,8,0:0:0:0:
256,188,263873,1,8,0:0:0:0:
256,188,265702,1,8,0:0:0:0:
256,188,265885,1,0,0:0:0:0:
256,188,266068,1,0,0:0:0:0:
256,188,267714,1,8,0:0:0:0:
256,188,268995,5,8,0:0:0:0:
252,168,270459,1,0,0:0:0:0:
252,168,271922,1,8,0:0:0:0:
252,168,273386,1,0,0:0:0:0:
252,168,273752,1,0,0:0:0:0:
252,168,274117,1,8,0:0:0:0:
252,168,274483,1,8,0:0:0:0:
252,168,274849,1,8,0:0:0:0:
252,168,275215,1,0,0:0:0:0:
252,168,275581,1,0,0:0:0:0:
252,168,275947,1,0,0:0:0:0:
252,168,276313,1,8,0:0:0:0:
252,168,277044,1,8,0:0:0:0:
252,168,277776,1,8,0:0:0:0:
252,168,278142,1,0,0:0:0:0:
252,168,278508,1,0,0:0:0:0:
252,168,278874,1,0,0:0:0:0:
252,168,279239,1,8,0:0:0:0:
256,188,279971,1,0,0:0:0:0:
256,188,280703,5,8,0:0:0:0:
252,168,282166,1,0,0:0:0:0:
252,168,283630,1,8,0:0:0:0:
252,168,285093,1,0,0:0:0:0:
252,168,285459,1,0,0:0:0:0:
252,168,285825,1,8,0:0:0:0:
252,168,286191,1,8,0:0:0:0:
252,168,286556,1,8,0:0:0:0:
252,168,286922,1,0,0:0:0:0:
252,168,287288,1,0,0:0:0:0:
252,168,287654,1,0,0:0:0:0:
252,168,288020,1,8,0:0:0:0:
252,168,288752,1,8,0:0:0:0:
252,168,289483,1,8,0:0:0:0:
252,168,289849,1,8,0:0:0:0:
252,168,290215,1,0,0:0:0:0:
252,168,290581,1,0,0:0:0:0:
252,168,290947,1,8,0:0:0:0:
256,188,291678,1,0,0:0:0:0:
256,192,292410,12,0,303386,0:0:0:0:
