osu file format v14

[General]
AudioFilename: audio.mp3
AudioLeadIn: 0
PreviewTime: 80857
Countdown: 1
SampleSet: Normal
StackLeniency: 0.7
Mode: 1
LetterboxInBreaks: 0
WidescreenStoryboard: 1

[Editor]
Bookmarks: 301768,301860,301951,302043,302134,302226,302317,302409,302500,302592,302683
DistanceSpacing: 0.8
BeatDivisor: 4
GridSize: 4
TimelineZoom: 2.4

[Metadata]
Title:True Blue
TitleUnicode:True Blue
Artist:dj TAKA
ArtistUnicode:dj TAKA
Creator:Chromoxx
Version:Tragic Love Oni
Source:jubeat saucer
Tags:aimee Beatmania IIDX 20 tricoro KONAMI BEMANI REFLEC BEAT colette pop'n music Sunny Park SOUND VOLTEX II -infinite infection- POLICY BREAK Dance Dance Revolution
BeatmapID:1430505
BeatmapSetID:676341

[Difficulty]
HPDrainRate:5
CircleSize:5
OverallDifficulty:6
ApproachRate:5
SliderMultiplier:1.4
SliderTickRate:1

[Events]
//Background and Video events
0,0,"bg.jpg",0,-100
//Break Periods
//Storyboard Layer 0 (Background)
//Storyboard Layer 1 (Fail)
//Storyboard Layer 2 (Pass)
//Storyboard Layer 3 (Foreground)
//Storyboard Sound Samples

[TimingPoints]
1221,365.853658536585,4,1,0,70,1,0
24613,365.853658536585,4,1,0,80,1,0
59729,365.853658536585,4,1,0,90,1,0
81680,-100,4,1,0,90,0,1
105094,-100,4,1,0,90,0,0
128692,-100,4,1,0,60,0,0
140216,-100,4,1,0,70,0,0
146070,-100,4,1,0,80,0,0
151924,-100,4,1,0,90,0,1
198753,-100,4,1,0,90,0,0
245765,-100,4,1,0,70,0,0
251436,-100,4,1,0,80,0,0
254363,-100,4,1,0,90,0,0
257289,-100,4,1,0,70,0,0
268997,365.853658536585,4,1,0,70,1,8
269025,365.853658536585,4,1,0,70,1,0
280549,-100,4,1,0,60,0,0
292256,-100,4,1,0,50,0,0

[HitObjects]
192,192,1221,5,8,0:0:0:0:
192,192,2684,1,0,0:0:0:0:
192,192,4147,1,8,0:0:0:0:
192,192,5611,1,0,0:0:0:0:
192,192,5977,1,0,0:0:0:0:
192,192,6342,1,0,0:0:0:0:
192,192,6708,1,8,0:0:0:0:
192,192,7074,1,8,0:0:0:0:
192,192,7440,1,8,0:0:0:0:
336,272,7806,1,0,0:0:0:0:
336,272,8172,1,0,0:0:0:0:
336,272,8538,1,8,0:0:0:0:
268,296,9269,1,8,0:0:0:0:
268,296,10001,1,0,0:0:0:0:
268,296,10367,1,8,0:0:0:0:
268,296,10733,1,0,0:0:0:0:
268,284,11099,1,0,0:0:0:0:
268,284,11464,1,8,0:0:0:0:
200,152,12196,1,0,0:0:0:0:
200,152,12928,1,8,0:0:0:0:
184,192,14391,1,0,0:0:0:0:
288,288,15855,1,8,0:0:0:0:
284,280,17318,1,0,0:0:0:0:
280,272,17684,1,0,0:0:0:0:
280,272,18050,1,0,0:0:0:0:
280,272,18416,1,8,0:0:0:0:
280,272,18781,1,8,0:0:0:0:
276,220,19147,1,8,0:0:0:0:
276,220,19513,1,0,0:0:0:0:
276,220,19879,1,0,0:0:0:0:
272,192,20245,1,8,0:0:0:0:
152,152,20977,1,8,0:0:0:0:
152,152,21708,1,0,0:0:0:0:
152,152,22074,1,8,0:0:0:0:
152,152,22440,1,0,0:0:0:0:
152,152,22806,1,0,0:0:0:0:
152,152,23172,1,8,0:0:0:0:
228,144,23903,1,0,0:0:0:0:
228,144,24613,1,8,0:0:0:0:
216,128,24978,1,0,0:0:0:0:
216,128,25161,1,8,0:0:0:0:
216,104,25710,1,8,0:0:0:0:
216,104,26076,1,0,0:0:0:0:
216,104,26442,1,8,0:0:0:0:
160,200,26625,1,0,0:0:0:0:
172,160,26991,1,8,0:0:0:0:
172,160,27173,1,8,0:0:0:0:
172,160,27356,1,8,0:0:0:0:
172,160,27539,1,0,0:0:0:0:
116,140,27722,1,0,0:0:0:0:
120,136,27905,1,8,0:0:0:0:
120,136,28088,1,8,0:0:0:0:
256,136,28637,1,8,0:0:0:0:
256,136,28820,1,8,0:0:0:0:
256,136,29003,1,0,0:0:0:0:
256,136,29186,1,0,0:0:0:0:
256,136,29369,1,8,0:0:0:0:
256,136,29552,1,0,0:0:0:0:
256,136,30100,1,8,0:0:0:0:
248,128,30466,1,0,0:0:0:0:
248,128,30832,1,8,0:0:0:0:
248,128,31015,1,0,0:0:0:0:
244,112,31564,1,0,0:0:0:0:
244,112,31930,1,8,0:0:0:0:
244,112,32295,1,8,0:0:0:0:
232,164,32478,1,0,0:0:0:0:
232,164,32661,1,0,0:0:0:0:
232,164,32844,1,8,0:0:0:0:
228,160,33210,1,8,0:0:0:0:
228,160,33393,1,0,0:0:0:0:
228,160,33576,1,0,0:0:0:0:
68,164,33759,1,0,0:0:0:0:
84,156,33942,1,8,0:0:0:0:
336,232,34308,1,0,0:0:0:0:
208,136,34491,1,8,0:0:0:0:
192,92,34856,1,0,0:0:0:0:
192,92,35588,1,8,0:0:0:0:
192,92,36320,1,0,0:0:0:0:
216,160,36686,1,0,0:0:0:0:
216,160,36869,1,8,0:0:0:0:
216,160,37417,1,8,0:0:0:0:
216,160,37783,1,0,0:0:0:0:
208,128,38149,1,8,0:0:0:0:
208,128,38332,1,0,0:0:0:0:
204,112,38698,1,8,0:0:0:0:
204,112,38881,1,8,0:0:0:0:
204,112,39064,1,8,0:0:0:0:
204,112,39247,1,0,0:0:0:0:
188,160,39430,1,0,0:0:0:0:
184,152,39612,1,8,0:0:0:0:
156,200,39795,1,8,0:0:0:0:
288,204,40161,1,0,0:0:0:0:
288,204,40344,1,8,0:0:0:0:
288,204,40527,1,8,0:0:0:0:
288,204,40710,1,0,0:0:0:0:
156,200,40893,1,0,0:0:0:0:
152,192,41076,1,8,0:0:0:0:
152,192,41259,1,0,0:0:0:0:
180,192,41625,1,0,0:0:0:0:
180,192,41808,1,8,0:0:0:0:
276,168,42173,1,0,0:0:0:0:
276,168,42539,1,8,0:0:0:0:
276,168,42722,1,0,0:0:0:0:
228,224,43088,1,0,0:0:0:0:
228,224,43271,1,8,0:0:0:0:
228,224,43637,1,0,0:0:0:0:
228,216,44003,1,8,0:0:0:0:
228,216,44186,1,0,0:0:0:0:
228,216,44369,1,0,0:0:0:0:
228,216,44552,1,8,0:0:0:0:
228,216,44917,1,8,0:0:0:0:
212,160,45100,1,0,0:0:0:0:
212,160,45283,1,0,0:0:0:0:
212,160,45466,1,0,0:0:0:0:
212,160,45649,1,8,0:0:0:0:
268,240,46015,1,0,0:0:0:0:
268,240,46198,1,8,0:0:0:0:
268,224,46564,1,0,0:0:0:0:
316,220,47295,1,8,0:0:0:0:
316,220,48027,1,0,0:0:0:0:
288,212,48576,1,0,0:0:0:0:
288,212,48759,1,8,0:0:0:0:
232,160,49491,1,0,0:0:0:0:
232,160,49856,1,0,0:0:0:0:
216,168,50039,1,8,0:0:0:0:
232,160,50405,1,8,0:0:0:0:
216,124,50771,1,8,0:0:0:0:
216,124,50954,1,0,0:0:0:0:
216,124,51503,1,8,0:0:0:0:
220,88,51869,1,0,0:0:0:0:
220,88,52052,1,8,0:0:0:0:
208,80,52234,1,0,0:0:0:0:
196,172,52600,1,0,0:0:0:0:
196,172,52783,1,8,0:0:0:0:
196,172,53149,1,0,0:0:0:0:
196,172,53515,1,0,0:0:0:0:
196,172,53881,1,8,0:0:0:0:
68,232,54430,1,0,0:0:0:0:
200,72,54795,1,0,0:0:0:0:
200,72,54978,1,8,0:0:0:0:
164,40,55161,1,0,0:0:0:0:
200,72,55344,1,0,0:0:0:0:
200,72,55710,1,0,0:0:0:0:
200,72,56076,1,8,0:0:0:0:
184,72,56442,1,8,0:0:0:0:
184,72,56808,1,0,0:0:0:0:
184,72,57356,1,8,0:0:0:0:
208,72,57722,1,0,0:0:0:0:
208,72,57905,1,8,0:0:0:0:
208,72,58088,1,8,0:0:0:0:
200,184,58271,1,0,0:0:0:0:
188,116,58637,1,0,0:0:0:0:
188,116,59003,1,8,0:0:0:0:
188,116,59369,1,8,0:0:0:0:
188,116,59729,1,0,0:0:0:0:
180,64,59911,1,8,0:0:0:0:
168,68,60003,1,8,0:0:0:0:
160,136,60094,1,0,0:0:0:0:
160,136,60277,1,8,0:0:0:0:
160,204,60369,1,8,0:0:0:0:
160,204,60460,1,8,0:0:0:0:
316,92,60826,1,8,0:0:0:0:
208,148,61009,1,8,0:0:0:0:
200,100,61192,1,0,0:0:0:0:
248,176,61375,1,0,0:0:0:0:
120,72,61466,1,0,0:0:0:0:
120,72,61558,1,8,0:0:0:0:
120,72,61741,1,0,0:0:0:0:
116,108,61832,1,8,0:0:0:0:
116,108,61924,1,8,0:0:0:0:
268,100,62289,1,8,0:0:0:0:
268,100,62472,1,8,0:0:0:0:
264,96,62655,1,0,0:0:0:0:
264,92,62838,1,8,0:0:0:0:
264,88,62930,1,8,0:0:0:0:
264,88,63021,1,0,0:0:0:0:
264,88,63204,1,8,0:0:0:0:
228,116,63387,1,0,0:0:0:0:
228,116,63478,1,0,0:0:0:0:
228,116,63570,1,8,0:0:0:0:
228,108,63753,1,0,0:0:0:0:
224,104,63936,1,8,0:0:0:0:
224,80,64027,1,8,0:0:0:0:
212,136,64119,1,0,0:0:0:0:
212,132,64302,1,0,0:0:0:0:
212,128,64393,1,0,0:0:0:0:
212,112,64485,1,8,0:0:0:0:
212,112,64668,1,0,0:0:0:0:
212,112,64850,1,8,0:0:0:0:
212,108,64942,1,8,0:0:0:0:
212,108,65033,1,0,0:0:0:0:
424,248,65125,1,0,0:0:0:0:
212,108,65216,1,8,0:0:0:0:
152,160,65582,1,0,0:0:0:0:
288,168,65765,1,8,0:0:0:0:
288,160,65857,1,8,0:0:0:0:
288,160,65948,1,0,0:0:0:0:
148,116,66131,1,8,0:0:0:0:
148,116,66314,1,0,0:0:0:0:
144,88,66497,1,8,0:0:0:0:
144,104,66588,1,8,0:0:0:0:
144,88,66680,1,0,0:0:0:0:
260,260,66863,1,8,0:0:0:0:
260,260,67046,1,0,0:0:0:0:
240,208,67228,1,8,0:0:0:0:
240,208,67320,1,8,0:0:0:0:
240,192,67411,1,0,0:0:0:0:
240,192,67594,1,8,0:0:0:0:
144,216,67777,1,0,0:0:0:0:
144,216,67960,1,8,0:0:0:0:
224,188,68052,1,8,0:0:0:0:
224,176,68143,1,0,0:0:0:0:
216,152,68235,1,0,0:0:0:0:
216,152,68326,1,8,0:0:0:0:
224,176,68509,1,4,0:0:0:0:
156,96,68692,1,8,0:0:0:0:
156,96,68783,1,0,0:0:0:0:
156,96,68966,1,0,0:0:0:0:
156,96,69058,1,8,0:0:0:0:
156,96,69149,1,8,0:0:0:0:
156,96,69241,1,0,0:0:0:0:
80,160,69424,1,8,0:0:0:0:
80,160,69515,1,0,0:0:0:0:
344,212,69698,1,0,0:0:0:0:
344,212,69789,1,8,0:0:0:0:
184,132,69881,1,8,0:0:0:0:
228,244,69972,1,0,0:0:0:0:
228,220,70155,1,8,0:0:0:0:
228,216,70247,1,0,0:0:0:0:
276,208,70430,1,0,0:0:0:0:
268,196,70521,1,8,0:0:0:0:
268,168,70613,1,8,0:0:0:0:
268,168,70704,1,0,0:0:0:0:
272,168,70887,1,8,0:0:0:0:
272,160,70978,1,0,0:0:0:0:
272,160,71070,1,8,0:0:0:0:
268,152,71253,1,8,0:0:0:0:
260,260,71436,1,4,0:0:0:0:
276,268,71619,1,8,0:0:0:0:
280,248,71710,1,0,0:0:0:0:
276,268,71893,1,0,0:0:0:0:
192,152,71985,1,8,0:0:0:0:
304,196,72076,1,8,0:0:0:0:
192,152,72168,1,0,0:0:0:0:
192,152,72350,1,8,0:0:0:0:
192,152,72442,1,0,0:0:0:0:
332,288,72625,1,0,0:0:0:0:
316,224,72716,1,8,0:0:0:0:
256,168,72808,1,8,0:0:0:0:
256,168,72899,1,0,0:0:0:0:
248,148,73082,1,8,0:0:0:0:
164,184,73174,1,0,0:0:0:0:
340,192,73357,1,0,0:0:0:0:
340,192,73448,1,8,0:0:0:0:
340,192,73539,1,8,0:0:0:0:
340,192,73631,1,0,0:0:0:0:
340,192,73814,1,8,0:0:0:0:
340,192,73905,1,8,0:0:0:0:
340,192,73997,1,8,0:0:0:0:
296,244,74180,1,8,0:0:0:0:
288,188,74363,1,4,0:0:0:0:
288,188,74546,1,8,0:0:0:0:
288,188,74637,1,0,0:0:0:0:
176,208,74820,1,0,0:0:0:0:
172,144,74911,1,8,0:0:0:0:
184,176,75003,1,8,0:0:0:0:
164,84,75094,1,0,0:0:0:0:
152,84,75186,1,0,0:0:0:0:
176,64,75277,1,8,0:0:0:0:
160,140,75369,1,0,0:0:0:0:
192,144,75460,1,8,0:0:0:0:
192,144,75643,1,8,0:0:0:0:
104,200,75826,1,4,0:0:0:0:
100,176,76009,1,8,0:0:0:0:
100,176,76100,1,0,0:0:0:0:
112,168,76283,1,0,0:0:0:0:
116,168,76375,1,8,0:0:0:0:
188,172,76466,1,8,0:0:0:0:
184,156,76558,1,0,0:0:0:0:
184,156,76649,1,0,0:0:0:0:
184,156,76741,1,8,0:0:0:0:
184,156,76832,1,0,0:0:0:0:
184,156,76924,1,8,0:0:0:0:
188,172,77107,1,8,0:0:0:0:
288,220,77289,1,4,0:0:0:0:
256,144,77472,1,8,0:0:0:0:
256,144,77564,1,8,0:0:0:0:
256,144,77655,1,0,0:0:0:0:
264,296,77747,1,0,0:0:0:0:
264,280,77838,1,8,0:0:0:0:
256,240,78021,1,4,0:0:0:0:
252,208,78204,1,8,0:0:0:0:
252,208,78296,1,8,0:0:0:0:
252,208,78387,1,0,0:0:0:0:
192,280,78478,1,0,0:0:0:0:
192,264,78570,1,8,0:0:0:0:
192,192,78753,1,0,0:0:0:0:
280,256,78844,1,8,0:0:0:0:
300,252,78936,1,8,0:0:0:0:
296,240,79027,1,0,0:0:0:0:
268,276,79119,1,0,0:0:0:0:
296,168,79210,1,8,0:0:0:0:
296,168,79302,1,8,0:0:0:0:
296,168,79393,1,0,0:0:0:0:
252,264,79485,1,0,0:0:0:0:
248,216,79576,1,8,0:0:0:0:
248,224,79668,1,8,0:0:0:0:
244,272,79759,1,0,0:0:0:0:
244,264,79850,1,8,0:0:0:0:
244,248,79942,1,8,0:0:0:0:
240,248,80033,1,0,0:0:0:0:
240,244,80125,1,8,0:0:0:0:
240,244,80216,1,0,0:0:0:0:
224,152,80948,1,8,0:0:0:0:
224,152,81131,1,0,0:0:0:0:
224,136,81222,1,0,0:0:0:0:
224,136,81314,1,8,0:0:0:0:
224,132,81405,1,8,0:0:0:0:
220,124,81497,1,0,0:0:0:0:
140,144,81588,1,8,0:0:0:0:
216,104,81680,1,8,0:0:0:0:
152,204,81771,1,0,0:0:0:0:
216,104,81863,1,0,0:0:0:0:
216,104,81954,1,0,0:0:0:0:
216,104,82046,1,8,0:0:0:0:
156,288,82228,1,0,0:0:0:0:
264,220,82320,1,8,0:0:0:0:
264,212,82411,1,0,0:0:0:0:
260,204,82503,1,0,0:0:0:0:
264,204,82594,1,8,0:0:0:0:
164,248,82777,1,0,0:0:0:0:
164,256,82869,1,8,0:0:0:0:
224,280,82960,1,0,0:0:0:0:
260,192,83052,1,0,0:0:0:0:
256,184,83143,1,8,0:0:0:0:
240,232,83235,1,8,0:0:0:0:
228,252,83326,1,0,0:0:0:0:
224,252,83418,1,0,0:0:0:0:
224,224,83509,1,8,0:0:0:0:
224,212,83692,1,0,0:0:0:0:
232,196,83783,1,0,0:0:0:0:
236,200,83875,1,0,0:0:0:0:
236,200,83966,1,0,0:0:0:0:
236,200,84058,1,8,0:0:0:0:
236,200,84241,1,0,0:0:0:0:
236,200,84332,1,8,0:0:0:0:
236,200,84424,1,8,0:0:0:0:
212,224,84515,1,0,0:0:0:0:
212,224,84607,1,8,0:0:0:0:
244,288,84698,1,8,0:0:0:0:
244,272,84789,1,0,0:0:0:0:
248,272,84881,1,0,0:0:0:0:
248,260,84972,1,8,0:0:0:0:
248,248,85064,1,0,0:0:0:0:
316,192,85155,1,0,0:0:0:0:
316,192,85247,1,8,0:0:0:0:
316,192,85338,1,0,0:0:0:0:
372,288,85430,1,0,0:0:0:0:
360,288,85521,1,8,0:0:0:0:
364,280,85613,1,8,0:0:0:0:
304,272,85704,1,0,0:0:0:0:
304,272,85796,1,8,0:0:0:0:
276,236,85887,1,8,0:0:0:0:
304,272,85978,1,8,0:0:0:0:
228,244,86070,1,0,0:0:0:0:
304,260,86253,1,0,0:0:0:0:
240,204,86344,1,0,0:0:0:0:
240,204,86436,1,8,0:0:0:0:
240,204,86527,1,0,0:0:0:0:
240,204,86619,1,0,0:0:0:0:
240,204,86710,1,8,0:0:0:0:
240,188,86802,1,0,0:0:0:0:
240,188,86893,1,0,0:0:0:0:
240,188,86985,1,8,0:0:0:0:
180,236,87076,1,8,0:0:0:0:
192,220,87168,1,0,0:0:0:0:
192,216,87259,1,8,0:0:0:0:
192,216,87350,1,0,0:0:0:0:
196,204,87533,1,8,0:0:0:0:
200,228,87625,1,0,0:0:0:0:
228,196,87716,1,0,0:0:0:0:
248,208,87808,1,0,0:0:0:0:
182,168,87899,1,8,0:0:0:0:
205,163,88082,1,8,0:0:0:0:
166,190,88174,1,8,0:0:0:0:
200,167,88265,1,0,0:0:0:0:
166,190,88357,1,0,0:0:0:0:
200,167,88448,1,8,0:0:0:0:
138,155,88631,1,0,0:0:0:0:
266,269,88722,1,8,0:0:0:0:
138,155,88814,1,8,0:0:0:0:
138,155,88905,1,0,0:0:0:0:
138,155,88997,1,8,0:0:0:0:
121,290,89088,1,8,0:0:0:0:
247,251,89180,1,0,0:0:0:0:
247,251,89271,1,0,0:0:0:0:
206,230,89363,1,8,0:0:0:0:
133,290,89454,1,0,0:0:0:0:
245,244,89546,1,0,0:0:0:0:
245,245,89637,1,0,0:0:0:0:
245,245,89728,1,8,0:0:0:0:
175,308,89820,1,8,0:0:0:0:
175,308,89911,1,0,0:0:0:0:
175,308,90003,1,8,0:0:0:0:
194,272,90094,1,0,0:0:0:0:
194,272,90186,1,0,0:0:0:0:
194,272,90277,1,8,0:0:0:0:
119,190,90460,1,0,0:0:0:0:
272,212,90552,1,0,0:0:0:0:
216,177,90643,1,8,0:0:0:0:
216,177,90735,1,0,0:0:0:0:
216,177,90826,1,8,0:0:0:0:
216,177,90918,1,8,0:0:0:0:
216,177,91009,1,0,0:0:0:0:
216,177,91100,1,0,0:0:0:0:
280,278,91192,1,8,0:0:0:0:
279,264,91283,1,0,0:0:0:0:
279,264,91375,1,8,0:0:0:0:
250,229,91466,1,8,0:0:0:0:
268,120,91558,1,0,0:0:0:0:
271,125,91649,1,8,0:0:0:0:
277,126,91741,1,8,0:0:0:0:
279,113,91832,1,0,0:0:0:0:
279,100,91924,1,8,0:0:0:0:
251,195,92107,1,0,0:0:0:0:
251,195,92198,1,0,0:0:0:0:
257,191,92289,1,8,0:0:0:0:
256,190,92381,1,8,0:0:0:0:
256,190,92472,1,0,0:0:0:0:
255,189,92564,1,8,0:0:0:0:
247,180,92655,1,0,0:0:0:0:
247,180,92747,1,0,0:0:0:0:
247,180,92838,1,8,0:0:0:0:
233,200,92930,1,0,0:0:0:0:
234,197,93021,1,8,0:0:0:0:
234,197,93113,1,8,0:0:0:0:
234,197,93204,1,0,0:0:0:0:
245,226,93387,1,8,0:0:0:0:
250,125,93478,1,0,0:0:0:0:
272,180,93570,1,0,0:0:0:0:
268,150,93661,1,0,0:0:0:0:
266,167,93753,1,8,0:0:0:0:
266,167,93936,1,0,0:0:0:0:
277,148,94027,1,8,0:0:0:0:
277,149,94119,1,0,0:0:0:0:
278,149,94210,1,0,0:0:0:0:
275,159,94302,1,8,0:0:0:0:
275,159,94485,1,0,0:0:0:0:
233,187,94576,1,8,0:0:0:0:
245,219,94668,1,8,0:0:0:0:
217,220,94759,1,0,0:0:0:0:
217,264,94850,1,8,0:0:0:0:
268,126,94942,1,8,0:0:0:0:
194,165,95033,1,0,0:0:0:0:
189,137,95125,1,0,0:0:0:0:
190,139,95216,1,8,0:0:0:0:
188,125,95399,1,0,0:0:0:0:
187,106,95491,1,0,0:0:0:0:
186,93,95582,1,0,0:0:0:0:
194,165,95674,1,0,0:0:0:0:
194,165,95765,1,8,0:0:0:0:
320,151,95948,1,0,0:0:0:0:
320,151,96039,1,8,0:0:0:0:
320,151,96131,1,0,0:0:0:0:
320,151,96222,1,0,0:0:0:0:
274,126,96314,1,8,0:0:0:0:
274,126,96405,1,8,0:0:0:0:
274,126,96497,1,0,0:0:0:0:
274,126,96588,1,8,0:0:0:0:
190,232,96680,1,0,0:0:0:0:
368,232,96863,1,8,0:0:0:0:
382,212,96954,1,8,0:0:0:0:
383,207,97046,1,0,0:0:0:0:
382,207,97137,1,0,0:0:0:0:
382,207,97228,1,8,0:0:0:0:
379,195,97411,1,0,0:0:0:0:
313,184,97503,1,8,0:0:0:0:
313,166,97594,1,8,0:0:0:0:
308,126,97686,1,0,0:0:0:0:
308,126,97777,1,8,0:0:0:0:
308,126,97869,1,8,0:0:0:0:
245,163,97960,1,0,0:0:0:0:
245,163,98052,1,0,0:0:0:0:
269,104,98143,1,8,0:0:0:0:
269,104,98235,1,0,0:0:0:0:
269,104,98326,1,0,0:0:0:0:
269,104,98418,1,8,0:0:0:0:
269,104,98509,1,0,0:0:0:0:
269,104,98600,1,0,0:0:0:0:
269,104,98692,1,8,0:0:0:0:
269,104,98783,1,8,0:0:0:0:
269,104,98875,1,0,0:0:0:0:
269,104,98966,1,8,0:0:0:0:
269,104,99058,1,0,0:0:0:0:
273,241,99241,1,8,0:0:0:0:
335,222,99332,1,0,0:0:0:0:
334,204,99424,1,0,0:0:0:0:
323,169,99515,1,0,0:0:0:0:
328,231,99607,1,8,0:0:0:0:
258,140,99789,1,8,0:0:0:0:
258,140,99881,1,8,0:0:0:0:
258,140,99972,1,0,0:0:0:0:
258,140,100064,1,0,0:0:0:0:
258,140,100155,1,8,0:0:0:0:
342,281,100338,1,0,0:0:0:0:
334,270,100430,1,8,0:0:0:0:
333,269,100521,1,8,0:0:0:0:
333,267,100613,1,0,0:0:0:0:
331,253,100704,1,8,0:0:0:0:
320,262,100796,1,8,0:0:0:0:
289,268,100887,1,0,0:0:0:0:
293,264,100978,1,0,0:0:0:0:
292,261,101070,1,8,0:0:0:0:
291,238,101161,1,0,0:0:0:0:
291,238,101253,1,0,0:0:0:0:
290,231,101344,1,0,0:0:0:0:
288,226,101436,1,8,0:0:0:0:
288,224,101527,1,8,0:0:0:0:
240,208,101619,1,0,0:0:0:0:
240,208,101710,1,8,0:0:0:0:
240,208,101802,1,0,0:0:0:0:
240,208,101893,1,0,0:0:0:0:
240,208,101985,1,8,0:0:0:0:
240,188,102168,1,0,0:0:0:0:
230,204,102259,1,0,0:0:0:0:
230,204,102350,1,8,0:0:0:0:
230,204,102442,1,8,0:0:0:0:
230,204,102533,1,0,0:0:0:0:
230,204,102625,1,8,0:0:0:0:
230,204,102716,1,8,0:0:0:0:
230,204,102808,1,8,0:0:0:0:
230,204,102899,1,0,0:0:0:0:
230,204,102991,1,0,0:0:0:0:
258,266,103082,1,8,0:0:0:0:
295,208,103174,1,0,0:0:0:0:
295,208,103265,1,8,0:0:0:0:
295,208,103357,1,8,0:0:0:0:
295,208,103448,1,0,0:0:0:0:
295,208,103631,1,0,0:0:0:0:
234,209,103722,1,0,0:0:0:0:
215,186,103814,1,8,0:0:0:0:
235,187,103905,1,8,0:0:0:0:
234,195,103997,1,0,0:0:0:0:
240,213,104088,1,8,0:0:0:0:
240,205,104180,1,8,0:0:0:0:
240,213,104271,1,0,0:0:0:0:
221,157,104363,1,8,0:0:0:0:
149,195,104454,1,8,0:0:0:0:
165,216,104546,1,0,0:0:0:0:
165,214,104637,1,8,0:0:0:0:
165,246,104728,1,0,0:0:0:0:
222,149,104820,1,0,0:0:0:0:
195,291,104911,1,8,0:0:0:0:
196,266,105003,1,8,0:0:0:0:
192,233,105094,1,0,0:0:0:0:
288,220,105277,1,8,0:0:0:0:
288,220,105460,1,0,0:0:0:0:
288,220,105552,1,0,0:0:0:0:
288,220,105643,1,8,0:0:0:0:
288,220,105826,1,0,0:0:0:0:
360,296,106009,1,8,0:0:0:0:
272,276,106192,1,0,0:0:0:0:
272,276,106283,1,0,0:0:0:0:
248,280,106375,1,8,0:0:0:0:
248,280,106558,1,0,0:0:0:0:
248,272,106741,1,8,0:0:0:0:
212,325,106832,1,8,0:0:0:0:
248,268,106924,1,0,0:0:0:0:
248,268,107107,1,8,0:0:0:0:
252,256,107289,1,0,0:0:0:0:
252,256,107381,1,0,0:0:0:0:
252,256,107472,1,8,0:0:0:0:
252,256,107655,1,0,0:0:0:0:
252,252,107838,1,8,0:0:0:0:
252,252,107930,1,8,0:0:0:0:
244,248,108021,1,0,0:0:0:0:
244,248,108204,1,8,0:0:0:0:
244,248,108387,1,0,0:0:0:0:
248,248,108478,1,0,0:0:0:0:
196,276,108570,1,8,0:0:0:0:
196,276,108753,1,0,0:0:0:0:
196,276,108936,1,8,0:0:0:0:
208,264,109119,1,0,0:0:0:0:
208,264,109210,1,0,0:0:0:0:
208,264,109302,1,8,0:0:0:0:
220,280,109485,1,0,0:0:0:0:
188,176,109668,1,8,0:0:0:0:
212,333,109759,1,8,0:0:0:0:
220,156,109850,1,0,0:0:0:0:
220,156,110033,1,8,0:0:0:0:
260,188,110216,1,0,0:0:0:0:
260,188,110308,1,0,0:0:0:0:
260,188,110399,1,8,0:0:0:0:
216,272,110582,1,0,0:0:0:0:
216,272,110765,1,8,0:0:0:0:
311,146,110857,1,8,0:0:0:0:
200,264,110948,1,0,0:0:0:0:
204,264,111131,1,8,0:0:0:0:
184,152,111314,1,0,0:0:0:0:
184,148,111405,1,0,0:0:0:0:
184,148,111497,1,8,0:0:0:0:
184,148,111680,1,0,0:0:0:0:
184,148,111863,1,8,0:0:0:0:
184,152,112046,1,0,0:0:0:0:
184,152,112137,1,0,0:0:0:0:
184,140,112228,1,8,0:0:0:0:
172,168,112411,1,0,0:0:0:0:
136,104,112594,1,8,0:0:0:0:
213,285,112686,1,8,0:0:0:0:
136,104,112777,1,0,0:0:0:0:
136,104,112960,1,8,0:0:0:0:
136,104,113143,1,0,0:0:0:0:
136,104,113235,1,0,0:0:0:0:
136,104,113326,1,8,0:0:0:0:
136,96,113509,1,0,0:0:0:0:
136,96,113692,1,8,0:0:0:0:
136,96,113783,1,8,0:0:0:0:
136,96,113875,1,0,0:0:0:0:
296,260,114058,1,8,0:0:0:0:
276,236,114241,1,0,0:0:0:0:
264,268,114332,1,0,0:0:0:0:
264,228,114424,1,8,0:0:0:0:
264,228,114607,1,0,0:0:0:0:
264,232,114789,1,8,0:0:0:0:
264,228,114972,1,0,0:0:0:0:
104,176,115064,1,0,0:0:0:0:
104,176,115155,1,8,0:0:0:0:
236,220,115338,1,0,0:0:0:0:
264,228,115430,1,0,0:0:0:0:
256,220,115521,1,0,0:0:0:0:
256,220,115613,1,0,0:0:0:0:
256,220,115704,1,8,0:0:0:0:
256,216,115887,1,0,0:0:0:0:
256,216,115978,1,8,0:0:0:0:
256,216,116070,1,0,0:0:0:0:
256,216,116161,1,0,0:0:0:0:
256,216,116253,1,8,0:0:0:0:
256,216,116344,1,0,0:0:0:0:
256,216,116436,1,8,0:0:0:0:
192,216,116527,1,8,0:0:0:0:
192,216,116619,1,0,0:0:0:0:
192,216,116710,1,8,0:0:0:0:
192,216,116802,1,0,0:0:0:0:
192,216,116985,1,8,0:0:0:0:
168,40,117168,1,0,0:0:0:0:
196,72,117259,1,0,0:0:0:0:
196,72,117350,1,8,0:0:0:0:
220,84,117533,1,0,0:0:0:0:
220,84,117716,1,8,0:0:0:0:
220,84,117808,1,8,0:0:0:0:
220,84,117899,1,0,0:0:0:0:
220,84,117991,1,0,0:0:0:0:
220,84,118082,1,8,0:0:0:0:
220,84,118265,1,0,0:0:0:0:
220,84,118448,1,8,0:0:0:0:
220,84,118539,1,8,0:0:0:0:
220,84,118631,1,0,0:0:0:0:
220,84,118814,1,8,0:0:0:0:
304,288,118997,1,0,0:0:0:0:
296,288,119088,1,0,0:0:0:0:
296,288,119180,1,8,0:0:0:0:
296,284,119363,1,0,0:0:0:0:
238,300,119454,1,0,0:0:0:0:
296,284,119546,1,8,0:0:0:0:
216,296,119637,1,8,0:0:0:0:
220,292,119728,1,0,0:0:0:0:
212,200,119911,1,8,0:0:0:0:
256,122,120094,1,0,0:0:0:0:
256,122,120186,1,0,0:0:0:0:
256,122,120277,1,8,0:0:0:0:
256,122,120460,1,0,0:0:0:0:
254,116,120643,1,8,0:0:0:0:
254,107,120735,1,8,0:0:0:0:
254,107,120826,1,0,0:0:0:0:
254,107,120918,1,0,0:0:0:0:
254,107,121009,1,8,0:0:0:0:
259,227,121192,1,0,0:0:0:0:
259,227,121375,1,8,0:0:0:0:
259,227,121466,1,8,0:0:0:0:
259,227,121558,1,0,0:0:0:0:
259,227,121741,1,8,0:0:0:0:
244,274,121924,1,0,0:0:0:0:
260,273,122015,1,0,0:0:0:0:
259,272,122107,1,8,0:0:0:0:
258,185,122289,1,0,0:0:0:0:
207,240,122381,1,0,0:0:0:0:
108,135,122472,1,8,0:0:0:0:
108,135,122564,1,8,0:0:0:0:
108,135,122655,1,0,0:0:0:0:
216,280,122838,1,8,0:0:0:0:
190,237,123021,1,0,0:0:0:0:
193,233,123113,1,0,0:0:0:0:
193,230,123204,1,8,0:0:0:0:
193,230,123387,1,0,0:0:0:0:
196,224,123570,1,8,0:0:0:0:
202,223,123661,1,8,0:0:0:0:
202,223,123753,1,0,0:0:0:0:
202,223,123844,1,0,0:0:0:0:
202,223,123936,1,8,0:0:0:0:
202,223,124119,1,0,0:0:0:0:
202,223,124302,1,8,0:0:0:0:
203,223,124393,1,8,0:0:0:0:
203,223,124485,1,0,0:0:0:0:
202,223,124668,1,8,0:0:0:0:
224,234,124850,1,0,0:0:0:0:
241,236,124942,1,0,0:0:0:0:
241,236,125033,1,8,0:0:0:0:
241,236,125216,1,0,0:0:0:0:
242,236,125308,1,0,0:0:0:0:
241,234,125399,1,8,0:0:0:0:
257,228,125491,1,8,0:0:0:0:
256,234,125582,1,0,0:0:0:0:
264,224,125765,1,8,0:0:0:0:
264,224,125948,1,0,0:0:0:0:
243,196,126039,1,0,0:0:0:0:
243,196,126131,1,8,0:0:0:0:
243,196,126314,1,0,0:0:0:0:
243,196,126497,1,8,0:0:0:0:
243,196,126588,1,8,0:0:0:0:
244,189,126680,1,0,0:0:0:0:
244,189,126771,1,0,0:0:0:0:
244,189,126863,1,8,0:0:0:0:
244,189,127046,1,0,0:0:0:0:
244,189,127228,1,8,0:0:0:0:
244,189,127411,1,0,0:0:0:0:
245,189,127503,1,0,0:0:0:0:
245,189,127594,1,8,0:0:0:0:
244,189,127777,1,0,0:0:0:0:
132,152,127869,1,8,0:0:0:0:
192,300,127960,1,8,0:0:0:0:
212,284,128052,1,8,0:0:0:0:
244,189,128143,1,0,0:0:0:0:
244,189,128235,1,0,0:0:0:0:
244,189,128326,1,8,0:0:0:0:
245,189,128509,1,4,0:0:0:0:
260,180,129972,1,8,0:0:0:0:
260,180,131436,1,0,0:0:0:0:
260,180,132899,1,8,0:0:0:0:
260,180,133631,1,8,0:0:0:0:
260,180,134363,1,0,0:0:0:0:
260,180,135826,1,8,0:0:0:0:
260,180,137289,1,0,0:0:0:0:
328,192,138753,5,8,0:0:0:0:
328,192,139485,1,8,0:0:0:0:
214,130,140216,5,4,0:0:0:0:
268,191,140582,1,8,0:0:0:0:
268,191,141314,1,8,0:0:0:0:
268,191,142046,1,8,0:0:0:0:
268,191,142777,1,8,0:0:0:0:
268,191,143143,1,0,0:0:0:0:
268,191,143509,1,8,0:0:0:0:
247,189,144241,1,8,0:0:0:0:
247,189,144972,1,8,0:0:0:0:
247,189,145704,1,8,0:0:0:0:
248,182,146070,1,4,0:0:0:0:
248,182,146436,1,8,0:0:0:0:
248,182,146802,1,8,0:0:0:0:
248,182,147168,1,8,0:0:0:0:
248,182,147533,1,8,0:0:0:0:
168,288,147899,1,8,0:0:0:0:
208,184,148174,1,8,0:0:0:0:
248,182,148265,1,8,0:0:0:0:
239,153,148448,1,8,0:0:0:0:
239,153,148631,1,8,0:0:0:0:
239,153,148722,1,8,0:0:0:0:
239,153,148905,1,8,0:0:0:0:
239,153,148997,1,8,0:0:0:0:
239,153,149180,1,8,0:0:0:0:
239,153,149363,1,8,0:0:0:0:
239,153,149546,1,8,0:0:0:0:
412,248,149637,1,8,0:0:0:0:
239,153,149728,1,8,0:0:0:0:
239,153,149911,1,8,0:0:0:0:
239,153,150094,1,8,0:0:0:0:
239,153,150277,1,8,0:0:0:0:
223,188,150460,1,0,0:0:0:0:
264,154,150552,1,0,0:0:0:0:
264,154,150643,1,8,0:0:0:0:
264,154,150735,1,8,0:0:0:0:
264,154,150826,1,0,0:0:0:0:
264,154,150918,1,0,0:0:0:0:
264,154,151009,1,8,0:0:0:0:
264,154,151100,1,8,0:0:0:0:
290,233,151192,1,0,0:0:0:0:
260,238,151283,1,0,0:0:0:0:
260,238,151375,1,8,0:0:0:0:
260,238,151466,1,0,0:0:0:0:
258,219,151558,1,8,0:0:0:0:
256,225,151649,1,8,0:0:0:0:
256,219,151741,1,0,0:0:0:0:
256,219,151832,1,0,0:0:0:0:
256,212,151924,1,8,0:0:0:0:
256,219,152107,1,0,0:0:0:0:
182,142,152198,1,8,0:0:0:0:
182,142,152289,1,8,0:0:0:0:
293,248,152472,1,0,0:0:0:0:
158,258,152564,1,0,0:0:0:0:
288,241,152655,1,8,0:0:0:0:
288,241,152747,1,0,0:0:0:0:
288,241,152838,1,0,0:0:0:0:
288,242,152930,1,8,0:0:0:0:
288,242,153021,1,0,0:0:0:0:
288,242,153113,1,0,0:0:0:0:
288,242,153204,1,8,0:0:0:0:
288,242,153296,1,8,0:0:0:0:
209,317,153387,1,0,0:0:0:0:
173,169,153478,1,8,0:0:0:0:
131,320,153570,1,8,0:0:0:0:
222,322,153661,1,0,0:0:0:0:
173,169,153753,1,8,0:0:0:0:
192,313,153844,1,8,0:0:0:0:
209,317,153936,1,0,0:0:0:0:
333,289,154119,1,8,0:0:0:0:
237,309,154210,1,8,0:0:0:0:
96,276,154302,1,0,0:0:0:0:
133,286,154393,1,8,0:0:0:0:
133,286,154485,1,0,0:0:0:0:
161,241,154576,1,0,0:0:0:0:
132,278,154668,1,8,0:0:0:0:
132,278,154759,1,8,0:0:0:0:
167,238,154850,1,0,0:0:0:0:
167,237,154942,1,0,0:0:0:0:
167,237,155033,1,8,0:0:0:0:
162,228,155125,1,0,0:0:0:0:
162,228,155216,1,8,0:0:0:0:
255,207,155399,1,8,0:0:0:0:
255,207,155491,1,8,0:0:0:0:
255,207,155582,1,0,0:0:0:0:
255,207,155674,1,8,0:0:0:0:
255,207,155765,1,8,0:0:0:0:
255,207,155857,1,0,0:0:0:0:
285,301,155948,1,8,0:0:0:0:
285,301,156039,1,8,0:0:0:0:
214,296,156131,1,0,0:0:0:0:
150,277,156222,1,8,0:0:0:0:
150,277,156314,1,0,0:0:0:0:
213,277,156497,1,0,0:0:0:0:
252,199,156588,1,0,0:0:0:0:
173,275,156680,1,8,0:0:0:0:
202,224,156863,1,0,0:0:0:0:
165,309,156954,1,0,0:0:0:0:
202,224,157046,1,8,0:0:0:0:
218,248,157228,1,0,0:0:0:0:
197,251,157320,1,8,0:0:0:0:
217,248,157411,1,8,0:0:0:0:
216,244,157594,1,0,0:0:0:0:
177,290,157686,1,0,0:0:0:0:
214,231,157777,1,8,0:0:0:0:
219,230,157869,1,8,0:0:0:0:
227,295,157960,1,0,0:0:0:0:
223,277,158052,1,8,0:0:0:0:
228,278,158143,1,8,0:0:0:0:
227,274,158235,1,0,0:0:0:0:
225,271,158326,1,8,0:0:0:0:
220,263,158418,1,8,0:0:0:0:
220,263,158509,1,0,0:0:0:0:
220,258,158600,1,0,0:0:0:0:
220,258,158692,1,8,0:0:0:0:
220,258,158783,1,0,0:0:0:0:
220,258,158875,1,8,0:0:0:0:
220,258,158966,1,8,0:0:0:0:
219,256,159058,1,0,0:0:0:0:
219,256,159241,1,8,0:0:0:0:
237,193,159332,1,8,0:0:0:0:
237,193,159424,1,0,0:0:0:0:
237,193,159515,1,0,0:0:0:0:
317,254,159607,1,8,0:0:0:0:
308,247,159789,1,0,0:0:0:0:
306,250,159881,1,0,0:0:0:0:
306,250,159972,1,8,0:0:0:0:
294,258,160064,1,0,0:0:0:0:
298,260,160155,1,8,0:0:0:0:
298,260,160247,1,8,0:0:0:0:
297,259,160338,1,0,0:0:0:0:
297,259,160430,1,0,0:0:0:0:
295,258,160521,1,8,0:0:0:0:
281,247,160704,1,0,0:0:0:0:
269,170,160796,1,8,0:0:0:0:
269,170,160887,1,8,0:0:0:0:
269,170,160978,1,0,0:0:0:0:
269,170,161070,1,8,0:0:0:0:
269,170,161253,1,0,0:0:0:0:
269,170,161344,1,8,0:0:0:0:
252,324,161436,1,0,0:0:0:0:
269,170,161527,1,0,0:0:0:0:
269,170,161619,1,8,0:0:0:0:
241,312,161710,1,8,0:0:0:0:
240,312,161802,1,0,0:0:0:0:
240,312,161893,1,8,0:0:0:0:
240,309,161985,1,0,0:0:0:0:
242,305,162076,1,0,0:0:0:0:
244,308,162168,1,8,0:0:0:0:
308,216,162259,1,8,0:0:0:0:
308,216,162350,1,0,0:0:0:0:
308,216,162442,1,8,0:0:0:0:
297,312,162533,1,0,0:0:0:0:
349,308,162625,1,0,0:0:0:0:
283,185,162716,1,8,0:0:0:0:
283,185,162808,1,8,0:0:0:0:
283,185,162899,1,0,0:0:0:0:
283,185,162991,1,8,0:0:0:0:
283,185,163082,1,8,0:0:0:0:
283,185,163174,1,8,0:0:0:0:
323,292,163265,1,0,0:0:0:0:
323,292,163357,1,0,0:0:0:0:
318,278,163448,1,8,0:0:0:0:
310,270,163631,1,4,0:0:0:0:
308,230,163814,1,0,0:0:0:0:
309,211,163905,1,0,0:0:0:0:
309,209,163997,1,8,0:0:0:0:
320,231,164180,1,0,0:0:0:0:
249,281,164271,1,0,0:0:0:0:
261,253,164363,1,8,0:0:0:0:
249,281,164454,1,8,0:0:0:0:
266,229,164546,1,0,0:0:0:0:
266,228,164637,1,8,0:0:0:0:
266,226,164728,1,0,0:0:0:0:
197,278,164820,1,0,0:0:0:0:
221,273,164911,1,8,0:0:0:0:
221,273,165003,1,8,0:0:0:0:
286,280,165094,1,0,0:0:0:0:
277,275,165186,1,8,0:0:0:0:
278,272,165277,1,8,0:0:0:0:
282,272,165369,1,0,0:0:0:0:
282,271,165460,1,8,0:0:0:0:
285,271,165552,1,8,0:0:0:0:
286,270,165643,1,0,0:0:0:0:
260,254,165826,1,8,0:0:0:0:
257,243,165918,1,8,0:0:0:0:
257,243,166009,1,0,0:0:0:0:
256,243,166100,1,8,0:0:0:0:
257,243,166192,1,0,0:0:0:0:
259,244,166283,1,0,0:0:0:0:
259,244,166375,1,8,0:0:0:0:
259,244,166466,1,0,0:0:0:0:
259,244,166558,1,8,0:0:0:0:
259,245,166649,1,8,0:0:0:0:
259,245,166741,1,0,0:0:0:0:
260,245,166832,1,0,0:0:0:0:
257,243,166924,1,8,0:0:0:0:
256,243,167107,1,0,0:0:0:0:
257,243,167198,1,8,0:0:0:0:
259,244,167289,1,0,0:0:0:0:
259,244,167381,1,0,0:0:0:0:
259,244,167472,1,8,0:0:0:0:
257,340,167564,1,0,0:0:0:0:
257,340,167655,1,8,0:0:0:0:
259,245,167747,1,8,0:0:0:0:
257,340,167838,1,0,0:0:0:0:
261,248,167930,1,8,0:0:0:0:
256,243,168021,1,0,0:0:0:0:
261,248,168204,1,0,0:0:0:0:
261,248,168296,1,0,0:0:0:0:
261,248,168387,1,8,0:0:0:0:
261,248,168570,1,0,0:0:0:0:
259,245,168661,1,0,0:0:0:0:
259,245,168753,1,8,0:0:0:0:
261,248,168936,1,0,0:0:0:0:
261,248,169027,1,8,0:0:0:0:
261,248,169119,1,8,0:0:0:0:
257,319,169302,1,0,0:0:0:0:
156,309,169393,1,0,0:0:0:0:
156,309,169485,1,8,0:0:0:0:
156,309,169576,1,8,0:0:0:0:
240,286,169668,1,0,0:0:0:0:
277,67,169759,1,8,0:0:0:0:
333,126,169850,1,8,0:0:0:0:
333,126,169942,1,0,0:0:0:0:
156,309,170033,1,8,0:0:0:0:
247,289,170125,1,8,0:0:0:0:
215,295,170216,1,0,0:0:0:0:
215,295,170308,1,0,0:0:0:0:
215,295,170399,1,8,0:0:0:0:
277,67,170491,1,0,0:0:0:0:
330,300,170582,1,8,0:0:0:0:
271,187,170765,1,0,0:0:0:0:
333,268,170857,1,8,0:0:0:0:
334,263,170948,1,0,0:0:0:0:
334,263,171039,1,0,0:0:0:0:
320,307,171131,1,8,0:0:0:0:
124,232,171222,1,0,0:0:0:0:
142,196,171314,1,8,0:0:0:0:
259,215,171497,1,0,0:0:0:0:
325,201,171680,1,8,0:0:0:0:
325,201,171771,1,0,0:0:0:0:
325,201,171863,1,8,0:0:0:0:
325,201,171954,1,8,0:0:0:0:
325,201,172046,1,0,0:0:0:0:
376,286,172137,1,0,0:0:0:0:
373,277,172228,1,8,0:0:0:0:
325,201,172411,1,0,0:0:0:0:
325,201,172503,1,0,0:0:0:0:
325,201,172594,1,8,0:0:0:0:
325,201,172686,1,8,0:0:0:0:
325,201,172777,1,0,0:0:0:0:
325,201,172869,1,0,0:0:0:0:
325,201,172960,1,8,0:0:0:0:
325,201,173052,1,8,0:0:0:0:
334,314,173143,1,0,0:0:0:0:
320,286,173235,1,8,0:0:0:0:
318,261,173326,1,8,0:0:0:0:
318,260,173418,1,8,0:0:0:0:
318,261,173509,1,0,0:0:0:0:
304,274,173692,1,8,0:0:0:0:
303,262,173783,1,8,0:0:0:0:
270,272,173875,1,0,0:0:0:0:
270,272,174058,1,8,0:0:0:0:
270,272,174149,1,0,0:0:0:0:
270,272,174241,1,8,0:0:0:0:
125,252,174332,1,8,0:0:0:0:
224,253,174424,1,0,0:0:0:0:
198,273,174515,1,0,0:0:0:0:
195,291,174607,1,8,0:0:0:0:
228,234,174698,1,0,0:0:0:0:
240,254,174789,1,8,0:0:0:0:
245,251,174881,1,8,0:0:0:0:
245,251,174972,1,0,0:0:0:0:
243,241,175064,1,0,0:0:0:0:
245,250,175155,1,8,0:0:0:0:
213,258,175338,1,4,0:0:0:0:
230,142,175521,1,0,0:0:0:0:
174,127,175613,1,0,0:0:0:0:
173,118,175704,1,8,0:0:0:0:
175,95,175887,1,0,0:0:0:0:
175,95,175978,1,0,0:0:0:0:
181,93,176070,1,8,0:0:0:0:
181,93,176161,1,8,0:0:0:0:
181,93,176253,1,0,0:0:0:0:
181,93,176344,1,8,0:0:0:0:
181,93,176436,1,0,0:0:0:0:
181,93,176527,1,0,0:0:0:0:
181,93,176619,1,8,0:0:0:0:
282,305,176710,1,8,0:0:0:0:
206,148,176802,1,0,0:0:0:0:
203,130,176893,1,8,0:0:0:0:
282,209,176985,1,8,0:0:0:0:
282,209,177076,1,0,0:0:0:0:
282,209,177168,1,8,0:0:0:0:
282,209,177259,1,8,0:0:0:0:
282,209,177350,1,0,0:0:0:0:
336,324,177533,1,8,0:0:0:0:
315,296,177625,1,0,0:0:0:0:
189,285,177716,1,8,0:0:0:0:
189,285,177808,1,8,0:0:0:0:
189,285,177899,1,0,0:0:0:0:
163,289,177991,1,8,0:0:0:0:
168,299,178082,1,0,0:0:0:0:
287,233,178174,1,0,0:0:0:0:
219,282,178265,1,8,0:0:0:0:
228,274,178357,1,8,0:0:0:0:
228,274,178448,1,0,0:0:0:0:
227,265,178539,1,0,0:0:0:0:
227,265,178631,1,8,0:0:0:0:
223,238,178814,1,0,0:0:0:0:
260,124,178905,1,0,0:0:0:0:
248,104,178997,1,8,0:0:0:0:
196,204,179088,1,8,0:0:0:0:
196,204,179180,1,0,0:0:0:0:
196,176,179271,1,8,0:0:0:0:
196,184,179363,1,8,0:0:0:0:
196,168,179454,1,0,0:0:0:0:
196,168,179546,1,8,0:0:0:0:
196,160,179637,1,8,0:0:0:0:
196,160,179728,1,0,0:0:0:0:
196,156,179820,1,0,0:0:0:0:
196,156,179911,1,8,0:0:0:0:
196,156,180003,1,0,0:0:0:0:
208,268,180094,1,8,0:0:0:0:
196,156,180186,1,8,0:0:0:0:
196,156,180277,1,0,0:0:0:0:
212,104,180369,1,8,0:0:0:0:
196,156,180460,1,0,0:0:0:0:
308,136,180643,1,0,0:0:0:0:
344,176,180735,1,0,0:0:0:0:
344,176,180826,1,8,0:0:0:0:
292,292,181009,1,0,0:0:0:0:
280,196,181100,1,8,0:0:0:0:
280,196,181192,1,0,0:0:0:0:
280,188,181283,1,0,0:0:0:0:
268,268,181375,1,8,0:0:0:0:
256,256,181466,1,0,0:0:0:0:
236,188,181558,1,8,0:0:0:0:
236,188,181649,1,8,0:0:0:0:
236,188,181741,1,0,0:0:0:0:
236,188,181832,1,8,0:0:0:0:
236,188,181924,1,8,0:0:0:0:
236,188,182015,1,0,0:0:0:0:
236,188,182107,1,8,0:0:0:0:
236,188,182198,1,8,0:0:0:0:
236,188,182289,1,0,0:0:0:0:
236,188,182381,1,0,0:0:0:0:
236,188,182472,1,8,0:0:0:0:
376,260,182655,1,0,0:0:0:0:
167,141,182747,1,8,0:0:0:0:
172,136,182838,1,8,0:0:0:0:
173,134,182930,1,0,0:0:0:0:
173,133,183021,1,8,0:0:0:0:
292,175,183204,1,0,0:0:0:0:
292,175,183296,1,0,0:0:0:0:
292,175,183387,1,8,0:0:0:0:
292,175,183478,1,0,0:0:0:0:
292,175,183570,1,8,0:0:0:0:
292,175,183661,1,8,0:0:0:0:
292,175,183753,1,0,0:0:0:0:
292,175,183844,1,0,0:0:0:0:
292,175,183936,1,8,0:0:0:0:
341,266,184119,1,0,0:0:0:0:
323,172,184210,1,8,0:0:0:0:
323,172,184302,1,8,0:0:0:0:
323,172,184393,1,0,0:0:0:0:
367,260,184485,1,8,0:0:0:0:
371,250,184576,1,0,0:0:0:0:
372,247,184668,1,0,0:0:0:0:
342,242,184759,1,8,0:0:0:0:
269,265,184850,1,0,0:0:0:0:
299,234,184942,1,0,0:0:0:0:
299,234,185033,1,8,0:0:0:0:
311,221,185125,1,8,0:0:0:0:
299,179,185216,1,0,0:0:0:0:
301,168,185308,1,8,0:0:0:0:
301,168,185399,1,8,0:0:0:0:
301,168,185491,1,8,0:0:0:0:
301,168,185582,1,0,0:0:0:0:
368,298,185674,1,0,0:0:0:0:
375,267,185765,1,8,0:0:0:0:
292,298,185857,1,0,0:0:0:0:
299,282,185948,1,8,0:0:0:0:
304,264,186039,1,8,0:0:0:0:
294,283,186131,1,0,0:0:0:0:
295,271,186222,1,8,0:0:0:0:
299,265,186314,1,8,0:0:0:0:
189,271,186405,1,0,0:0:0:0:
197,242,186497,1,8,0:0:0:0:
207,213,186588,1,8,0:0:0:0:
207,213,186680,1,0,0:0:0:0:
207,213,186771,1,0,0:0:0:0:
207,213,186863,1,8,0:0:0:0:
209,208,187046,1,4,0:0:0:0:
291,256,187228,1,0,0:0:0:0:
295,242,187320,1,0,0:0:0:0:
295,242,187411,1,8,0:0:0:0:
371,250,187594,1,0,0:0:0:0:
371,250,187686,1,0,0:0:0:0:
340,291,187777,1,8,0:0:0:0:
347,275,187869,1,0,0:0:0:0:
203,280,187960,1,0,0:0:0:0:
317,302,188052,1,8,0:0:0:0:
318,232,188143,1,0,0:0:0:0:
316,232,188235,1,0,0:0:0:0:
351,220,188326,1,8,0:0:0:0:
320,257,188418,1,8,0:0:0:0:
224,249,188509,1,0,0:0:0:0:
304,203,188600,1,8,0:0:0:0:
304,203,188692,1,8,0:0:0:0:
304,203,188783,1,0,0:0:0:0:
304,203,188875,1,8,0:0:0:0:
304,203,188966,1,8,0:0:0:0:
304,203,189058,1,0,0:0:0:0:
360,271,189241,1,8,0:0:0:0:
305,217,189332,1,8,0:0:0:0:
305,217,189424,1,0,0:0:0:0:
350,248,189515,1,8,0:0:0:0:
305,217,189607,1,8,0:0:0:0:
342,193,189698,1,0,0:0:0:0:
342,193,189789,1,8,0:0:0:0:
342,193,189881,1,8,0:0:0:0:
270,204,189972,1,0,0:0:0:0:
251,284,190064,1,0,0:0:0:0:
258,267,190155,1,8,0:0:0:0:
352,300,190247,1,0,0:0:0:0:
350,286,190338,1,8,0:0:0:0:
357,234,190521,1,0,0:0:0:0:
357,234,190613,1,8,0:0:0:0:
357,234,190704,1,0,0:0:0:0:
357,234,190796,1,0,0:0:0:0:
291,267,190887,1,8,0:0:0:0:
294,244,190978,1,0,0:0:0:0:
296,229,191070,1,8,0:0:0:0:
298,224,191161,1,8,0:0:0:0:
298,224,191253,1,0,0:0:0:0:
224,244,191344,1,0,0:0:0:0:
229,232,191436,1,8,0:0:0:0:
244,206,191619,1,0,0:0:0:0:
250,194,191710,1,0,0:0:0:0:
250,194,191802,1,8,0:0:0:0:
233,166,191985,1,0,0:0:0:0:
233,166,192076,1,8,0:0:0:0:
233,166,192168,1,8,0:0:0:0:
233,166,192259,1,0,0:0:0:0:
233,166,192350,1,8,0:0:0:0:
233,166,192442,1,8,0:0:0:0:
233,166,192533,1,0,0:0:0:0:
233,166,192625,1,0,0:0:0:0:
233,166,192716,1,8,0:0:0:0:
309,144,192899,1,0,0:0:0:0:
309,144,192991,1,0,0:0:0:0:
309,144,193082,1,8,0:0:0:0:
309,144,193174,1,0,0:0:0:0:
309,144,193265,1,8,0:0:0:0:
309,144,193357,1,8,0:0:0:0:
309,144,193448,1,0,0:0:0:0:
309,144,193539,1,8,0:0:0:0:
244,288,193631,1,8,0:0:0:0:
309,144,193722,1,0,0:0:0:0:
343,305,193814,1,8,0:0:0:0:
245,281,193905,1,8,0:0:0:0:
332,288,193997,1,0,0:0:0:0:
239,295,194088,1,0,0:0:0:0:
244,288,194180,1,8,0:0:0:0:
244,254,194363,1,0,0:0:0:0:
244,254,194454,1,0,0:0:0:0:
244,219,194546,1,8,0:0:0:0:
244,219,194637,1,0,0:0:0:0:
244,219,194728,1,8,0:0:0:0:
244,219,194820,1,8,0:0:0:0:
244,219,194911,1,0,0:0:0:0:
244,219,195003,1,0,0:0:0:0:
244,219,195094,1,8,0:0:0:0:
245,211,195186,1,0,0:0:0:0:
245,211,195277,1,8,0:0:0:0:
245,211,195369,1,8,0:0:0:0:
245,211,195460,1,0,0:0:0:0:
245,211,195552,1,0,0:0:0:0:
245,211,195643,1,8,0:0:0:0:
291,265,195826,1,0,0:0:0:0:
306,179,195918,1,8,0:0:0:0:
306,179,196009,1,8,0:0:0:0:
306,179,196100,1,0,0:0:0:0:
306,179,196192,1,8,0:0:0:0:
306,179,196283,1,8,0:0:0:0:
306,179,196375,1,0,0:0:0:0:
306,179,196466,1,8,0:0:0:0:
306,179,196558,1,0,0:0:0:0:
306,179,196649,1,0,0:0:0:0:
306,179,196741,1,8,0:0:0:0:
306,179,196832,1,0,0:0:0:0:
319,282,196924,1,8,0:0:0:0:
320,267,197015,1,8,0:0:0:0:
321,263,197107,1,0,0:0:0:0:
321,263,197198,1,8,0:0:0:0:
321,262,197289,1,0,0:0:0:0:
321,261,197381,1,0,0:0:0:0:
322,252,197472,1,8,0:0:0:0:
254,295,197564,1,0,0:0:0:0:
256,265,197655,1,8,0:0:0:0:
188,294,197747,1,8,0:0:0:0:
189,267,197838,1,0,0:0:0:0:
192,259,197930,1,8,0:0:0:0:
192,259,198021,1,0,0:0:0:0:
196,250,198113,1,0,0:0:0:0:
196,249,198204,1,8,0:0:0:0:
216,273,198296,1,0,0:0:0:0:
214,268,198387,1,8,0:0:0:0:
214,264,198478,1,8,0:0:0:0:
214,264,198570,1,8,0:0:0:0:
214,260,198661,1,8,0:0:0:0:
205,221,198753,1,0,0:0:0:0:
272,136,199119,1,8,0:0:0:0:
272,136,199302,1,0,0:0:0:0:
196,140,199393,1,0,0:0:0:0:
196,128,199485,1,8,0:0:0:0:
248,200,199668,1,0,0:0:0:0:
248,184,199850,1,8,0:0:0:0:
248,184,200033,1,8,0:0:0:0:
248,176,200125,1,8,0:0:0:0:
248,172,200216,1,0,0:0:0:0:
252,156,200399,1,8,0:0:0:0:
252,152,200582,1,0,0:0:0:0:
252,148,200674,1,0,0:0:0:0:
248,132,200765,1,8,0:0:0:0:
220,188,200948,1,0,0:0:0:0:
224,152,201131,1,8,0:0:0:0:
232,224,201222,1,8,0:0:0:0:
172,200,201314,1,0,0:0:0:0:
172,200,201405,1,0,0:0:0:0:
172,200,201497,1,8,0:0:0:0:
216,216,201680,1,0,0:0:0:0:
304,192,201863,1,0,0:0:0:0:
304,192,201954,1,0,0:0:0:0:
304,192,202046,1,8,0:0:0:0:
304,192,202228,1,0,0:0:0:0:
304,192,202320,1,0,0:0:0:0:
268,224,202411,1,0,0:0:0:0:
200,256,202503,1,0,0:0:0:0:
200,280,202594,1,8,0:0:0:0:
200,280,202777,1,0,0:0:0:0:
188,128,202960,1,8,0:0:0:0:
188,128,203052,1,8,0:0:0:0:
192,120,203143,1,0,0:0:0:0:
204,292,203326,1,0,0:0:0:0:
208,272,203509,1,8,0:0:0:0:
332,228,203692,1,0,0:0:0:0:
332,216,203783,1,0,0:0:0:0:
272,244,203875,1,8,0:0:0:0:
224,236,204058,1,0,0:0:0:0:
232,232,204241,1,8,0:0:0:0:
232,228,204424,1,8,0:0:0:0:
232,224,204515,1,8,0:0:0:0:
232,224,204607,1,0,0:0:0:0:
232,220,204789,1,8,0:0:0:0:
236,224,204972,1,0,0:0:0:0:
224,248,205064,1,0,0:0:0:0:
228,240,205155,1,8,0:0:0:0:
228,240,205338,1,0,0:0:0:0:
228,240,205521,1,8,0:0:0:0:
228,240,205613,1,8,0:0:0:0:
228,240,205704,1,0,0:0:0:0:
228,240,205796,1,0,0:0:0:0:
228,240,205887,1,8,0:0:0:0:
228,240,206070,1,0,0:0:0:0:
256,256,206253,1,0,0:0:0:0:
256,236,206344,1,0,0:0:0:0:
256,240,206436,1,8,0:0:0:0:
232,296,206619,1,0,0:0:0:0:
236,292,206710,1,0,0:0:0:0:
232,320,206802,1,8,0:0:0:0:
208,304,206985,1,0,0:0:0:0:
212,296,207076,1,0,0:0:0:0:
212,296,207168,1,8,0:0:0:0:
212,296,207259,1,8,0:0:0:0:
216,296,207350,1,0,0:0:0:0:
216,288,207533,1,8,0:0:0:0:
220,284,207716,1,0,0:0:0:0:
224,280,207808,1,0,0:0:0:0:
224,280,207899,1,8,0:0:0:0:
224,284,208082,1,0,0:0:0:0:
224,280,208265,1,8,0:0:0:0:
252,248,208357,1,8,0:0:0:0:
228,280,208448,1,0,0:0:0:0:
248,260,208631,1,8,0:0:0:0:
204,200,208814,1,0,0:0:0:0:
248,260,208905,1,0,0:0:0:0:
248,260,208997,1,0,0:0:0:0:
220,184,209180,1,0,0:0:0:0:
296,200,209271,1,0,0:0:0:0:
324,180,209363,1,8,0:0:0:0:
196,116,209546,1,0,0:0:0:0:
192,100,209637,1,0,0:0:0:0:
196,100,209728,1,8,0:0:0:0:
196,100,209820,1,0,0:0:0:0:
196,100,209911,1,8,0:0:0:0:
280,248,210003,1,8,0:0:0:0:
272,252,210094,1,0,0:0:0:0:
292,232,210186,1,0,0:0:0:0:
288,236,210277,1,8,0:0:0:0:
328,196,210460,1,4,0:0:0:0:
312,128,210643,1,8,0:0:0:0:
344,104,210735,1,8,0:0:0:0:
256,220,210826,1,0,0:0:0:0:
328,196,211009,1,0,0:0:0:0:
160,96,211100,1,0,0:0:0:0:
160,96,211192,1,8,0:0:0:0:
160,96,211375,1,0,0:0:0:0:
160,96,211558,1,8,0:0:0:0:
356,248,211741,1,8,0:0:0:0:
364,184,211832,1,8,0:0:0:0:
308,200,211924,1,0,0:0:0:0:
336,148,212107,1,0,0:0:0:0:
340,140,212289,1,8,0:0:0:0:
272,208,212472,1,0,0:0:0:0:
292,188,212564,1,8,0:0:0:0:
304,180,212655,1,8,0:0:0:0:
308,168,212838,1,0,0:0:0:0:
304,152,213021,1,8,0:0:0:0:
304,152,213113,1,8,0:0:0:0:
304,152,213204,1,8,0:0:0:0:
268,188,213387,1,0,0:0:0:0:
352,208,213570,1,8,0:0:0:0:
352,208,213661,1,8,0:0:0:0:
352,208,213753,1,0,0:0:0:0:
352,208,213936,1,8,0:0:0:0:
352,208,214119,1,0,0:0:0:0:
352,208,214210,1,0,0:0:0:0:
352,208,214302,1,8,0:0:0:0:
304,224,214485,1,0,0:0:0:0:
316,216,214576,1,0,0:0:0:0:
296,252,214668,1,8,0:0:0:0:
296,252,214850,1,0,0:0:0:0:
292,260,215033,1,8,0:0:0:0:
304,248,215125,1,8,0:0:0:0:
312,240,215216,1,0,0:0:0:0:
312,240,215399,1,8,0:0:0:0:
276,252,215582,1,0,0:0:0:0:
280,240,215765,1,8,0:0:0:0:
228,228,215857,1,8,0:0:0:0:
228,228,215948,1,0,0:0:0:0:
228,228,216039,1,0,0:0:0:0:
228,228,216131,1,8,0:0:0:0:
228,228,216314,1,0,0:0:0:0:
236,212,216497,1,0,0:0:0:0:
196,280,216588,1,0,0:0:0:0:
236,216,216680,1,8,0:0:0:0:
320,228,216863,1,0,0:0:0:0:
268,248,217046,1,8,0:0:0:0:
152,224,217137,1,8,0:0:0:0:
156,220,217228,1,0,0:0:0:0:
260,236,217411,1,8,0:0:0:0:
280,216,217594,1,8,0:0:0:0:
256,252,217777,1,0,0:0:0:0:
256,192,217960,1,8,0:0:0:0:
308,184,218052,1,8,0:0:0:0:
304,208,218143,1,0,0:0:0:0:
276,256,218326,1,8,0:0:0:0:
272,244,218509,1,0,0:0:0:0:
276,232,218692,1,8,0:0:0:0:
280,232,218783,1,8,0:0:0:0:
276,256,218875,1,0,0:0:0:0:
268,216,218966,1,0,0:0:0:0:
272,208,219058,1,8,0:0:0:0:
244,188,219241,1,0,0:0:0:0:
244,188,219332,1,0,0:0:0:0:
244,188,219424,1,8,0:0:0:0:
244,188,219515,1,0,0:0:0:0:
244,188,219607,1,8,0:0:0:0:
304,228,219698,1,8,0:0:0:0:
256,248,219789,1,0,0:0:0:0:
304,216,219881,1,0,0:0:0:0:
252,232,219972,1,8,0:0:0:0:
272,188,220155,1,0,0:0:0:0:
272,184,220247,1,0,0:0:0:0:
272,172,220338,1,8,0:0:0:0:
264,176,220430,1,0,0:0:0:0:
264,176,220521,1,8,0:0:0:0:
264,176,220704,1,0,0:0:0:0:
264,176,220887,1,8,0:0:0:0:
192,224,220978,1,8,0:0:0:0:
216,192,221070,1,0,0:0:0:0:
304,240,221161,1,0,0:0:0:0:
264,304,221253,1,8,0:0:0:0:
244,292,221344,1,0,0:0:0:0:
264,232,221436,1,8,0:0:0:0:
272,288,221527,1,8,0:0:0:0:
272,288,221619,1,0,0:0:0:0:
272,276,221710,1,8,0:0:0:0:
276,272,221802,1,0,0:0:0:0:
280,264,221893,1,0,0:0:0:0:
280,264,221985,1,8,0:0:0:0:
308,224,222168,1,4,0:0:0:0:
264,232,222350,1,0,0:0:0:0:
280,216,222442,1,0,0:0:0:0:
280,212,222533,1,8,0:0:0:0:
284,212,222625,1,8,0:0:0:0:
284,212,222716,1,0,0:0:0:0:
284,212,222899,1,8,0:0:0:0:
256,120,223082,1,0,0:0:0:0:
252,112,223174,1,0,0:0:0:0:
252,112,223265,1,8,0:0:0:0:
252,112,223357,1,0,0:0:0:0:
252,112,223448,1,8,0:0:0:0:
252,112,223631,1,0,0:0:0:0:
252,112,223814,1,8,0:0:0:0:
252,112,223905,1,8,0:0:0:0:
160,112,223997,1,0,0:0:0:0:
344,240,224180,1,8,0:0:0:0:
136,132,224363,1,0,0:0:0:0:
156,120,224546,1,8,0:0:0:0:
216,252,224637,1,0,0:0:0:0:
224,256,224728,1,8,0:0:0:0:
224,252,224820,1,8,0:0:0:0:
224,248,224911,1,0,0:0:0:0:
156,120,225003,1,8,0:0:0:0:
156,120,225094,1,0,0:0:0:0:
360,188,225277,1,8,0:0:0:0:
232,228,225369,1,8,0:0:0:0:
216,240,225460,1,0,0:0:0:0:
328,256,225552,1,8,0:0:0:0:
304,280,225643,1,0,0:0:0:0:
304,280,225826,1,8,0:0:0:0:
224,232,225918,1,0,0:0:0:0:
228,236,226009,1,8,0:0:0:0:
232,228,226100,1,8,0:0:0:0:
224,232,226192,1,0,0:0:0:0:
232,228,226283,1,0,0:0:0:0:
228,224,226375,1,8,0:0:0:0:
236,304,226558,1,0,0:0:0:0:
320,216,226741,1,8,0:0:0:0:
224,124,226832,1,8,0:0:0:0:
228,120,226924,1,0,0:0:0:0:
240,108,227015,1,8,0:0:0:0:
240,128,227107,1,0,0:0:0:0:
248,120,227198,1,8,0:0:0:0:
256,112,227289,1,8,0:0:0:0:
256,112,227381,1,0,0:0:0:0:
256,108,227472,1,8,0:0:0:0:
256,108,227564,1,8,0:0:0:0:
256,108,227655,1,0,0:0:0:0:
256,108,227747,1,0,0:0:0:0:
256,104,227838,1,8,0:0:0:0:
268,110,228021,1,0,0:0:0:0:
322,217,228204,1,8,0:0:0:0:
341,183,228296,1,8,0:0:0:0:
335,252,228387,1,0,0:0:0:0:
356,191,228478,1,0,0:0:0:0:
358,194,228570,1,8,0:0:0:0:
358,194,228753,1,0,0:0:0:0:
314,176,228844,1,0,0:0:0:0:
314,172,228936,1,8,0:0:0:0:
313,164,229027,1,0,0:0:0:0:
309,151,229119,1,8,0:0:0:0:
309,147,229210,1,8,0:0:0:0:
309,146,229302,1,0,0:0:0:0:
352,184,229485,1,8,0:0:0:0:
350,240,229668,1,0,0:0:0:0:
370,217,229759,1,0,0:0:0:0:
370,217,229850,1,8,0:0:0:0:
370,217,230033,1,0,0:0:0:0:
369,233,230216,1,8,0:0:0:0:
300,193,230308,1,0,0:0:0:0:
300,193,230399,1,8,0:0:0:0:
300,193,230491,1,8,0:0:0:0:
301,178,230582,1,0,0:0:0:0:
302,171,230674,1,0,0:0:0:0:
302,170,230765,1,8,0:0:0:0:
302,171,230948,1,0,0:0:0:0:
253,232,231131,1,8,0:0:0:0:
306,197,231222,1,8,0:0:0:0:
288,184,231314,1,0,0:0:0:0:
264,182,231405,1,0,0:0:0:0:
278,194,231497,1,8,0:0:0:0:
272,201,231588,1,0,0:0:0:0:
274,195,231680,1,8,0:0:0:0:
265,191,231771,1,8,0:0:0:0:
264,191,231863,1,0,0:0:0:0:
265,191,232046,1,8,0:0:0:0:
265,191,232137,1,8,0:0:0:0:
265,191,232228,1,0,0:0:0:0:
253,177,232320,1,8,0:0:0:0:
253,179,232411,1,0,0:0:0:0:
253,179,232594,1,0,0:0:0:0:
254,179,232686,1,0,0:0:0:0:
254,179,232777,1,8,0:0:0:0:
254,179,232960,1,0,0:0:0:0:
140,232,233052,1,0,0:0:0:0:
154,207,233143,1,8,0:0:0:0:
196,212,233235,1,0,0:0:0:0:
198,224,233326,1,8,0:0:0:0:
251,229,233418,1,8,0:0:0:0:
251,229,233509,1,0,0:0:0:0:
251,229,233600,1,0,0:0:0:0:
251,229,233692,1,8,0:0:0:0:
251,229,233875,1,4,0:0:0:0:
265,226,234058,1,8,0:0:0:0:
282,142,234149,1,8,0:0:0:0:
166,258,234241,1,0,0:0:0:0:
175,238,234332,1,0,0:0:0:0:
274,195,234424,1,0,0:0:0:0:
282,176,234515,1,0,0:0:0:0:
286,171,234607,1,8,0:0:0:0:
283,196,234789,1,0,0:0:0:0:
288,162,234881,1,0,0:0:0:0:
289,162,234972,1,8,0:0:0:0:
279,219,235064,1,0,0:0:0:0:
281,209,235155,1,8,0:0:0:0:
283,184,235338,1,0,0:0:0:0:
282,176,235521,1,8,0:0:0:0:
284,178,235613,1,8,0:0:0:0:
284,178,235704,1,0,0:0:0:0:
220,194,235796,1,0,0:0:0:0:
284,178,235887,1,0,0:0:0:0:
284,178,235978,1,8,0:0:0:0:
285,176,236070,1,8,0:0:0:0:
279,235,236253,1,0,0:0:0:0:
313,185,236436,1,8,0:0:0:0:
278,208,236527,1,8,0:0:0:0:
314,178,236619,1,8,0:0:0:0:
298,197,236802,1,0,0:0:0:0:
298,197,236985,1,8,0:0:0:0:
180,231,237076,1,0,0:0:0:0:
178,253,237168,1,8,0:0:0:0:
170,215,237259,1,8,0:0:0:0:
177,259,237350,1,0,0:0:0:0:
176,258,237442,1,8,0:0:0:0:
148,280,237533,1,0,0:0:0:0:
145,272,237625,1,0,0:0:0:0:
207,284,237716,1,8,0:0:0:0:
212,274,237808,1,8,0:0:0:0:
221,254,237899,1,0,0:0:0:0:
220,254,237991,1,0,0:0:0:0:
285,203,238082,1,8,0:0:0:0:
285,205,238265,1,0,0:0:0:0:
286,202,238448,1,8,0:0:0:0:
287,200,238539,1,8,0:0:0:0:
220,254,238631,1,0,0:0:0:0:
229,181,238814,1,8,0:0:0:0:
248,157,238997,1,0,0:0:0:0:
235,172,239088,1,0,0:0:0:0:
247,167,239180,1,8,0:0:0:0:
251,166,239271,1,0,0:0:0:0:
250,172,239363,1,8,0:0:0:0:
256,171,239454,1,8,0:0:0:0:
256,171,239546,1,0,0:0:0:0:
256,171,239728,1,8,0:0:0:0:
174,92,239911,1,0,0:0:0:0:
174,92,240003,1,0,0:0:0:0:
174,92,240094,1,8,0:0:0:0:
174,92,240186,1,0,0:0:0:0:
174,92,240277,1,8,0:0:0:0:
174,92,240369,1,8,0:0:0:0:
174,92,240460,1,0,0:0:0:0:
322,246,240552,1,0,0:0:0:0:
322,246,240643,1,8,0:0:0:0:
338,190,240826,1,0,0:0:0:0:
301,202,241009,1,8,0:0:0:0:
310,194,241100,1,8,0:0:0:0:
245,237,241192,1,0,0:0:0:0:
250,227,241375,1,8,0:0:0:0:
251,227,241466,1,8,0:0:0:0:
235,251,241558,1,0,0:0:0:0:
237,249,241649,1,0,0:0:0:0:
238,249,241741,1,8,0:0:0:0:
191,176,241832,1,0,0:0:0:0:
191,176,241924,1,8,0:0:0:0:
231,176,242015,1,8,0:0:0:0:
231,176,242107,1,0,0:0:0:0:
231,176,242198,1,8,0:0:0:0:
231,176,242289,1,8,0:0:0:0:
231,176,242381,1,0,0:0:0:0:
231,176,242472,1,8,0:0:0:0:
303,276,242655,1,0,0:0:0:0:
304,215,242747,1,0,0:0:0:0:
304,215,242838,1,8,0:0:0:0:
304,215,242930,1,0,0:0:0:0:
304,215,243021,1,0,0:0:0:0:
304,215,243113,1,8,0:0:0:0:
304,215,243204,1,0,0:0:0:0:
304,215,243296,1,0,0:0:0:0:
304,215,243387,1,8,0:0:0:0:
400,300,243478,1,8,0:0:0:0:
375,289,243570,1,0,0:0:0:0:
261,287,243661,1,8,0:0:0:0:
273,264,243753,1,8,0:0:0:0:
266,249,243844,1,0,0:0:0:0:
267,249,243936,1,8,0:0:0:0:
330,185,244119,1,0,0:0:0:0:
330,185,244210,1,0,0:0:0:0:
330,185,244302,1,8,0:0:0:0:
330,185,244393,1,8,0:0:0:0:
330,185,244485,1,0,0:0:0:0:
211,264,244576,1,8,0:0:0:0:
330,185,244668,1,8,0:0:0:0:
244,241,244759,1,8,0:0:0:0:
238,275,244850,1,0,0:0:0:0:
261,261,244942,1,0,0:0:0:0:
355,225,245033,1,8,0:0:0:0:
355,225,245125,1,0,0:0:0:0:
355,225,245216,1,8,0:0:0:0:
355,225,245308,1,0,0:0:0:0:
355,225,245399,1,8,0:0:0:0:
355,225,245582,1,4,0:0:0:0:
178,174,247046,1,8,0:0:0:0:
327,232,248509,1,0,0:0:0:0:
349,198,249972,1,0,0:0:0:0:
349,198,250338,1,0,0:0:0:0:
349,198,250704,1,0,0:0:0:0:
349,198,251070,1,8,0:0:0:0:
349,198,251436,1,8,0:0:0:0:
252,237,251619,1,0,0:0:0:0:
252,237,251802,1,0,0:0:0:0:
252,237,251985,1,8,0:0:0:0:
252,237,252350,1,8,0:0:0:0:
159,221,252533,1,0,0:0:0:0:
159,221,252899,1,8,0:0:0:0:
159,221,253265,1,0,0:0:0:0:
163,213,253448,1,8,0:0:0:0:
159,221,253814,1,8,0:0:0:0:
71,137,253997,1,0,0:0:0:0:
293,87,254363,1,0,0:0:0:0:
293,87,254485,1,8,0:0:0:0:
293,87,254607,1,8,0:0:0:0:
293,87,254728,1,0,0:0:0:0:
293,87,254850,1,0,0:0:0:0:
293,87,254972,1,8,0:0:0:0:
374,280,255094,1,0,0:0:0:0:
374,280,255216,1,0,0:0:0:0:
364,277,255338,1,8,0:0:0:0:
312,192,255460,1,0,0:0:0:0:
312,192,255582,1,0,0:0:0:0:
267,215,255704,1,8,0:0:0:0:
296,206,255826,1,0,0:0:0:0:
295,207,255948,1,0,0:0:0:0:
295,207,256070,1,8,0:0:0:0:
295,207,256192,1,0,0:0:0:0:
295,207,256314,1,8,0:0:0:0:
157,227,256436,1,8,0:0:0:0:
202,281,256558,1,0,0:0:0:0:
213,268,256680,1,0,0:0:0:0:
215,262,256802,1,8,0:0:0:0:
229,258,256924,1,0,0:0:0:0:
240,239,257046,1,8,0:0:0:0:
240,238,257168,1,8,0:0:0:0:
240,238,257289,1,0,0:0:0:0:
286,171,258753,1,8,0:0:0:0:
285,170,260216,1,0,0:0:0:0:
285,170,261680,1,8,0:0:0:0:
304,129,262777,1,0,0:0:0:0:
304,129,263143,1,0,0:0:0:0:
214,222,264607,1,8,0:0:0:0:
213,222,266070,1,0,0:0:0:0:
115,178,267716,1,8,0:0:0:0:
282,254,269025,1,0,0:0:0:0:
240,162,270488,1,0,0:0:0:0:
240,162,271951,1,8,0:0:0:0:
240,162,273415,1,0,0:0:0:0:
240,162,273781,1,0,0:0:0:0:
240,162,274146,1,0,0:0:0:0:
240,162,274512,1,8,0:0:0:0:
240,162,274878,1,8,0:0:0:0:
240,162,275244,1,8,0:0:0:0:
240,162,275610,1,0,0:0:0:0:
240,162,275976,1,0,0:0:0:0:
240,162,276342,1,8,0:0:0:0:
240,162,277073,1,8,0:0:0:0:
240,162,277805,1,0,0:0:0:0:
240,162,278171,1,8,0:0:0:0:
240,162,278537,1,0,0:0:0:0:
240,162,278903,1,0,0:0:0:0:
240,162,279268,1,8,0:0:0:0:
240,162,280000,1,0,0:0:0:0:
240,162,280732,1,8,0:0:0:0:
240,162,282195,1,0,0:0:0:0:
240,162,283659,1,8,0:0:0:0:
240,162,285122,1,0,0:0:0:0:
240,162,285488,1,0,0:0:0:0:
240,162,285854,1,0,0:0:0:0:
240,162,286220,1,8,0:0:0:0:
240,162,286585,1,8,0:0:0:0:
214,181,286951,1,8,0:0:0:0:
240,162,287317,1,0,0:0:0:0:
214,181,287683,1,0,0:0:0:0:
214,181,288049,1,8,0:0:0:0:
214,181,288781,1,8,0:0:0:0:
214,181,289512,1,0,0:0:0:0:
214,181,289878,1,8,0:0:0:0:
214,181,290244,1,0,0:0:0:0:
214,181,290610,1,0,0:0:0:0:
214,181,290976,1,8,0:0:0:0:
214,181,291707,1,0,0:0:0:0:
214,181,292439,1,8,0:0:0:0:
214,178,293903,1,0,0:0:0:0:
214,178,295366,1,8,0:0:0:0:
214,178,296829,1,0,0:0:0:0:
214,178,297195,1,0,0:0:0:0:
214,178,297561,1,0,0:0:0:0:
214,178,297927,1,8,0:0:0:0:
214,178,298293,1,8,0:0:0:0:
202,194,298659,1,8,0:0:0:0:
214,178,299024,1,0,0:0:0:0:
202,194,299390,1,0,0:0:0:0:
202,194,299756,1,8,0:0:0:0:
202,194,300488,1,8,0:0:0:0:
202,194,301220,1,0,0:0:0:0:
202,194,301585,1,8,0:0:0:0:
202,194,301951,1,0,0:0:0:0:
202,194,302317,1,0,0:0:0:0:
202,194,302683,1,8,0:0:0:0:
372,335,303415,1,0,0:0:0:0:
