osu file format v14

[General]
AudioFilename: audio3 (2).mp3
AudioLeadIn: 0
PreviewTime: 132224
Countdown: 0
SampleSet: Normal
StackLeniency: 0.7
Mode: 1
LetterboxInBreaks: 0
WidescreenStoryboard: 0

[Editor]
DistanceSpacing: 0.8
BeatDivisor: 4
GridSize: 16
TimelineZoom: 2.7

[Metadata]
Title:ELPIS
TitleUnicode:ΕΛΠΙΣ
Artist:dj TAKA
ArtistUnicode:dj TAKA
Creator:iloveyou4ever
Version:Inner Oni
Source:beatmania IIDX 20 tricoro
Tags:True Blue romantic school variations 10th style boss song legend cross sdvx
BeatmapID:1182826
BeatmapSetID:559260

[Difficulty]
HPDrainRate:5
CircleSize:2
OverallDifficulty:6
ApproachRate:5
SliderMultiplier:1.4
SliderTickRate:1

[Events]
//Background and Video events
0,0,"bg123.jpg",0,0
//Break Periods
//Storyboard Layer 0 (Background)
//Storyboard Layer 1 (Fail)
//Storyboard Layer 2 (Pass)
//Storyboard Layer 3 (Foreground)
//Storyboard Sound Samples

[TimingPoints]
1764,400,4,1,0,40,1,0
1764,-111.111111111111,4,1,0,40,0,0
27264,-100,4,1,0,70,0,0
54564,387.096774193548,4,1,0,70,1,0
57660,375,4,1,0,70,1,0
60660,363.636363636364,4,1,0,70,1,0
65023,342.857142857143,4,1,0,85,1,0
75994,-100,4,1,0,90,0,1
97937,-100,4,1,0,90,0,0
99308,-102.040816326531,4,1,0,75,0,0
100680,-105.263157894737,4,1,0,60,0,0
103423,-105.263157894737,4,1,0,70,0,0
104108,348.837209302326,4,1,0,70,1,8
104108,-103.092783505155,4,1,0,70,0,0
104456,337.078651685393,4,1,0,70,1,8
104456,-107.52688172043,4,1,0,70,0,0
104793,337.078651685393,4,1,0,70,1,0
104793,-107.52688172043,4,1,0,70,0,0
105467,340.909090909091,4,1,0,70,1,8
105467,-105.263157894737,4,1,0,70,0,0
105807,342.857142857143,4,1,0,70,1,8
105807,-105.263157894737,4,1,0,70,0,0
106149,340.909090909091,4,1,0,70,1,0
106149,-105.263157894737,4,1,0,70,0,0
106489,361.44578313253,4,1,0,70,1,8
106669,337.078651685393,4,1,0,70,1,8
106669,-107.52688172043,4,1,0,70,0,0
106837,365.853658536585,4,1,0,70,1,8
106837,-99.009900990099,4,1,0,70,0,0
107019,359.281437125748,4,1,0,70,1,8
107198,344.827586206897,4,1,0,70,1,8
107198,-104.166666666667,4,1,0,70,0,0
107370,326.086956521739,4,1,0,70,1,8
107370,-111.111111111111,4,1,0,70,0,0
107533,361.44578313253,4,1,0,70,1,0
107896,329.67032967033,4,1,0,70,1,8
107896,-109.89010989011,4,1,0,70,0,0
108225,342.857142857143,4,1,0,70,1,8
108225,-105.263157894737,4,1,0,70,0,0
108910,342.857142857143,4,1,0,70,1,0
108910,-105.263157894737,4,1,0,70,0,0
114395,-100,4,1,0,80,0,8
132224,-100,4,1,0,90,0,1
152795,-100,4,1,0,90,0,0
153738,-99.009900990099,4,1,0,90,0,0
153824,-98.0392156862745,4,1,0,90,0,0
153910,-97.0873786407767,4,1,0,90,0,0
153995,-96.1538461538461,4,1,0,90,0,0
154167,-95.2380952380952,4,1,0,90,0,1
175939,365.853658536585,4,1,0,90,1,9
175939,-89.2857142857143,4,1,0,90,0,1
176121,344.827586206897,4,1,0,50,1,0
176121,-95.2380952380952,4,1,0,50,0,0
176293,-109.89010989011,4,1,0,50,0,0
177327,333.333333333333,4,1,0,50,1,8
177327,-114.285714285714,4,1,0,50,0,0
177493,338.983050847458,4,1,0,50,1,0
177493,-112.359550561798,4,1,0,50,0,8
178340,337.078651685393,4,1,0,50,1,8
178340,-113.636363636364,4,1,0,50,0,8
178845,337.078651685393,4,1,0,50,1,0
178845,-113.636363636364,4,1,0,50,0,8
179519,348.837209302326,4,1,0,50,1,8
179519,-109.289617486339,4,1,0,50,0,8
180042,361.44578313253,4,1,0,50,1,8
180042,-105.263157894737,4,1,0,50,0,8
180222,342.857142857143,4,1,0,50,1,0
180222,-111.111111111111,4,1,0,50,0,0
180736,361.44578313253,4,1,0,50,1,8
180736,-105.263157894737,4,1,0,50,0,8
180916,348.837209302326,4,1,0,50,1,8
180916,-108.695652173913,4,1,0,50,0,8
181264,344.827586206897,4,1,0,50,1,8
181264,-109.89010989011,4,1,0,50,0,8
181608,344.827586206897,4,1,0,50,1,0
181608,-109.89010989011,4,1,0,50,0,0
182125,352.941176470588,4,1,0,50,1,8
182125,-107.52688172043,4,1,0,50,0,0
182301,333.333333333333,4,1,0,50,1,8
182301,-113.636363636364,4,1,0,50,0,0
182467,344.827586206897,4,1,0,50,1,8
182467,-109.89010989011,4,1,0,50,0,0
182811,329.67032967033,4,1,0,50,1,8
182811,-115.606936416185,4,1,0,50,0,0
182972,333.333333333333,4,1,0,50,1,0
182972,-113.636363636364,4,1,0,50,0,0
183823,344.827586206897,4,1,0,50,1,8
183823,-108.695652173913,4,1,0,50,0,0
183995,329.67032967033,4,1,0,50,1,8
183995,-113.636363636364,4,1,0,50,0,0
184159,364.741641337386,4,1,0,50,1,8
184159,-103.092783505155,4,1,0,50,0,0
184341,337.078651685393,4,1,0,50,1,0
184341,-111.111111111111,4,1,0,50,0,0
185014,340.909090909091,4,1,0,50,1,8
185014,-112.359550561798,4,1,0,50,0,8
185525,375,4,1,0,50,1,8
185525,-102.040816326531,4,1,0,50,0,0
185712,346.820809248555,4,1,0,50,1,0
185712,-109.89010989011,4,1,0,50,0,0
186056,346.820809248555,4,1,0,50,1,8
186056,-109.89010989011,4,1,0,50,0,0
186405,340.909090909091,4,1,0,50,1,8
186405,-112.359550561798,4,1,0,50,0,0
186575,-111.111111111111,4,1,0,50,0,0
186660,-109.89010989011,4,1,0,50,0,0
186745,-108.695652173913,4,1,0,50,0,0
186916,-107.52688172043,4,1,0,50,0,0
187082,342.857142857143,4,1,0,60,1,0
187082,-105.263157894737,4,1,0,60,0,0
198053,-100,4,1,0,80,0,0
219996,-95.2380952380952,4,1,0,90,0,1
240139,-96.1538461538461,4,1,0,90,0,1
240224,-97.0873786407767,4,1,0,90,0,1
240396,-98.0392156862745,4,1,0,90,0,1
240482,-99.009900990099,4,1,0,90,0,1
240567,-100,4,1,0,90,0,0
241939,-100,4,1,0,90,0,1
252567,-99.009900990099,4,1,0,90,0,1
252653,-98.0392156862745,4,1,0,90,0,1
252739,-97.0873786407767,4,1,0,90,0,1
252824,-96.1538461538461,4,1,0,90,0,1
252910,-95.2380952380952,4,1,0,90,0,1
263882,-95.2380952380952,4,1,0,90,0,0
264053,-96.1538461538461,4,1,0,85,0,0
264224,-97.0873786407767,4,1,0,85,0,0
264396,-98.0392156862745,4,1,0,85,0,0
264739,-99.009900990099,4,1,0,85,0,0
264910,-100,4,1,0,85,0,0
285824,-100,4,1,0,70,0,0
285910,-105.263157894737,4,1,0,60,0,0
291396,-111.111111111111,4,1,0,50,0,0
296796,-111.111111111111,4,1,0,44,0,0
297482,-111.111111111111,4,1,0,38,0,0
298167,-111.111111111111,4,1,0,32,0,0
298853,-111.111111111111,4,1,0,26,0,0
299539,-111.111111111111,4,1,0,20,0,0
300224,-111.111111111111,4,1,0,14,0,0
300910,-111.111111111111,4,1,0,8,0,0

[HitObjects]
336,144,1764,5,8,0:0:0:0:
352,144,3364,1,8,0:0:0:0:
384,208,4964,1,0,0:0:0:0:
384,208,5364,1,0,0:0:0:0:
368,160,5764,1,8,0:0:0:0:
368,160,6164,1,8,0:0:0:0:
384,160,6564,1,0,0:0:0:0:
384,160,8164,1,8,0:0:0:0:
384,160,9764,1,8,0:0:0:0:
384,160,11364,1,0,0:0:0:0:
384,128,12964,1,0,0:0:0:0:
448,128,13364,1,8,0:0:0:0:
448,128,13764,1,8,0:0:0:0:
368,128,14164,1,0,0:0:0:0:
416,144,14564,1,8,0:0:0:0:
416,208,16164,1,8,0:0:0:0:
288,144,17764,1,0,0:0:0:0:
416,160,18564,1,8,0:0:0:0:
384,144,19364,1,0,0:0:0:0:
384,144,20164,1,0,0:0:0:0:
432,144,20964,1,8,0:0:0:0:
352,144,22564,1,8,0:0:0:0:
420,123,24164,1,0,0:0:0:0:
448,128,24964,1,0,0:0:0:0:
432,128,25764,1,0,0:0:0:0:
288,128,26564,1,0,0:0:0:0:
432,144,27364,1,12,0:0:0:0:
416,192,27564,1,8,0:0:0:0:
448,160,27964,1,8,0:0:0:0:
432,176,28164,1,0,0:0:0:0:
480,144,28364,1,8,0:0:0:0:
464,160,28564,1,0,0:0:0:0:
448,176,28664,1,0,0:0:0:0:
448,160,28764,1,8,0:0:0:0:
448,176,28964,1,8,0:0:0:0:
448,144,29164,1,8,0:0:0:0:
432,224,29564,1,8,0:0:0:0:
384,160,29764,1,0,0:0:0:0:
432,224,29964,1,8,0:0:0:0:
448,176,30164,1,0,0:0:0:0:
432,160,30264,1,8,0:0:0:0:
432,224,30364,1,8,0:0:0:0:
384,160,30564,1,0,0:0:0:0:
384,160,30764,1,8,0:0:0:0:
384,160,31164,1,8,0:0:0:0:
368,160,31364,1,0,0:0:0:0:
400,144,31564,1,8,0:0:0:0:
416,160,31764,1,0,0:0:0:0:
416,160,31864,1,0,0:0:0:0:
288,160,31964,1,8,0:0:0:0:
384,160,32164,1,0,0:0:0:0:
352,144,32364,1,8,0:0:0:0:
352,144,32764,1,8,0:0:0:0:
400,160,32964,1,0,0:0:0:0:
400,160,33064,1,0,0:0:0:0:
384,160,33164,1,8,0:0:0:0:
416,176,33364,1,0,0:0:0:0:
416,176,33464,1,0,0:0:0:0:
400,144,33564,1,8,0:0:0:0:
336,160,33764,1,0,0:0:0:0:
400,160,33964,1,8,0:0:0:0:
400,192,34364,1,8,0:0:0:0:
352,144,34564,1,0,0:0:0:0:
320,112,34764,1,8,0:0:0:0:
400,176,34964,1,0,0:0:0:0:
400,176,35064,1,0,0:0:0:0:
368,160,35164,1,8,0:0:0:0:
400,144,35364,1,8,0:0:0:0:
320,144,35564,1,8,0:0:0:0:
464,192,35964,1,8,0:0:0:0:
432,160,36164,1,0,0:0:0:0:
448,160,36364,1,8,0:0:0:0:
416,144,36564,1,0,0:0:0:0:
416,144,36664,1,8,0:0:0:0:
432,160,36764,1,8,0:0:0:0:
384,160,36964,1,0,0:0:0:0:
384,160,37164,1,8,0:0:0:0:
448,160,37564,1,8,0:0:0:0:
416,160,37764,1,0,0:0:0:0:
464,176,37964,1,8,0:0:0:0:
464,160,38164,1,0,0:0:0:0:
464,160,38264,1,0,0:0:0:0:
432,144,38364,1,8,0:0:0:0:
416,160,38564,1,0,0:0:0:0:
432,144,38764,1,8,0:0:0:0:
400,144,38964,1,0,0:0:0:0:
400,144,39064,1,0,0:0:0:0:
384,144,39164,1,8,0:0:0:0:
336,112,39364,1,0,0:0:0:0:
432,208,39464,1,8,0:0:0:0:
384,144,39564,1,8,0:0:0:0:
464,176,39764,1,8,0:0:0:0:
464,176,39864,1,8,0:0:0:0:
416,160,39964,1,0,0:0:0:0:
384,144,40164,1,8,0:0:0:0:
368,128,40364,1,8,0:0:0:0:
432,144,40764,1,8,0:0:0:0:
464,160,40964,1,0,0:0:0:0:
432,160,41064,1,8,0:0:0:0:
384,160,41164,1,8,0:0:0:0:
432,160,41364,1,0,0:0:0:0:
384,160,41464,1,8,0:0:0:0:
368,160,41564,1,8,0:0:0:0:
384,144,41764,1,0,0:0:0:0:
432,144,41964,1,8,0:0:0:0:
432,144,42364,1,8,0:0:0:0:
400,144,42564,1,0,0:0:0:0:
432,160,42664,1,0,0:0:0:0:
448,144,42764,1,8,0:0:0:0:
448,144,42964,1,0,0:0:0:0:
432,160,43064,1,0,0:0:0:0:
432,144,43164,1,8,0:0:0:0:
416,144,43364,1,0,0:0:0:0:
496,160,43564,1,8,0:0:0:0:
464,160,43764,1,0,0:0:0:0:
464,160,43864,1,0,0:0:0:0:
480,160,43964,1,8,0:0:0:0:
448,144,44164,1,0,0:0:0:0:
448,144,44264,1,8,0:0:0:0:
448,144,44364,1,8,0:0:0:0:
416,176,44564,1,0,0:0:0:0:
448,144,44664,1,8,0:0:0:0:
448,144,44764,1,8,0:0:0:0:
448,128,44964,1,0,0:0:0:0:
448,144,45164,1,8,0:0:0:0:
416,144,45364,1,0,0:0:0:0:
416,144,45464,1,0,0:0:0:0:
448,160,45564,1,8,0:0:0:0:
416,144,45764,1,8,0:0:0:0:
416,144,45864,1,8,0:0:0:0:
384,160,45964,1,0,0:0:0:0:
416,160,46164,1,8,0:0:0:0:
416,160,46264,1,8,0:0:0:0:
416,160,46364,1,0,0:0:0:0:
400,160,46564,1,8,0:0:0:0:
416,144,46764,1,8,0:0:0:0:
416,144,47164,1,8,0:0:0:0:
416,144,47364,1,0,0:0:0:0:
448,144,47464,1,8,0:0:0:0:
448,144,47564,1,8,0:0:0:0:
400,144,47764,1,0,0:0:0:0:
448,144,47864,1,8,0:0:0:0:
448,144,47964,1,8,0:0:0:0:
432,160,48164,1,0,0:0:0:0:
416,144,48364,1,8,0:0:0:0:
416,144,48764,1,8,0:0:0:0:
432,144,48964,1,0,0:0:0:0:
432,144,49064,1,0,0:0:0:0:
416,160,49164,1,8,0:0:0:0:
464,144,49364,1,0,0:0:0:0:
464,144,49464,1,0,0:0:0:0:
352,144,49564,1,8,0:0:0:0:
400,160,49764,1,8,0:0:0:0:
400,144,49964,1,8,0:0:0:0:
480,160,50164,1,0,0:0:0:0:
480,160,50264,1,0,0:0:0:0:
400,160,50364,1,8,0:0:0:0:
416,160,50564,1,8,0:0:0:0:
432,160,50664,1,8,0:0:0:0:
464,160,50764,1,8,0:0:0:0:
464,160,50964,1,0,0:0:0:0:
464,160,51064,1,8,0:0:0:0:
464,160,51164,1,8,0:0:0:0:
448,160,51364,1,0,0:0:0:0:
448,144,51564,1,8,0:0:0:0:
448,208,51764,1,0,0:0:0:0:
368,144,51864,1,0,0:0:0:0:
416,160,51964,1,8,0:0:0:0:
448,160,52164,1,0,0:0:0:0:
464,160,52264,1,8,0:0:0:0:
464,160,52364,1,8,0:0:0:0:
432,240,52564,1,0,0:0:0:0:
464,128,52664,1,8,0:0:0:0:
496,160,52764,1,8,0:0:0:0:
464,144,52964,1,4,0:0:0:0:
416,160,53364,1,0,0:0:0:0:
336,160,53764,1,8,0:0:0:0:
368,160,53964,1,0,0:0:0:0:
390,143,54064,1,0,0:0:0:0:
368,160,54164,1,8,0:0:0:0:
368,144,54364,1,8,0:0:0:0:
416,160,54564,1,0,0:0:0:0:
416,160,54951,1,0,0:0:0:0:
368,160,55338,1,8,0:0:0:0:
384,160,55531,1,0,0:0:0:0:
384,160,55628,1,0,0:0:0:0:
432,160,55725,1,8,0:0:0:0:
368,144,55918,1,8,0:0:0:0:
304,144,56112,1,0,0:0:0:0:
384,144,56499,1,0,0:0:0:0:
384,128,56886,1,8,0:0:0:0:
432,160,56983,1,8,0:0:0:0:
400,128,57080,1,0,0:0:0:0:
384,128,57176,1,0,0:0:0:0:
384,160,57273,1,8,0:0:0:0:
336,144,57467,1,8,0:0:0:0:
384,144,57660,1,0,0:0:0:0:
400,144,58035,1,0,0:0:0:0:
432,144,58222,1,8,0:0:0:0:
464,192,58410,1,8,0:0:0:0:
464,192,58503,1,8,0:0:0:0:
384,144,58597,1,0,0:0:0:0:
384,144,58691,1,0,0:0:0:0:
368,144,58785,1,8,0:0:0:0:
432,160,58972,1,8,0:0:0:0:
384,160,59160,1,0,0:0:0:0:
400,144,59535,1,0,0:0:0:0:
400,144,59628,1,0,0:0:0:0:
400,144,59722,1,8,0:0:0:0:
464,192,59910,1,8,0:0:0:0:
400,160,60003,1,8,0:0:0:0:
384,160,60097,1,0,0:0:0:0:
384,160,60191,1,0,0:0:0:0:
384,160,60285,1,8,0:0:0:0:
432,160,60472,1,8,0:0:0:0:
448,160,60660,1,0,0:0:0:0:
432,144,60841,1,8,0:0:0:0:
400,160,61023,1,0,0:0:0:0:
400,160,61114,1,0,0:0:0:0:
432,144,61205,1,8,0:0:0:0:
448,144,61387,1,8,0:0:0:0:
448,144,61478,1,8,0:0:0:0:
432,144,61569,1,0,0:0:0:0:
432,144,61660,1,0,0:0:0:0:
448,160,61750,1,8,0:0:0:0:
432,160,61932,1,8,0:0:0:0:
432,160,62114,1,0,0:0:0:0:
432,160,62205,1,0,0:0:0:0:
448,160,62296,1,8,0:0:0:0:
432,176,62478,1,0,0:0:0:0:
448,160,62569,1,8,0:0:0:0:
448,160,62660,1,8,0:0:0:0:
400,160,62841,1,8,0:0:0:0:
400,160,62932,1,8,0:0:0:0:
416,144,63023,1,0,0:0:0:0:
416,144,63114,1,0,0:0:0:0:
400,144,63205,1,8,0:0:0:0:
448,144,63387,1,8,0:0:0:0:
416,144,63569,1,0,0:0:0:0:
416,144,63660,1,0,0:0:0:0:
384,144,63750,1,8,0:0:0:0:
448,192,63841,1,0,0:0:0:0:
384,176,63932,1,8,0:0:0:0:
446,171,64114,1,8,0:0:0:0:
437,237,64205,1,0,0:0:0:0:
352,144,64296,1,8,0:0:0:0:
352,144,64387,1,8,0:0:0:0:
384,144,64478,1,0,0:0:0:0:
416,160,64569,1,0,0:0:0:0:
448,192,64660,1,8,0:0:0:0:
384,144,65023,1,12,0:0:0:0:
448,128,65194,1,0,0:0:0:0:
448,160,65365,1,8,0:0:0:0:
400,144,65537,1,0,0:0:0:0:
416,160,65623,1,8,0:0:0:0:
416,192,65880,1,0,0:0:0:0:
400,144,66051,1,8,0:0:0:0:
400,144,66223,1,0,0:0:0:0:
400,144,66308,1,0,0:0:0:0:
384,160,66394,1,8,0:0:0:0:
448,144,66565,1,0,0:0:0:0:
448,160,66737,1,8,0:0:0:0:
432,160,66908,1,8,0:0:0:0:
384,144,66994,1,0,0:0:0:0:
384,144,67251,1,0,0:0:0:0:
416,144,67423,1,8,0:0:0:0:
416,128,67594,1,8,0:0:0:0:
416,128,67680,1,8,0:0:0:0:
432,144,67765,1,0,0:0:0:0:
416,144,67937,1,0,0:0:0:0:
416,144,68108,1,8,0:0:0:0:
416,224,68280,1,8,0:0:0:0:
464,160,68365,1,0,0:0:0:0:
400,160,68537,1,0,0:0:0:0:
432,160,68623,1,8,0:0:0:0:
416,224,68794,1,8,0:0:0:0:
400,160,68965,1,0,0:0:0:0:
400,160,69051,1,0,0:0:0:0:
384,160,69137,1,8,0:0:0:0:
432,144,69308,1,0,0:0:0:0:
400,160,69480,1,8,0:0:0:0:
464,160,69651,1,8,0:0:0:0:
400,160,69737,1,0,0:0:0:0:
448,192,69994,1,0,0:0:0:0:
448,192,70080,1,0,0:0:0:0:
400,160,70165,1,8,0:0:0:0:
400,160,70337,1,8,0:0:0:0:
476,230,70508,1,4,0:0:0:0:
447,129,70680,1,0,0:0:0:0:
422,153,70851,1,8,0:0:0:0:
438,168,71023,1,0,0:0:0:0:
422,159,71108,1,8,0:0:0:0:
447,155,71365,1,0,0:0:0:0:
449,154,71537,1,8,0:0:0:0:
429,158,71708,1,0,0:0:0:0:
429,158,71794,1,0,0:0:0:0:
413,169,71880,1,8,0:0:0:0:
438,168,72051,1,0,0:0:0:0:
429,154,72223,1,8,0:0:0:0:
429,154,72394,1,8,0:0:0:0:
433,163,72480,1,0,0:0:0:0:
454,166,72737,1,0,0:0:0:0:
407,161,72908,1,8,0:0:0:0:
406,156,73080,1,8,0:0:0:0:
406,156,73165,1,8,0:0:0:0:
435,154,73251,1,0,0:0:0:0:
429,154,73423,1,0,0:0:0:0:
413,148,73594,1,8,0:0:0:0:
368,176,73765,1,8,0:0:0:0:
468,151,73851,1,0,0:0:0:0:
416,144,74023,1,0,0:0:0:0:
416,160,74108,1,8,0:0:0:0:
366,146,74280,1,8,0:0:0:0:
429,154,74451,1,0,0:0:0:0:
431,152,74537,1,0,0:0:0:0:
366,146,74623,1,8,0:0:0:0:
409,159,74794,1,0,0:0:0:0:
377,146,74965,1,8,0:0:0:0:
377,146,75137,1,8,0:0:0:0:
384,176,75223,1,0,0:0:0:0:
432,208,75394,1,0,0:0:0:0:
352,208,75480,1,8,0:0:0:0:
448,160,75651,1,8,0:0:0:0:
420,162,75737,1,8,0:0:0:0:
429,154,75823,1,0,0:0:0:0:
373,157,75994,1,12,0:0:0:0:
406,151,76165,1,0,0:0:0:0:
452,166,76337,1,8,0:0:0:0:
432,208,76508,1,0,0:0:0:0:
356,171,76594,1,8,0:0:0:0:
448,160,76680,1,0,0:0:0:0:
480,160,76765,1,8,0:0:0:0:
458,176,76851,1,8,0:0:0:0:
413,189,77023,1,8,0:0:0:0:
480,160,77194,1,8,0:0:0:0:
480,176,77280,1,0,0:0:0:0:
413,189,77365,1,0,0:0:0:0:
432,208,77451,1,8,0:0:0:0:
464,208,77537,1,8,0:0:0:0:
416,160,77623,1,0,0:0:0:0:
448,192,77708,1,8,0:0:0:0:
464,160,77880,1,0,0:0:0:0:
464,160,77965,1,8,0:0:0:0:
436,153,78051,1,0,0:0:0:0:
406,158,78137,1,8,0:0:0:0:
437,164,78223,1,8,0:0:0:0:
472,158,78308,1,0,0:0:0:0:
444,194,78394,1,8,0:0:0:0:
335,153,78565,1,8,0:0:0:0:
448,192,78651,1,0,0:0:0:0:
459,149,78737,1,8,0:0:0:0:
432,208,78823,1,8,0:0:0:0:
487,160,78908,1,0,0:0:0:0:
416,176,78994,1,8,0:0:0:0:
447,159,79080,1,8,0:0:0:0:
432,208,79251,1,0,0:0:0:0:
390,142,79337,1,8,0:0:0:0:
478,146,79423,1,0,0:0:0:0:
335,153,79508,1,8,0:0:0:0:
329,174,79594,1,8,0:0:0:0:
448,192,79765,1,8,0:0:0:0:
437,164,79937,1,8,0:0:0:0:
390,142,80023,1,0,0:0:0:0:
419,185,80108,1,0,0:0:0:0:
421,154,80194,1,8,0:0:0:0:
421,154,80280,1,8,0:0:0:0:
450,168,80365,1,0,0:0:0:0:
484,181,80451,1,8,0:0:0:0:
400,192,80623,1,0,0:0:0:0:
444,157,80708,1,8,0:0:0:0:
461,154,80794,1,0,0:0:0:0:
416,160,80880,1,8,0:0:0:0:
416,176,80965,1,8,0:0:0:0:
432,160,81051,1,0,0:0:0:0:
455,148,81137,1,8,0:0:0:0:
384,160,81308,1,8,0:0:0:0:
399,156,81394,1,0,0:0:0:0:
432,192,81480,1,8,0:0:0:0:
432,192,81565,1,8,0:0:0:0:
448,144,81651,1,0,0:0:0:0:
448,176,81737,1,8,0:0:0:0:
410,154,81823,1,8,0:0:0:0:
419,190,81994,1,8,0:0:0:0:
384,160,82080,1,8,0:0:0:0:
419,139,82165,1,0,0:0:0:0:
496,192,82251,1,8,0:0:0:0:
416,176,82337,1,8,0:0:0:0:
400,160,82423,1,0,0:0:0:0:
372,168,82508,1,8,0:0:0:0:
384,160,82594,1,8,0:0:0:0:
448,144,82680,1,0,0:0:0:0:
410,154,82765,1,8,0:0:0:0:
410,154,82851,1,0,0:0:0:0:
432,160,82937,1,8,0:0:0:0:
416,144,83023,1,8,0:0:0:0:
400,144,83108,1,0,0:0:0:0:
448,160,83194,1,8,0:0:0:0:
432,160,83365,1,0,0:0:0:0:
448,160,83451,1,8,0:0:0:0:
432,144,83537,1,0,0:0:0:0:
448,208,83623,1,8,0:0:0:0:
448,208,83708,1,8,0:0:0:0:
480,176,83794,1,8,0:0:0:0:
448,176,83880,1,0,0:0:0:0:
468,203,84051,1,0,0:0:0:0:
432,160,84137,1,8,0:0:0:0:
448,160,84223,1,0,0:0:0:0:
464,176,84308,1,0,0:0:0:0:
432,176,84394,1,8,0:0:0:0:
464,176,84480,1,0,0:0:0:0:
432,176,84565,1,8,0:0:0:0:
464,208,84737,1,8,0:0:0:0:
448,192,84823,1,0,0:0:0:0:
448,192,84908,1,8,0:0:0:0:
362,160,84994,1,8,0:0:0:0:
368,192,85080,1,0,0:0:0:0:
411,174,85251,1,8,0:0:0:0:
448,160,85337,1,8,0:0:0:0:
464,192,85423,1,0,0:0:0:0:
448,176,85508,1,8,0:0:0:0:
432,176,85594,1,8,0:0:0:0:
448,160,85765,1,8,0:0:0:0:
461,221,85851,1,0,0:0:0:0:
471,171,85937,1,8,0:0:0:0:
471,171,86023,1,8,0:0:0:0:
416,160,86108,1,0,0:0:0:0:
480,144,86194,1,8,0:0:0:0:
438,163,86280,1,0,0:0:0:0:
477,165,86365,1,8,0:0:0:0:
464,192,86451,1,8,0:0:0:0:
416,144,86537,1,0,0:0:0:0:
480,144,86623,1,8,0:0:0:0:
480,176,86708,1,8,0:0:0:0:
416,176,86794,1,0,0:0:0:0:
416,176,86880,1,0,0:0:0:0:
406,151,86965,1,8,0:0:0:0:
471,171,87137,1,0,0:0:0:0:
384,160,87223,1,8,0:0:0:0:
452,166,87308,1,8,0:0:0:0:
399,169,87480,1,0,0:0:0:0:
480,192,87565,1,8,0:0:0:0:
400,160,87651,1,0,0:0:0:0:
384,144,87737,1,8,0:0:0:0:
352,128,87823,1,8,0:0:0:0:
432,144,87908,1,0,0:0:0:0:
416,160,87994,1,8,0:0:0:0:
413,184,88080,1,8,0:0:0:0:
432,192,88165,1,0,0:0:0:0:
432,160,88251,1,8,0:0:0:0:
431,216,88337,1,0,0:0:0:0:
432,208,88423,1,8,0:0:0:0:
464,208,88508,1,8,0:0:0:0:
416,160,88594,1,0,0:0:0:0:
448,192,88680,1,8,0:0:0:0:
432,192,88851,1,0,0:0:0:0:
462,165,88937,1,8,0:0:0:0:
479,180,89023,1,0,0:0:0:0:
437,164,89108,1,8,0:0:0:0:
437,164,89194,1,8,0:0:0:0:
472,158,89280,1,0,0:0:0:0:
479,174,89365,1,8,0:0:0:0:
416,176,89537,1,8,0:0:0:0:
400,176,89623,1,0,0:0:0:0:
459,149,89708,1,8,0:0:0:0:
414,156,89794,1,8,0:0:0:0:
487,160,89880,1,0,0:0:0:0:
479,180,89965,1,8,0:0:0:0:
447,159,90051,1,8,0:0:0:0:
427,254,90223,1,0,0:0:0:0:
479,180,90308,1,8,0:0:0:0:
478,146,90394,1,0,0:0:0:0:
437,164,90480,1,8,0:0:0:0:
443,182,90565,1,8,0:0:0:0:
480,144,90651,1,0,0:0:0:0:
437,164,90737,1,8,0:0:0:0:
409,152,90823,1,8,0:0:0:0:
441,169,90908,1,0,0:0:0:0:
472,158,90994,1,8,0:0:0:0:
419,185,91080,1,0,0:0:0:0:
421,154,91165,1,8,0:0:0:0:
421,154,91251,1,8,0:0:0:0:
450,168,91337,1,0,0:0:0:0:
484,181,91423,1,8,0:0:0:0:
509,134,91594,1,0,0:0:0:0:
444,157,91680,1,8,0:0:0:0:
461,154,91765,1,0,0:0:0:0:
468,190,91851,1,8,0:0:0:0:
459,155,91937,1,8,0:0:0:0:
399,156,92023,1,0,0:0:0:0:
455,148,92108,1,8,0:0:0:0:
480,192,92280,1,8,0:0:0:0:
448,160,92365,1,0,0:0:0:0:
423,171,92451,1,8,0:0:0:0:
444,157,92537,1,8,0:0:0:0:
448,144,92623,1,0,0:0:0:0:
448,176,92708,1,8,0:0:0:0:
410,154,92794,1,8,0:0:0:0:
419,185,92880,1,0,0:0:0:0:
435,166,92965,1,8,0:0:0:0:
464,160,93051,1,8,0:0:0:0:
384,160,93137,1,0,0:0:0:0:
432,192,93223,1,8,0:0:0:0:
406,169,93308,1,8,0:0:0:0:
448,160,93394,1,0,0:0:0:0:
406,169,93480,1,8,0:0:0:0:
400,176,93651,1,0,0:0:0:0:
384,160,93737,1,8,0:0:0:0:
410,154,93823,1,0,0:0:0:0:
384,160,93908,1,8,0:0:0:0:
416,160,93994,1,8,0:0:0:0:
336,160,94080,1,0,0:0:0:0:
384,144,94165,1,8,0:0:0:0:
400,176,94251,1,8,0:0:0:0:
400,176,94337,1,0,0:0:0:0:
448,176,94423,1,8,0:0:0:0:
448,160,94508,1,0,0:0:0:0:
416,160,94594,1,8,0:0:0:0:
432,176,94680,1,8,0:0:0:0:
416,176,94765,1,8,0:0:0:0:
400,176,94851,1,0,0:0:0:0:
431,216,95023,1,0,0:0:0:0:
448,160,95108,1,8,0:0:0:0:
448,160,95194,1,0,0:0:0:0:
464,176,95280,1,0,0:0:0:0:
432,176,95365,1,8,0:0:0:0:
464,176,95451,1,0,0:0:0:0:
432,176,95537,1,8,0:0:0:0:
432,176,95708,1,8,0:0:0:0:
410,185,95794,1,0,0:0:0:0:
429,176,95880,1,8,0:0:0:0:
384,176,95965,1,8,0:0:0:0:
398,180,96051,1,0,0:0:0:0:
400,192,96223,1,8,0:0:0:0:
448,160,96308,1,8,0:0:0:0:
432,176,96394,1,0,0:0:0:0:
448,176,96480,1,8,0:0:0:0:
464,160,96565,1,8,0:0:0:0:
448,160,96737,1,8,0:0:0:0:
461,221,96823,1,0,0:0:0:0:
471,171,96908,1,8,0:0:0:0:
471,171,96994,1,8,0:0:0:0:
416,160,97080,1,0,0:0:0:0:
480,144,97165,1,8,0:0:0:0:
438,163,97251,1,0,0:0:0:0:
477,165,97337,1,8,0:0:0:0:
464,192,97423,1,8,0:0:0:0:
416,144,97508,1,0,0:0:0:0:
480,144,97594,1,8,0:0:0:0:
480,176,97680,1,8,0:0:0:0:
416,176,97765,1,0,0:0:0:0:
416,160,97937,1,12,0:0:0:0:
256,192,98108,12,0,100680,0:0:0:0:
400,160,103423,5,4,0:0:0:0:
416,176,103594,1,0,0:0:0:0:
384,144,103765,1,0,0:0:0:0:
400,160,103937,1,8,0:0:0:0:
304,128,104282,1,0,0:0:0:0:
384,144,104456,1,8,0:0:0:0:
448,224,104793,1,0,0:0:0:0:
416,192,104961,1,0,0:0:0:0:
368,160,105130,1,8,0:0:0:0:
368,160,105214,1,8,0:0:0:0:
368,240,105467,1,8,0:0:0:0:
464,272,105807,1,0,0:0:0:0:
432,176,106149,1,8,0:0:0:0:
496,256,106489,1,0,0:0:0:0:
464,208,106669,1,0,0:0:0:0:
416,208,106837,1,8,0:0:0:0:
464,208,107019,1,8,0:0:0:0:
464,208,107198,1,8,0:0:0:0:
416,192,107370,1,0,0:0:0:0:
416,208,107533,1,0,0:0:0:0:
464,208,107894,1,8,0:0:0:0:
368,240,108225,1,8,0:0:0:0:
384,160,108567,1,0,0:0:0:0:
352,112,108910,1,0,0:0:0:0:
416,176,109081,1,0,0:0:0:0:
464,160,109167,1,0,0:0:0:0:
384,144,109252,1,8,0:0:0:0:
416,176,109424,1,0,0:0:0:0:
384,160,109595,1,8,0:0:0:0:
480,160,109681,1,0,0:0:0:0:
352,160,109767,1,8,0:0:0:0:
464,160,109852,1,8,0:0:0:0:
432,160,109938,1,0,0:0:0:0:
448,144,110110,1,8,0:0:0:0:
448,144,110195,1,0,0:0:0:0:
432,192,110281,1,8,0:0:0:0:
432,192,110367,1,8,0:0:0:0:
432,160,110452,1,8,0:0:0:0:
432,128,110538,1,8,0:0:0:0:
416,144,110624,1,0,0:0:0:0:
352,176,110710,1,0,0:0:0:0:
464,160,110795,1,8,0:0:0:0:
480,144,110881,1,0,0:0:0:0:
448,144,110967,1,8,0:0:0:0:
390,184,111052,1,8,0:0:0:0:
448,144,111138,1,0,0:0:0:0:
448,160,111224,1,8,0:0:0:0:
449,148,111310,1,8,0:0:0:0:
432,160,111481,1,0,0:0:0:0:
400,176,111652,1,0,0:0:0:0:
288,208,111995,1,8,0:0:0:0:
382,144,112167,1,8,0:0:0:0:
406,156,112510,1,0,0:0:0:0:
368,160,112852,1,8,0:0:0:0:
368,160,113024,1,0,0:0:0:0:
416,192,113195,1,0,0:0:0:0:
378,151,113367,1,8,0:0:0:0:
378,151,113424,1,8,0:0:0:0:
379,143,113710,1,8,0:0:0:0:
375,141,114052,1,8,0:0:0:0:
438,148,114395,1,4,0:0:0:0:
428,135,114567,1,8,0:0:0:0:
428,135,114652,1,8,0:0:0:0:
445,150,114738,1,0,0:0:0:0:
470,148,114910,1,8,0:0:0:0:
464,192,115252,1,8,0:0:0:0:
432,176,115424,1,0,0:0:0:0:
497,143,115595,1,8,0:0:0:0:
473,134,115681,1,8,0:0:0:0:
474,143,115767,1,0,0:0:0:0:
448,256,115938,1,0,0:0:0:0:
400,176,116024,1,8,0:0:0:0:
460,155,116110,1,8,0:0:0:0:
464,176,116281,1,8,0:0:0:0:
400,160,116452,1,0,0:0:0:0:
452,179,116624,1,8,0:0:0:0:
452,179,116710,1,8,0:0:0:0:
491,142,116795,1,0,0:0:0:0:
352,160,116967,1,8,0:0:0:0:
432,192,117138,1,0,0:0:0:0:
464,176,117481,1,8,0:0:0:0:
432,160,117652,1,0,0:0:0:0:
352,192,117824,1,8,0:0:0:0:
464,160,117910,1,0,0:0:0:0:
453,141,117995,1,8,0:0:0:0:
482,209,118081,1,8,0:0:0:0:
445,143,118167,1,0,0:0:0:0:
428,163,118338,1,8,0:0:0:0:
499,149,118510,1,0,0:0:0:0:
471,213,118681,1,0,0:0:0:0:
350,150,118767,1,0,0:0:0:0:
418,178,118852,1,8,0:0:0:0:
416,176,119024,1,8,0:0:0:0:
432,176,119110,1,0,0:0:0:0:
464,166,119195,1,8,0:0:0:0:
453,163,119367,1,0,0:0:0:0:
400,176,119538,1,8,0:0:0:0:
471,213,119624,1,8,0:0:0:0:
416,176,119710,1,8,0:0:0:0:
418,139,119881,1,4,0:0:0:0:
416,160,120224,1,0,0:0:0:0:
398,143,120395,1,8,0:0:0:0:
416,160,120567,1,0,0:0:0:0:
414,149,120738,1,8,0:0:0:0:
438,158,120824,1,8,0:0:0:0:
378,148,120910,1,0,0:0:0:0:
474,153,121081,1,8,0:0:0:0:
447,160,121167,1,0,0:0:0:0:
447,160,121252,1,8,0:0:0:0:
474,153,121338,1,8,0:0:0:0:
476,178,121424,1,8,0:0:0:0:
476,178,121510,1,8,0:0:0:0:
417,151,121595,1,0,0:0:0:0:
478,133,121767,1,8,0:0:0:0:
478,133,121852,1,8,0:0:0:0:
469,132,121938,1,0,0:0:0:0:
491,182,122024,1,0,0:0:0:0:
437,184,122110,1,8,0:0:0:0:
448,160,122195,1,8,0:0:0:0:
378,156,122281,1,0,0:0:0:0:
509,146,122452,1,8,0:0:0:0:
429,208,122624,1,0,0:0:0:0:
370,154,122967,1,8,0:0:0:0:
370,154,123138,1,8,0:0:0:0:
472,174,123310,1,0,0:0:0:0:
416,160,123481,1,8,0:0:0:0:
431,134,123652,1,0,0:0:0:0:
398,152,123824,1,8,0:0:0:0:
404,169,123910,1,8,0:0:0:0:
320,160,123995,1,0,0:0:0:0:
400,128,124167,1,0,0:0:0:0:
416,160,124338,1,8,0:0:0:0:
367,148,124510,1,8,0:0:0:0:
416,176,124595,1,0,0:0:0:0:
448,176,124681,1,8,0:0:0:0:
448,160,124852,1,8,0:0:0:0:
448,176,124938,1,8,0:0:0:0:
352,176,125024,1,0,0:0:0:0:
459,159,125195,1,8,0:0:0:0:
348,136,125367,1,4,0:0:0:0:
464,128,125538,1,8,0:0:0:0:
416,128,125881,1,8,0:0:0:0:
448,128,126224,1,8,0:0:0:0:
416,160,126567,1,8,0:0:0:0:
448,128,126738,1,4,0:0:0:0:
432,144,126910,1,8,0:0:0:0:
432,208,127252,1,8,0:0:0:0:
432,208,127595,1,8,0:0:0:0:
464,192,127938,1,0,0:0:0:0:
368,176,128110,1,12,0:0:0:0:
432,160,128338,1,0,0:0:0:0:
416,160,128452,1,0,0:0:0:0:
416,160,128681,1,0,0:0:0:0:
400,160,128795,1,12,0:0:0:0:
432,144,129024,1,0,0:0:0:0:
432,144,129138,1,0,0:0:0:0:
432,144,129367,1,0,0:0:0:0:
368,160,129481,1,8,0:0:0:0:
448,176,129595,1,0,0:0:0:0:
448,176,129710,1,0,0:0:0:0:
448,176,129824,1,0,0:0:0:0:
448,176,129938,1,0,0:0:0:0:
448,176,130052,1,0,0:0:0:0:
448,160,130167,1,8,0:0:0:0:
416,160,130281,1,0,0:0:0:0:
432,144,130395,1,8,0:0:0:0:
432,160,130510,1,8,0:0:0:0:
448,176,130624,1,0,0:0:0:0:
410,170,130738,1,8,0:0:0:0:
160,192,130852,2,0,L|208:160,8,35
416,128,131881,5,12,0:0:0:0:
384,128,132224,1,4,0:0:0:0:
369,160,132395,1,0,0:0:0:0:
369,160,132481,1,0,0:0:0:0:
399,155,132567,1,8,0:0:0:0:
369,160,132738,1,0,0:0:0:0:
369,160,132824,1,0,0:0:0:0:
416,128,132910,1,8,0:0:0:0:
413,159,132995,1,8,0:0:0:0:
445,212,133081,1,8,0:0:0:0:
418,202,133167,1,0,0:0:0:0:
489,156,133252,1,8,0:0:0:0:
385,153,133338,1,8,0:0:0:0:
428,167,133424,1,0,0:0:0:0:
382,151,133510,1,0,0:0:0:0:
428,167,133595,1,8,0:0:0:0:
394,158,133767,1,0,0:0:0:0:
425,164,133852,1,8,0:0:0:0:
390,159,133938,1,0,0:0:0:0:
390,159,134024,1,0,0:0:0:0:
401,158,134110,1,8,0:0:0:0:
408,166,134195,1,0,0:0:0:0:
444,160,134281,1,8,0:0:0:0:
489,156,134367,1,0,0:0:0:0:
451,158,134452,1,8,0:0:0:0:
450,158,134538,1,8,0:0:0:0:
450,158,134624,1,8,0:0:0:0:
472,160,134710,1,0,0:0:0:0:
434,156,134795,1,8,0:0:0:0:
430,156,134881,1,8,0:0:0:0:
428,167,134967,1,0,0:0:0:0:
456,191,135052,1,0,0:0:0:0:
428,167,135138,1,8,0:0:0:0:
456,191,135224,1,0,0:0:0:0:
446,174,135310,1,8,0:0:0:0:
425,164,135481,1,0,0:0:0:0:
464,176,135567,1,0,0:0:0:0:
444,160,135652,1,8,0:0:0:0:
464,192,135824,1,8,0:0:0:0:
464,192,135910,1,8,0:0:0:0:
432,176,135995,1,0,0:0:0:0:
448,208,136167,1,0,0:0:0:0:
448,208,136252,1,0,0:0:0:0:
416,176,136338,1,8,0:0:0:0:
440,139,136424,1,8,0:0:0:0:
448,176,136510,1,8,0:0:0:0:
425,184,136595,1,0,0:0:0:0:
424,154,136681,1,8,0:0:0:0:
496,176,136767,1,8,0:0:0:0:
384,144,136852,1,0,0:0:0:0:
384,144,136938,1,0,0:0:0:0:
448,160,137024,1,8,0:0:0:0:
464,144,137110,1,0,0:0:0:0:
384,160,137195,1,8,0:0:0:0:
368,144,137281,1,8,0:0:0:0:
384,144,137367,1,0,0:0:0:0:
416,160,137452,1,0,0:0:0:0:
448,160,137538,1,8,0:0:0:0:
346,143,137624,1,8,0:0:0:0:
416,158,137710,1,0,0:0:0:0:
464,160,137795,1,0,0:0:0:0:
441,158,137881,1,8,0:0:0:0:
464,160,137967,1,0,0:0:0:0:
448,160,138052,1,8,0:0:0:0:
496,176,138138,1,0,0:0:0:0:
448,192,138224,1,8,0:0:0:0:
448,176,138310,1,8,0:0:0:0:
464,160,138395,1,0,0:0:0:0:
464,160,138481,1,0,0:0:0:0:
484,171,138567,1,8,0:0:0:0:
436,174,138652,1,0,0:0:0:0:
400,141,138738,1,8,0:0:0:0:
464,160,138910,1,8,0:0:0:0:
464,160,138995,1,8,0:0:0:0:
432,144,139081,1,0,0:0:0:0:
442,169,139167,1,0,0:0:0:0:
416,144,139252,1,8,0:0:0:0:
400,144,139338,1,0,0:0:0:0:
496,160,139424,1,8,0:0:0:0:
496,176,139510,1,8,0:0:0:0:
416,144,139595,1,0,0:0:0:0:
400,144,139681,1,0,0:0:0:0:
400,144,139767,1,8,0:0:0:0:
480,160,139852,1,8,0:0:0:0:
400,176,139938,1,8,0:0:0:0:
448,160,140024,1,0,0:0:0:0:
448,144,140110,1,8,0:0:0:0:
447,172,140195,1,8,0:0:0:0:
480,160,140281,1,0,0:0:0:0:
448,160,140367,1,0,0:0:0:0:
448,160,140452,1,0,0:0:0:0:
416,144,140624,1,0,0:0:0:0:
384,160,140710,1,0,0:0:0:0:
416,160,140795,1,8,0:0:0:0:
448,176,140967,1,0,0:0:0:0:
400,144,141052,1,0,0:0:0:0:
416,144,141138,1,8,0:0:0:0:
417,172,141310,1,0,0:0:0:0:
432,192,141395,1,0,0:0:0:0:
400,208,141481,1,8,0:0:0:0:
400,208,141567,1,8,0:0:0:0:
432,192,141652,1,0,0:0:0:0:
416,160,141824,1,8,0:0:0:0:
432,160,141938,1,8,0:0:0:0:
400,144,142052,1,0,0:0:0:0:
384,160,142167,1,8,0:0:0:0:
384,160,142281,1,8,0:0:0:0:
416,160,142395,1,0,0:0:0:0:
384,144,142510,1,8,0:0:0:0:
432,160,142595,1,8,0:0:0:0:
416,160,142681,1,0,0:0:0:0:
416,160,142767,1,0,0:0:0:0:
416,208,142852,1,8,0:0:0:0:
416,208,142938,1,8,0:0:0:0:
496,187,143024,1,0,0:0:0:0:
400,144,143195,1,4,0:0:0:0:
432,144,143367,1,8,0:0:0:0:
400,144,143452,1,0,0:0:0:0:
400,144,143538,1,0,0:0:0:0:
336,160,143624,1,0,0:0:0:0:
480,176,143710,1,8,0:0:0:0:
448,176,143795,1,8,0:0:0:0:
480,160,143881,1,0,0:0:0:0:
480,176,143967,1,8,0:0:0:0:
480,176,144052,1,8,0:0:0:0:
480,192,144138,1,0,0:0:0:0:
416,224,144224,1,8,0:0:0:0:
496,160,144310,1,8,0:0:0:0:
448,176,144395,1,8,0:0:0:0:
480,160,144481,1,0,0:0:0:0:
472,180,144567,1,8,0:0:0:0:
480,176,144738,1,8,0:0:0:0:
448,176,144824,1,0,0:0:0:0:
464,160,144910,1,8,0:0:0:0:
496,176,144995,1,0,0:0:0:0:
480,160,145081,1,8,0:0:0:0:
440,168,145167,1,8,0:0:0:0:
416,192,145252,1,0,0:0:0:0:
400,176,145338,1,0,0:0:0:0:
496,176,145424,1,8,0:0:0:0:
432,224,145510,1,8,0:0:0:0:
432,176,145595,1,0,0:0:0:0:
384,144,145681,1,0,0:0:0:0:
480,224,145767,1,8,0:0:0:0:
496,176,145852,1,0,0:0:0:0:
448,144,145938,1,8,0:0:0:0:
400,176,146110,1,0,0:0:0:0:
450,171,146195,1,8,0:0:0:0:
416,144,146281,1,0,0:0:0:0:
448,144,146367,1,0,0:0:0:0:
464,160,146452,1,8,0:0:0:0:
432,144,146538,1,8,0:0:0:0:
384,144,146624,1,0,0:0:0:0:
450,171,146795,1,8,0:0:0:0:
464,208,146881,1,8,0:0:0:0:
400,160,146967,1,0,0:0:0:0:
448,160,147052,1,0,0:0:0:0:
400,176,147138,1,8,0:0:0:0:
428,172,147224,1,0,0:0:0:0:
416,144,147310,1,8,0:0:0:0:
448,144,147395,1,8,0:0:0:0:
432,144,147481,1,8,0:0:0:0:
450,171,147567,1,0,0:0:0:0:
400,160,147652,1,8,0:0:0:0:
450,171,147738,1,0,0:0:0:0:
400,160,147824,1,8,0:0:0:0:
461,190,147910,1,0,0:0:0:0:
400,160,147995,1,0,0:0:0:0:
368,160,148081,1,0,0:0:0:0:
432,144,148167,1,8,0:0:0:0:
448,160,148252,1,8,0:0:0:0:
448,192,148338,1,0,0:0:0:0:
450,171,148424,1,0,0:0:0:0:
464,160,148510,1,8,0:0:0:0:
432,160,148681,1,8,0:0:0:0:
448,192,148852,1,0,0:0:0:0:
396,216,148938,1,8,0:0:0:0:
448,176,149024,1,8,0:0:0:0:
400,176,149110,1,8,0:0:0:0:
371,175,149195,1,0,0:0:0:0:
416,144,149281,1,0,0:0:0:0:
480,176,149367,1,8,0:0:0:0:
432,144,149452,1,0,0:0:0:0:
368,160,149538,1,8,0:0:0:0:
400,160,149624,1,8,0:0:0:0:
432,160,149710,1,0,0:0:0:0:
432,160,149795,1,0,0:0:0:0:
432,144,149881,1,8,0:0:0:0:
400,128,149967,1,8,0:0:0:0:
416,160,150052,1,0,0:0:0:0:
448,144,150138,1,8,0:0:0:0:
432,160,150224,1,8,0:0:0:0:
433,189,150310,1,0,0:0:0:0:
464,176,150395,1,0,0:0:0:0:
400,176,150481,1,0,0:0:0:0:
448,160,150567,1,8,0:0:0:0:
400,160,150652,1,0,0:0:0:0:
464,160,150738,1,8,0:0:0:0:
464,160,150824,1,8,0:0:0:0:
432,192,150910,1,8,0:0:0:0:
432,160,150995,1,0,0:0:0:0:
432,160,151081,1,8,0:0:0:0:
448,160,151167,1,8,0:0:0:0:
448,160,151252,1,0,0:0:0:0:
432,192,151424,1,8,0:0:0:0:
464,192,151538,1,8,0:0:0:0:
439,220,151652,1,0,0:0:0:0:
482,173,151767,1,8,0:0:0:0:
482,173,151881,1,8,0:0:0:0:
432,160,151995,1,0,0:0:0:0:
432,160,152110,1,8,0:0:0:0:
464,144,152224,1,0,0:0:0:0:
464,144,152338,1,0,0:0:0:0:
432,176,152452,1,0,0:0:0:0:
432,192,152624,1,0,0:0:0:0:
464,160,152795,1,8,0:0:0:0:
352,160,152881,1,8,0:0:0:0:
384,160,152967,1,0,0:0:0:0:
384,160,153052,1,0,0:0:0:0:
352,160,153138,1,8,0:0:0:0:
384,160,153224,1,8,0:0:0:0:
432,192,153310,1,0,0:0:0:0:
432,192,153395,1,0,0:0:0:0:
352,160,153481,1,8,0:0:0:0:
448,160,153567,1,0,0:0:0:0:
352,160,153652,1,8,0:0:0:0:
368,144,153738,1,0,0:0:0:0:
416,144,153824,1,8,0:0:0:0:
384,144,153910,1,8,0:0:0:0:
416,144,153995,1,0,0:0:0:0:
384,160,154167,1,12,0:0:0:0:
448,160,154510,1,8,0:0:0:0:
432,144,154681,1,0,0:0:0:0:
416,144,154767,1,0,0:0:0:0:
464,176,154852,1,8,0:0:0:0:
464,176,154938,1,8,0:0:0:0:
464,176,155024,1,8,0:0:0:0:
512,176,155110,1,0,0:0:0:0:
480,160,155195,1,8,0:0:0:0:
432,160,155281,1,8,0:0:0:0:
416,144,155367,1,0,0:0:0:0:
416,144,155452,1,0,0:0:0:0:
480,160,155538,1,8,0:0:0:0:
384,160,155624,1,0,0:0:0:0:
416,160,155710,1,8,0:0:0:0:
448,160,155795,1,8,0:0:0:0:
448,160,155881,1,0,0:0:0:0:
448,160,156052,1,8,0:0:0:0:
400,160,156138,1,0,0:0:0:0:
400,160,156224,1,8,0:0:0:0:
464,176,156310,1,8,0:0:0:0:
400,160,156395,1,0,0:0:0:0:
384,176,156481,1,0,0:0:0:0:
448,160,156567,1,8,0:0:0:0:
448,160,156652,1,0,0:0:0:0:
448,176,156738,1,8,0:0:0:0:
400,160,156910,1,8,0:0:0:0:
416,160,157024,1,8,0:0:0:0:
439,161,157138,1,0,0:0:0:0:
417,165,157252,1,8,0:0:0:0:
457,172,157367,1,0,0:0:0:0:
444,171,157481,1,0,0:0:0:0:
341,141,157595,1,8,0:0:0:0:
341,141,157681,1,8,0:0:0:0:
400,160,157767,1,0,0:0:0:0:
400,160,157852,1,0,0:0:0:0:
409,169,157938,1,8,0:0:0:0:
371,174,158024,1,0,0:0:0:0:
410,167,158110,1,8,0:0:0:0:
432,160,158195,1,8,0:0:0:0:
400,160,158281,1,0,0:0:0:0:
400,160,158367,1,0,0:0:0:0:
468,157,158452,1,8,0:0:0:0:
468,157,158538,1,8,0:0:0:0:
432,160,158624,1,0,0:0:0:0:
468,157,158710,1,8,0:0:0:0:
433,138,158795,1,0,0:0:0:0:
431,138,158881,1,0,0:0:0:0:
455,157,158967,1,8,0:0:0:0:
410,167,159052,1,0,0:0:0:0:
407,154,159138,1,8,0:0:0:0:
431,162,159224,1,8,0:0:0:0:
444,166,159310,1,0,0:0:0:0:
434,115,159395,1,0,0:0:0:0:
472,162,159481,1,8,0:0:0:0:
432,160,159567,1,8,0:0:0:0:
390,147,159652,1,0,0:0:0:0:
448,192,159738,1,8,0:0:0:0:
480,176,159824,1,8,0:0:0:0:
455,157,159910,1,0,0:0:0:0:
459,178,159995,1,8,0:0:0:0:
469,157,160081,1,0,0:0:0:0:
455,157,160167,1,8,0:0:0:0:
464,176,160252,1,8,0:0:0:0:
423,162,160338,1,0,0:0:0:0:
461,138,160510,1,8,0:0:0:0:
390,147,160595,1,0,0:0:0:0:
451,162,160681,1,8,0:0:0:0:
475,146,160767,1,8,0:0:0:0:
457,149,160852,1,0,0:0:0:0:
497,183,160938,1,8,0:0:0:0:
424,140,161024,1,0,0:0:0:0:
472,162,161110,1,8,0:0:0:0:
404,157,161195,1,8,0:0:0:0:
432,128,161281,1,0,0:0:0:0:
440,161,161367,1,0,0:0:0:0:
416,160,161452,1,8,0:0:0:0:
384,142,161538,1,8,0:0:0:0:
404,157,161624,1,0,0:0:0:0:
423,162,161710,1,8,0:0:0:0:
390,147,161795,1,0,0:0:0:0:
423,162,161881,1,8,0:0:0:0:
461,150,161967,1,8,0:0:0:0:
423,162,162052,1,0,0:0:0:0:
404,160,162138,1,0,0:0:0:0:
451,162,162224,1,8,0:0:0:0:
448,192,162310,1,8,0:0:0:0:
451,162,162395,1,0,0:0:0:0:
432,176,162481,1,0,0:0:0:0:
448,176,162567,1,8,0:0:0:0:
432,160,162652,1,0,0:0:0:0:
432,144,162738,1,8,0:0:0:0:
448,176,162824,1,8,0:0:0:0:
448,240,162910,1,0,0:0:0:0:
448,240,162995,1,0,0:0:0:0:
416,176,163081,1,8,0:0:0:0:
512,176,163167,1,0,0:0:0:0:
480,176,163252,1,8,0:0:0:0:
495,172,163338,1,8,0:0:0:0:
413,165,163424,1,0,0:0:0:0:
512,176,163510,1,8,0:0:0:0:
496,192,163595,1,8,0:0:0:0:
448,176,163681,1,0,0:0:0:0:
408,176,163767,1,8,0:0:0:0:
425,183,163852,1,8,0:0:0:0:
416,176,163938,1,0,0:0:0:0:
408,177,164024,1,0,0:0:0:0:
398,179,164110,1,8,0:0:0:0:
480,208,164195,1,0,0:0:0:0:
432,208,164281,1,8,0:0:0:0:
432,208,164367,1,8,0:0:0:0:
386,158,164452,1,0,0:0:0:0:
386,158,164624,1,8,0:0:0:0:
434,231,164710,1,0,0:0:0:0:
436,164,164795,1,8,0:0:0:0:
493,172,164967,1,0,0:0:0:0:
414,154,165138,1,12,0:0:0:0:
421,158,165481,1,8,0:0:0:0:
433,178,165652,1,0,0:0:0:0:
416,192,165738,1,0,0:0:0:0:
400,176,165824,1,8,0:0:0:0:
400,160,165995,1,8,0:0:0:0:
416,192,166052,1,8,0:0:0:0:
416,192,166110,1,8,0:0:0:0:
460,156,166167,1,0,0:0:0:0:
441,156,166338,1,8,0:0:0:0:
448,155,166510,1,0,0:0:0:0:
414,154,166681,1,0,0:0:0:0:
400,160,166738,1,8,0:0:0:0:
400,160,166795,1,8,0:0:0:0:
477,161,166852,1,0,0:0:0:0:
421,158,167024,1,8,0:0:0:0:
439,158,167195,1,0,0:0:0:0:
416,208,167281,1,0,0:0:0:0:
384,160,167367,1,8,0:0:0:0:
448,155,167452,1,8,0:0:0:0:
402,170,167538,1,0,0:0:0:0:
414,154,167710,1,8,0:0:0:0:
432,192,167881,1,8,0:0:0:0:
448,155,168052,1,0,0:0:0:0:
448,155,168138,1,0,0:0:0:0:
464,160,168224,1,8,0:0:0:0:
368,160,168395,1,0,0:0:0:0:
416,176,168567,1,8,0:0:0:0:
473,170,168738,1,0,0:0:0:0:
432,176,168910,1,8,0:0:0:0:
448,160,169024,1,8,0:0:0:0:
416,160,169138,1,0,0:0:0:0:
460,156,169252,1,8,0:0:0:0:
401,160,169424,1,0,0:0:0:0:
368,160,169510,1,8,0:0:0:0:
512,176,169595,1,8,0:0:0:0:
464,160,169767,1,8,0:0:0:0:
451,174,169824,1,8,0:0:0:0:
496,163,169881,1,0,0:0:0:0:
460,156,169938,1,8,0:0:0:0:
459,164,170110,1,0,0:0:0:0:
496,163,170167,1,8,0:0:0:0:
390,174,170224,1,8,0:0:0:0:
372,146,170281,1,0,0:0:0:0:
464,160,170367,1,8,0:0:0:0:
464,160,170452,1,0,0:0:0:0:
426,168,170538,1,0,0:0:0:0:
352,144,170624,1,8,0:0:0:0:
432,160,170795,1,0,0:0:0:0:
512,160,170967,1,8,0:0:0:0:
432,160,171138,1,0,0:0:0:0:
432,160,171224,1,0,0:0:0:0:
416,160,171310,1,8,0:0:0:0:
464,160,171481,1,8,0:0:0:0:
416,160,171538,1,8,0:0:0:0:
416,160,171595,1,8,0:0:0:0:
432,160,171652,1,0,0:0:0:0:
352,144,171824,1,8,0:0:0:0:
368,128,171995,1,0,0:0:0:0:
384,144,172167,1,0,0:0:0:0:
416,144,172224,1,8,0:0:0:0:
464,160,172281,1,8,0:0:0:0:
416,160,172338,1,0,0:0:0:0:
417,168,172510,1,8,0:0:0:0:
352,144,172595,1,0,0:0:0:0:
464,160,172681,1,8,0:0:0:0:
440,247,172767,1,8,0:0:0:0:
434,208,172852,1,0,0:0:0:0:
446,195,172938,1,0,0:0:0:0:
427,195,173024,1,8,0:0:0:0:
464,179,173195,1,8,0:0:0:0:
461,182,173367,1,0,0:0:0:0:
432,192,173538,1,0,0:0:0:0:
432,192,173624,1,0,0:0:0:0:
464,160,173710,1,8,0:0:0:0:
400,160,173881,1,8,0:0:0:0:
464,160,174052,1,0,0:0:0:0:
400,160,174224,1,8,0:0:0:0:
448,160,174310,1,8,0:0:0:0:
448,160,174395,1,8,0:0:0:0:
416,160,174567,1,8,0:0:0:0:
432,144,174652,1,8,0:0:0:0:
480,144,174738,1,0,0:0:0:0:
400,144,174910,1,8,0:0:0:0:
448,144,175081,1,0,0:0:0:0:
432,160,175252,1,8,0:0:0:0:
460,168,175424,1,0,0:0:0:0:
460,168,175510,1,0,0:0:0:0:
460,168,175681,1,0,0:0:0:0:
432,176,175767,1,0,0:0:0:0:
432,160,175939,1,0,0:0:0:0:
384,128,176121,1,12,0:0:0:0:
448,160,176638,1,0,0:0:0:0:
448,160,176810,1,8,0:0:0:0:
448,160,176983,1,8,0:0:0:0:
423,167,177069,1,8,0:0:0:0:
448,160,177155,1,8,0:0:0:0:
240,160,177327,1,0,0:0:0:0:
288,176,177493,1,8,0:0:0:0:
302,195,177662,1,8,0:0:0:0:
400,160,177831,1,0,0:0:0:0:
352,112,178001,1,8,0:0:0:0:
448,160,178340,1,0,0:0:0:0:
496,192,178508,1,8,0:0:0:0:
496,192,178677,1,8,0:0:0:0:
512,160,178845,1,0,0:0:0:0:
320,192,179013,1,8,0:0:0:0:
464,176,179182,1,0,0:0:0:0:
464,176,179519,1,8,0:0:0:0:
464,176,179693,1,8,0:0:0:0:
336,112,179867,1,0,0:0:0:0:
336,112,180042,1,0,0:0:0:0:
320,112,180222,1,8,0:0:0:0:
400,160,180564,1,0,0:0:0:0:
432,160,180736,1,8,0:0:0:0:
432,160,180916,1,8,0:0:0:0:
432,208,181090,1,8,0:0:0:0:
407,200,181177,1,8,0:0:0:0:
416,144,181264,1,8,0:0:0:0:
368,160,181436,1,0,0:0:0:0:
352,176,181608,1,8,0:0:0:0:
384,160,182125,1,0,0:0:0:0:
432,176,182301,1,8,0:0:0:0:
432,176,182467,1,8,0:0:0:0:
428,150,182553,1,8,0:0:0:0:
432,176,182639,1,8,0:0:0:0:
400,176,182811,1,0,0:0:0:0:
432,176,182972,1,8,0:0:0:0:
368,160,183138,1,8,0:0:0:0:
480,176,183305,1,0,0:0:0:0:
320,176,183472,1,8,0:0:0:0:
320,64,183823,1,0,0:0:0:0:
352,160,183995,1,8,0:0:0:0:
352,160,184159,1,8,0:0:0:0:
448,160,184341,1,0,0:0:0:0:
400,160,184509,1,8,0:0:0:0:
352,160,184678,1,0,0:0:0:0:
400,176,185015,1,8,0:0:0:0:
400,176,185184,1,8,0:0:0:0:
432,176,185354,1,0,0:0:0:0:
432,176,185525,1,0,0:0:0:0:
368,176,185712,1,8,0:0:0:0:
416,256,186056,1,0,0:0:0:0:
480,240,186229,1,8,0:0:0:0:
384,176,186402,1,8,0:0:0:0:
368,176,186575,1,8,0:0:0:0:
368,176,186660,1,8,0:0:0:0:
384,176,186745,1,8,0:0:0:0:
416,160,186916,1,0,0:0:0:0:
384,192,187082,1,12,0:0:0:0:
432,192,188453,1,0,0:0:0:0:
384,192,188796,1,0,0:0:0:0:
400,176,189139,1,8,0:0:0:0:
432,176,189482,1,8,0:0:0:0:
288,160,189824,1,0,0:0:0:0:
448,176,190167,1,0,0:0:0:0:
400,176,190510,1,8,0:0:0:0:
416,160,190853,1,8,0:0:0:0:
432,64,191196,1,8,0:0:0:0:
416,160,191539,1,8,0:0:0:0:
400,176,191882,1,0,0:0:0:0:
384,144,192224,1,0,0:0:0:0:
400,176,192567,1,8,0:0:0:0:
368,112,192910,1,8,0:0:0:0:
368,112,193253,1,8,0:0:0:0:
368,112,193596,1,8,0:0:0:0:
448,176,193939,1,0,0:0:0:0:
448,176,194282,1,0,0:0:0:0:
448,176,194624,1,8,0:0:0:0:
448,176,194967,1,8,0:0:0:0:
368,96,195310,1,0,0:0:0:0:
448,176,195653,1,0,0:0:0:0:
336,160,195996,1,8,0:0:0:0:
336,160,196339,1,8,0:0:0:0:
448,176,196682,1,8,0:0:0:0:
336,160,197024,1,0,0:0:0:0:
336,128,197367,1,8,0:0:0:0:
336,160,197710,1,8,0:0:0:0:
448,128,198053,1,12,0:0:0:0:
336,160,198567,1,0,0:0:0:0:
368,160,198739,1,8,0:0:0:0:
320,144,198910,1,8,0:0:0:0:
416,176,198996,1,8,0:0:0:0:
320,160,199082,1,0,0:0:0:0:
432,208,199253,1,8,0:0:0:0:
448,160,199424,1,0,0:0:0:0:
496,160,199596,1,8,0:0:0:0:
448,128,199682,1,0,0:0:0:0:
416,176,199767,1,8,0:0:0:0:
432,160,199939,1,8,0:0:0:0:
432,160,200110,1,0,0:0:0:0:
448,160,200196,1,0,0:0:0:0:
448,160,200282,1,8,0:0:0:0:
384,128,200367,1,0,0:0:0:0:
368,160,200453,1,8,0:0:0:0:
384,176,200539,1,8,0:0:0:0:
413,157,200624,1,0,0:0:0:0:
415,194,200710,1,0,0:0:0:0:
448,160,200796,1,8,0:0:0:0:
416,176,200967,1,0,0:0:0:0:
416,176,201053,1,0,0:0:0:0:
448,160,201139,1,8,0:0:0:0:
416,208,201310,1,0,0:0:0:0:
416,160,201482,1,8,0:0:0:0:
448,160,201653,1,0,0:0:0:0:
368,160,201739,1,8,0:0:0:0:
368,160,201824,1,8,0:0:0:0:
416,160,201996,1,0,0:0:0:0:
368,160,202167,1,8,0:0:0:0:
448,160,202339,1,0,0:0:0:0:
464,192,202424,1,0,0:0:0:0:
448,160,202510,1,8,0:0:0:0:
416,160,202682,1,0,0:0:0:0:
480,144,202853,1,8,0:0:0:0:
480,144,203024,1,8,0:0:0:0:
449,167,203110,1,8,0:0:0:0:
464,162,203196,1,0,0:0:0:0:
416,160,203367,1,0,0:0:0:0:
400,128,203539,1,8,0:0:0:0:
480,144,204053,1,0,0:0:0:0:
432,144,204224,1,8,0:0:0:0:
432,224,204396,1,8,0:0:0:0:
416,160,204482,1,8,0:0:0:0:
336,176,204567,1,0,0:0:0:0:
448,192,204739,1,8,0:0:0:0:
352,112,204910,1,0,0:0:0:0:
448,208,205082,1,8,0:0:0:0:
352,112,205167,1,0,0:0:0:0:
368,176,205253,1,8,0:0:0:0:
448,160,205424,1,8,0:0:0:0:
416,160,205596,1,0,0:0:0:0:
470,176,205767,1,8,0:0:0:0:
416,240,205853,1,0,0:0:0:0:
416,176,205939,1,8,0:0:0:0:
416,176,206110,1,0,0:0:0:0:
448,240,206196,1,0,0:0:0:0:
203,155,206282,1,8,0:0:0:0:
464,144,206453,1,0,0:0:0:0:
432,144,206539,1,0,0:0:0:0:
400,144,206624,1,8,0:0:0:0:
432,160,206796,1,0,0:0:0:0:
416,128,206967,1,8,0:0:0:0:
448,176,207139,1,0,0:0:0:0:
352,160,207224,1,8,0:0:0:0:
352,160,207310,1,8,0:0:0:0:
432,160,207482,1,0,0:0:0:0:
464,144,207653,1,8,0:0:0:0:
464,144,207824,1,0,0:0:0:0:
432,144,207996,1,8,0:0:0:0:
464,144,208167,1,0,0:0:0:0:
464,144,208339,1,8,0:0:0:0:
480,176,208510,1,8,0:0:0:0:
416,128,208596,1,8,0:0:0:0:
464,144,208682,1,0,0:0:0:0:
416,176,208853,1,0,0:0:0:0:
384,144,209024,1,8,0:0:0:0:
368,160,209539,1,0,0:0:0:0:
368,160,209710,1,8,0:0:0:0:
480,208,209882,1,8,0:0:0:0:
432,224,209967,1,8,0:0:0:0:
480,176,210053,1,0,0:0:0:0:
432,208,210224,1,8,0:0:0:0:
400,144,210396,1,0,0:0:0:0:
432,176,210567,1,8,0:0:0:0:
400,144,210653,1,0,0:0:0:0:
448,256,210739,1,8,0:0:0:0:
352,160,210910,1,8,0:0:0:0:
368,160,210996,1,8,0:0:0:0:
400,176,211082,1,0,0:0:0:0:
400,176,211167,1,0,0:0:0:0:
400,144,211253,1,8,0:0:0:0:
448,176,211339,1,0,0:0:0:0:
448,160,211424,1,8,0:0:0:0:
400,144,211510,1,8,0:0:0:0:
400,144,211596,1,8,0:0:0:0:
448,176,211682,1,0,0:0:0:0:
384,160,211767,1,8,0:0:0:0:
480,160,211853,1,0,0:0:0:0:
416,144,211939,1,0,0:0:0:0:
448,176,212024,1,0,0:0:0:0:
416,144,212110,1,8,0:0:0:0:
448,176,212196,1,0,0:0:0:0:
448,176,212453,1,8,0:0:0:0:
448,176,212539,1,8,0:0:0:0:
448,176,212624,1,0,0:0:0:0:
480,160,212710,1,0,0:0:0:0:
448,176,212796,1,8,0:0:0:0:
448,176,212882,1,0,0:0:0:0:
368,144,213139,1,8,0:0:0:0:
448,176,213310,1,0,0:0:0:0:
448,176,213482,1,8,0:0:0:0:
416,160,213567,1,0,0:0:0:0:
368,192,213739,1,0,0:0:0:0:
416,144,213824,1,8,0:0:0:0:
368,144,213910,1,8,0:0:0:0:
384,192,213996,1,0,0:0:0:0:
352,192,214082,1,8,0:0:0:0:
400,160,214167,1,0,0:0:0:0:
368,144,214339,1,0,0:0:0:0:
416,144,214510,1,8,0:0:0:0:
368,144,215024,1,0,0:0:0:0:
368,144,215196,1,8,0:0:0:0:
416,160,215367,1,0,0:0:0:0:
416,160,215453,1,8,0:0:0:0:
432,224,215539,1,8,0:0:0:0:
368,144,215710,1,8,0:0:0:0:
400,160,215796,1,0,0:0:0:0:
432,176,215882,1,0,0:0:0:0:
432,224,216053,1,0,0:0:0:0:
459,175,216224,1,8,0:0:0:0:
432,176,216310,1,8,0:0:0:0:
416,160,216396,1,0,0:0:0:0:
416,160,216482,1,0,0:0:0:0:
432,176,216567,1,8,0:0:0:0:
432,176,216910,1,8,0:0:0:0:
368,144,217082,1,0,0:0:0:0:
368,144,217167,1,0,0:0:0:0:
416,160,217253,1,8,0:0:0:0:
368,144,217339,1,8,0:0:0:0:
416,160,217424,1,0,0:0:0:0:
384,160,217596,1,8,0:0:0:0:
384,160,217682,1,8,0:0:0:0:
323,144,217767,1,0,0:0:0:0:
464,176,217939,1,8,0:0:0:0:
464,176,218024,1,8,0:0:0:0:
464,176,218110,1,8,0:0:0:0:
368,144,218196,1,0,0:0:0:0:
395,147,218282,1,8,0:0:0:0:
368,144,218367,1,0,0:0:0:0:
368,144,218453,1,0,0:0:0:0:
400,176,218624,1,8,0:0:0:0:
416,160,218710,1,8,0:0:0:0:
368,144,218796,1,0,0:0:0:0:
352,160,218967,1,8,0:0:0:0:
304,144,219139,1,0,0:0:0:0:
384,160,219310,1,8,0:0:0:0:
400,176,219482,1,8,0:0:0:0:
427,180,219567,1,8,0:0:0:0:
400,176,219653,1,8,0:0:0:0:
368,144,219739,1,0,0:0:0:0:
416,160,219996,1,12,0:0:0:0:
368,144,220339,1,8,0:0:0:0:
368,192,220510,1,0,0:0:0:0:
368,192,220596,1,0,0:0:0:0:
304,144,220682,1,8,0:0:0:0:
400,128,220853,1,8,0:0:0:0:
384,128,220910,1,8,0:0:0:0:
400,128,220967,1,8,0:0:0:0:
416,160,221024,1,0,0:0:0:0:
448,208,221196,1,8,0:0:0:0:
400,176,221367,1,0,0:0:0:0:
368,144,221539,1,0,0:0:0:0:
432,176,221596,1,8,0:0:0:0:
304,144,221653,1,0,0:0:0:0:
416,144,221710,1,8,0:0:0:0:
304,144,221882,1,8,0:0:0:0:
416,160,221967,1,8,0:0:0:0:
352,160,222053,1,0,0:0:0:0:
384,160,222139,1,0,0:0:0:0:
368,144,222224,1,8,0:0:0:0:
352,160,222310,1,0,0:0:0:0:
352,160,222396,1,8,0:0:0:0:
352,160,222482,1,8,0:0:0:0:
368,144,222567,1,0,0:0:0:0:
368,144,222653,1,0,0:0:0:0:
416,160,222739,1,8,0:0:0:0:
368,144,222824,1,0,0:0:0:0:
368,144,222910,1,0,0:0:0:0:
368,144,222996,1,0,0:0:0:0:
400,176,223082,1,8,0:0:0:0:
352,160,223167,1,0,0:0:0:0:
352,160,223253,1,0,0:0:0:0:
352,160,223339,1,0,0:0:0:0:
352,160,223424,1,8,0:0:0:0:
384,160,223510,1,8,0:0:0:0:
416,160,223596,1,0,0:0:0:0:
352,160,223682,1,0,0:0:0:0:
384,160,223767,1,8,0:0:0:0:
416,160,223853,1,8,0:0:0:0:
368,144,223939,1,0,0:0:0:0:
368,144,224024,1,0,0:0:0:0:
368,144,224110,1,8,0:0:0:0:
336,192,224282,1,0,0:0:0:0:
410,215,224367,1,0,0:0:0:0:
384,157,224453,1,8,0:0:0:0:
352,160,224539,1,8,0:0:0:0:
368,144,224624,1,0,0:0:0:0:
368,144,224710,1,0,0:0:0:0:
368,176,224796,5,8,0:0:0:0:
416,160,224967,1,0,0:0:0:0:
400,160,225024,1,8,0:0:0:0:
384,160,225082,1,8,0:0:0:0:
416,160,225139,1,0,0:0:0:0:
416,176,225310,1,0,0:0:0:0:
464,208,225482,1,8,0:0:0:0:
368,144,225824,1,8,0:0:0:0:
336,96,225996,1,0,0:0:0:0:
400,224,226082,1,0,0:0:0:0:
352,160,226167,1,8,0:0:0:0:
416,176,226339,1,8,0:0:0:0:
400,160,226396,1,8,0:0:0:0:
400,160,226453,1,8,0:0:0:0:
368,176,226510,1,0,0:0:0:0:
320,160,226682,1,8,0:0:0:0:
368,144,226853,1,0,0:0:0:0:
368,144,227024,1,0,0:0:0:0:
416,160,227082,1,8,0:0:0:0:
368,144,227139,1,0,0:0:0:0:
416,160,227196,1,8,0:0:0:0:
416,160,227367,1,8,0:0:0:0:
416,224,227453,1,8,0:0:0:0:
416,160,227539,1,0,0:0:0:0:
384,160,227710,1,8,0:0:0:0:
400,176,227796,1,0,0:0:0:0:
416,160,227882,1,8,0:0:0:0:
400,192,228053,1,0,0:0:0:0:
368,176,228139,1,0,0:0:0:0:
368,144,228224,1,8,0:0:0:0:
352,128,228310,1,0,0:0:0:0:
352,128,228396,1,0,0:0:0:0:
352,128,228482,1,0,0:0:0:0:
352,160,228567,1,8,0:0:0:0:
416,160,228653,1,0,0:0:0:0:
416,160,228739,1,0,0:0:0:0:
416,160,228824,1,0,0:0:0:0:
400,160,228910,1,8,0:0:0:0:
400,160,228996,1,8,0:0:0:0:
416,160,229082,1,0,0:0:0:0:
416,160,229167,1,0,0:0:0:0:
416,160,229253,1,8,0:0:0:0:
416,160,229339,1,8,0:0:0:0:
400,160,229424,1,0,0:0:0:0:
400,160,229510,1,0,0:0:0:0:
400,160,229596,1,8,0:0:0:0:
400,160,229767,1,0,0:0:0:0:
416,160,229939,1,8,0:0:0:0:
416,160,230110,1,0,0:0:0:0:
368,128,230282,1,8,0:0:0:0:
416,144,230453,1,0,0:0:0:0:
432,176,230510,1,8,0:0:0:0:
432,176,230567,1,8,0:0:0:0:
400,176,230624,1,0,0:0:0:0:
416,160,230796,1,0,0:0:0:0:
400,160,230967,1,12,0:0:0:0:
416,160,231310,1,8,0:0:0:0:
416,160,231482,1,0,0:0:0:0:
352,176,231567,1,0,0:0:0:0:
361,144,231653,1,8,0:0:0:0:
368,128,231824,1,8,0:0:0:0:
240,48,231882,1,8,0:0:0:0:
240,48,231939,1,8,0:0:0:0:
359,182,231996,1,0,0:0:0:0:
315,146,232167,1,8,0:0:0:0:
349,102,232339,1,0,0:0:0:0:
416,160,232510,1,0,0:0:0:0:
400,160,232596,1,0,0:0:0:0:
372,160,232682,1,8,0:0:0:0:
400,160,232853,1,8,0:0:0:0:
400,160,232939,1,8,0:0:0:0:
361,144,233024,1,0,0:0:0:0:
361,144,233110,1,0,0:0:0:0:
416,160,233196,1,8,0:0:0:0:
409,171,233282,1,0,0:0:0:0:
381,167,233367,1,8,0:0:0:0:
393,180,233453,1,8,0:0:0:0:
409,171,233539,1,0,0:0:0:0:
416,160,233624,1,0,0:0:0:0:
416,160,233710,1,8,0:0:0:0:
372,160,233796,1,0,0:0:0:0:
400,160,233882,1,0,0:0:0:0:
372,160,234053,1,12,0:0:0:0:
372,160,234396,1,8,0:0:0:0:
400,160,234482,1,8,0:0:0:0:
400,160,234567,1,0,0:0:0:0:
361,144,234739,1,12,0:0:0:0:
381,167,235082,1,8,0:0:0:0:
325,157,235253,1,0,0:0:0:0:
372,160,235424,1,8,0:0:0:0:
372,160,235510,1,8,0:0:0:0:
416,160,235596,1,0,0:0:0:0:
381,167,235682,1,8,0:0:0:0:
384,144,235767,1,0,0:0:0:0:
372,160,235853,1,8,0:0:0:0:
400,160,235939,1,0,0:0:0:0:
372,160,235996,1,8,0:0:0:0:
372,160,236053,1,8,0:0:0:0:
372,160,236110,1,0,0:0:0:0:
424,139,236282,1,0,0:0:0:0:
444,193,236453,1,8,0:0:0:0:
424,139,236796,1,8,0:0:0:0:
360,147,236967,1,0,0:0:0:0:
400,192,237053,1,0,0:0:0:0:
415,156,237139,1,8,0:0:0:0:
383,131,237310,1,8,0:0:0:0:
383,131,237367,1,8,0:0:0:0:
383,131,237424,1,8,0:0:0:0:
364,133,237482,1,0,0:0:0:0:
372,160,237653,1,8,0:0:0:0:
424,139,237824,1,0,0:0:0:0:
424,139,237996,1,0,0:0:0:0:
361,144,238053,1,8,0:0:0:0:
424,139,238110,1,0,0:0:0:0:
361,144,238167,1,8,0:0:0:0:
416,149,238339,1,8,0:0:0:0:
416,224,238424,1,8,0:0:0:0:
424,139,238510,1,0,0:0:0:0:
415,156,238596,1,0,0:0:0:0:
442,151,238682,1,8,0:0:0:0:
415,156,238767,1,0,0:0:0:0:
442,151,238853,1,8,0:0:0:0:
442,151,238939,1,8,0:0:0:0:
415,156,239024,1,0,0:0:0:0:
424,139,239110,1,0,0:0:0:0:
442,151,239196,1,8,0:0:0:0:
442,151,239367,1,0,0:0:0:0:
415,156,239453,1,8,0:0:0:0:
361,144,239539,1,8,0:0:0:0:
473,175,239710,1,8,0:0:0:0:
417,169,239882,1,0,0:0:0:0:
473,175,240053,1,8,0:0:0:0:
473,175,240139,1,8,0:0:0:0:
442,151,240224,1,0,0:0:0:0:
410,166,240396,1,0,0:0:0:0:
410,166,240482,1,0,0:0:0:0:
470,168,240567,1,8,0:0:0:0:
464,176,240739,1,0,0:0:0:0:
417,169,240910,1,8,0:0:0:0:
410,166,241082,1,8,0:0:0:0:
361,144,241167,1,8,0:0:0:0:
470,168,241253,1,0,0:0:0:0:
470,168,241339,1,8,0:0:0:0:
470,168,241510,1,8,0:0:0:0:
452,166,241596,1,0,0:0:0:0:
415,156,241939,1,12,0:0:0:0:
406,151,242110,1,0,0:0:0:0:
452,166,242282,1,8,0:0:0:0:
451,153,242453,1,0,0:0:0:0:
432,160,242539,1,8,0:0:0:0:
428,159,242624,1,0,0:0:0:0:
416,192,242710,1,8,0:0:0:0:
448,192,242796,1,8,0:0:0:0:
432,176,242967,1,8,0:0:0:0:
417,169,243139,1,8,0:0:0:0:
417,169,243224,1,0,0:0:0:0:
448,128,243310,1,0,0:0:0:0:
432,208,243396,1,8,0:0:0:0:
464,208,243482,1,8,0:0:0:0:
416,160,243567,1,0,0:0:0:0:
448,192,243653,1,8,0:0:0:0:
416,192,243824,1,0,0:0:0:0:
462,165,243910,1,8,0:0:0:0:
479,180,243996,1,0,0:0:0:0:
437,164,244082,1,8,0:0:0:0:
437,164,244167,1,8,0:0:0:0:
472,158,244253,1,0,0:0:0:0:
479,174,244339,1,8,0:0:0:0:
416,192,244510,1,8,0:0:0:0:
435,156,244596,1,0,0:0:0:0:
448,224,244682,1,8,0:0:0:0:
466,160,244767,1,8,0:0:0:0:
416,160,244853,1,0,0:0:0:0:
400,192,244939,1,8,0:0:0:0:
447,159,245024,1,8,0:0:0:0:
462,165,245196,1,0,0:0:0:0:
391,154,245282,1,8,0:0:0:0:
478,146,245367,1,0,0:0:0:0:
416,160,245453,1,8,0:0:0:0:
443,182,245539,1,8,0:0:0:0:
480,176,245710,1,8,0:0:0:0:
479,174,245882,1,8,0:0:0:0:
391,154,245967,1,0,0:0:0:0:
419,185,246053,1,0,0:0:0:0:
421,154,246139,1,8,0:0:0:0:
421,154,246224,1,8,0:0:0:0:
450,168,246310,1,0,0:0:0:0:
484,181,246396,1,8,0:0:0:0:
509,134,246567,1,0,0:0:0:0:
444,157,246653,1,8,0:0:0:0:
461,154,246739,1,0,0:0:0:0:
468,190,246824,1,8,0:0:0:0:
459,155,246910,1,8,0:0:0:0:
399,156,246996,1,0,0:0:0:0:
455,148,247082,1,8,0:0:0:0:
399,156,247253,1,8,0:0:0:0:
464,208,247339,1,0,0:0:0:0:
423,171,247424,1,8,0:0:0:0:
464,160,247510,1,8,0:0:0:0:
448,144,247596,1,0,0:0:0:0:
448,176,247682,1,8,0:0:0:0:
410,154,247767,1,8,0:0:0:0:
400,160,247939,1,8,0:0:0:0:
384,160,248024,1,8,0:0:0:0:
419,139,248110,1,0,0:0:0:0:
448,176,248196,1,8,0:0:0:0:
448,176,248282,1,8,0:0:0:0:
448,160,248367,1,0,0:0:0:0:
404,144,248453,1,8,0:0:0:0:
416,160,248539,1,8,0:0:0:0:
423,158,248624,1,0,0:0:0:0:
400,144,248710,1,8,0:0:0:0:
410,154,248796,1,0,0:0:0:0:
416,160,248882,1,8,0:0:0:0:
416,144,248967,1,8,0:0:0:0:
400,144,249053,1,0,0:0:0:0:
448,160,249139,1,8,0:0:0:0:
416,176,249310,1,0,0:0:0:0:
464,160,249396,1,8,0:0:0:0:
432,144,249482,1,0,0:0:0:0:
432,208,249567,1,8,0:0:0:0:
432,176,249653,1,8,0:0:0:0:
400,176,249739,1,8,0:0:0:0:
368,176,249824,1,0,0:0:0:0:
358,196,249996,1,0,0:0:0:0:
448,160,250082,1,8,0:0:0:0:
448,160,250167,1,0,0:0:0:0:
464,176,250253,1,0,0:0:0:0:
432,176,250339,1,8,0:0:0:0:
464,176,250424,1,0,0:0:0:0:
432,176,250510,1,8,0:0:0:0:
416,288,250682,1,8,0:0:0:0:
384,176,250767,1,0,0:0:0:0:
416,176,250853,1,8,0:0:0:0:
416,176,250939,1,8,0:0:0:0:
384,176,251024,1,0,0:0:0:0:
448,160,251196,1,8,0:0:0:0:
448,160,251282,1,8,0:0:0:0:
464,176,251367,1,0,0:0:0:0:
384,160,251453,1,8,0:0:0:0:
464,160,251539,1,8,0:0:0:0:
448,160,251710,1,8,0:0:0:0:
461,221,251796,1,0,0:0:0:0:
471,171,251882,1,8,0:0:0:0:
471,171,251967,1,8,0:0:0:0:
416,160,252053,1,0,0:0:0:0:
480,144,252139,1,8,0:0:0:0:
438,163,252224,1,0,0:0:0:0:
477,165,252310,1,8,0:0:0:0:
464,192,252396,1,8,0:0:0:0:
416,144,252482,1,0,0:0:0:0:
480,144,252567,1,8,0:0:0:0:
480,176,252653,1,8,0:0:0:0:
416,176,252739,1,0,0:0:0:0:
432,160,252824,1,0,0:0:0:0:
406,151,252910,1,8,0:0:0:0:
406,151,253082,1,0,0:0:0:0:
432,288,253167,1,0,0:0:0:0:
385,171,253253,1,8,0:0:0:0:
363,173,253339,1,0,0:0:0:0:
408,182,253424,1,8,0:0:0:0:
386,180,253510,1,8,0:0:0:0:
428,159,253596,1,0,0:0:0:0:
432,288,253682,1,0,0:0:0:0:
358,171,253767,1,8,0:0:0:0:
396,158,253853,1,0,0:0:0:0:
426,161,253939,1,8,0:0:0:0:
424,164,254024,1,8,0:0:0:0:
468,173,254110,1,0,0:0:0:0:
404,171,254196,1,8,0:0:0:0:
448,160,254282,1,0,0:0:0:0:
405,177,254367,1,8,0:0:0:0:
464,208,254453,1,8,0:0:0:0:
416,160,254539,1,0,0:0:0:0:
448,192,254624,1,8,0:0:0:0:
400,176,254710,1,8,0:0:0:0:
432,192,254796,1,0,0:0:0:0:
462,165,254882,1,8,0:0:0:0:
479,180,254967,1,0,0:0:0:0:
496,176,255053,1,8,0:0:0:0:
432,160,255139,1,8,0:0:0:0:
448,192,255224,1,0,0:0:0:0:
416,208,255310,1,8,0:0:0:0:
352,208,255482,1,8,0:0:0:0:
435,156,255567,1,0,0:0:0:0:
393,197,255653,1,8,0:0:0:0:
448,240,255739,1,8,0:0:0:0:
462,165,255824,1,0,0:0:0:0:
443,177,255910,1,0,0:0:0:0:
339,159,255996,1,8,0:0:0:0:
408,146,256082,1,0,0:0:0:0:
439,186,256167,1,8,0:0:0:0:
439,186,256253,1,8,0:0:0:0:
478,146,256339,1,0,0:0:0:0:
436,140,256424,1,0,0:0:0:0:
416,160,256510,1,8,0:0:0:0:
480,144,256596,1,0,0:0:0:0:
448,176,256682,1,8,0:0:0:0:
416,208,256767,1,8,0:0:0:0:
472,158,256853,1,0,0:0:0:0:
416,160,256939,1,8,0:0:0:0:
419,185,257024,1,0,0:0:0:0:
421,154,257110,1,8,0:0:0:0:
421,154,257196,1,8,0:0:0:0:
450,168,257282,1,0,0:0:0:0:
484,181,257367,1,8,0:0:0:0:
384,176,257453,1,8,0:0:0:0:
509,134,257539,1,0,0:0:0:0:
444,157,257624,1,8,0:0:0:0:
461,154,257710,1,0,0:0:0:0:
464,176,257796,1,8,0:0:0:0:
448,224,257882,1,8,0:0:0:0:
399,156,257967,1,0,0:0:0:0:
352,112,258053,1,8,0:0:0:0:
432,160,258224,1,8,0:0:0:0:
416,176,258310,1,0,0:0:0:0:
423,171,258396,1,8,0:0:0:0:
444,157,258482,1,8,0:0:0:0:
368,160,258567,1,0,0:0:0:0:
416,160,258653,1,8,0:0:0:0:
410,154,258739,1,8,0:0:0:0:
464,208,258824,1,0,0:0:0:0:
435,166,258910,1,8,0:0:0:0:
399,156,258996,1,8,0:0:0:0:
419,139,259082,1,0,0:0:0:0:
416,176,259167,1,8,0:0:0:0:
448,176,259253,1,8,0:0:0:0:
416,208,259339,1,0,0:0:0:0:
427,178,259424,1,8,0:0:0:0:
336,160,259510,1,8,0:0:0:0:
451,183,259596,1,0,0:0:0:0:
497,183,259682,1,8,0:0:0:0:
454,182,259767,1,0,0:0:0:0:
391,142,259853,1,8,0:0:0:0:
410,154,259939,1,8,0:0:0:0:
460,163,260024,1,0,0:0:0:0:
414,148,260110,1,8,0:0:0:0:
414,148,260196,1,8,0:0:0:0:
466,170,260282,1,0,0:0:0:0:
368,80,260367,1,8,0:0:0:0:
336,128,260453,1,0,0:0:0:0:
432,176,260539,1,8,0:0:0:0:
336,160,260624,1,8,0:0:0:0:
464,192,260710,1,8,0:0:0:0:
432,192,260796,1,0,0:0:0:0:
449,244,260967,1,0,0:0:0:0:
400,176,261053,1,8,0:0:0:0:
448,160,261139,1,0,0:0:0:0:
464,176,261224,1,0,0:0:0:0:
432,176,261310,1,8,0:0:0:0:
464,176,261396,1,0,0:0:0:0:
432,176,261482,1,8,0:0:0:0:
294,216,261653,1,8,0:0:0:0:
368,176,261739,1,0,0:0:0:0:
352,176,261824,1,8,0:0:0:0:
384,176,261910,1,8,0:0:0:0:
400,192,261996,1,0,0:0:0:0:
448,160,262167,1,8,0:0:0:0:
448,160,262253,1,8,0:0:0:0:
400,224,262339,1,0,0:0:0:0:
448,176,262424,1,8,0:0:0:0:
416,208,262510,1,8,0:0:0:0:
448,160,262682,1,8,0:0:0:0:
461,221,262767,1,0,0:0:0:0:
471,171,262853,1,8,0:0:0:0:
471,171,262939,1,8,0:0:0:0:
416,160,263024,1,0,0:0:0:0:
480,144,263110,1,8,0:0:0:0:
438,163,263196,1,0,0:0:0:0:
477,165,263282,1,8,0:0:0:0:
464,192,263367,1,8,0:0:0:0:
416,144,263453,1,0,0:0:0:0:
480,144,263539,1,8,0:0:0:0:
480,176,263624,1,8,0:0:0:0:
416,176,263710,1,0,0:0:0:0:
384,160,263882,1,12,0:0:0:0:
448,128,264053,1,0,0:0:0:0:
448,160,264224,1,8,0:0:0:0:
400,144,264396,1,0,0:0:0:0:
416,160,264482,1,8,0:0:0:0:
432,192,264739,1,0,0:0:0:0:
400,144,264910,1,8,0:0:0:0:
400,144,265082,1,0,0:0:0:0:
400,144,265167,1,0,0:0:0:0:
384,160,265253,1,8,0:0:0:0:
448,144,265424,1,0,0:0:0:0:
448,160,265596,1,8,0:0:0:0:
432,160,265767,1,8,0:0:0:0:
384,144,265853,1,0,0:0:0:0:
384,144,266110,1,0,0:0:0:0:
416,144,266282,1,8,0:0:0:0:
416,128,266453,1,8,0:0:0:0:
416,128,266539,1,8,0:0:0:0:
432,144,266624,1,0,0:0:0:0:
416,144,266796,1,0,0:0:0:0:
416,144,266967,1,8,0:0:0:0:
416,208,267139,1,8,0:0:0:0:
464,160,267224,1,0,0:0:0:0:
432,160,267396,1,0,0:0:0:0:
416,144,267482,1,8,0:0:0:0:
416,144,267653,1,8,0:0:0:0:
400,160,267824,1,0,0:0:0:0:
400,160,267910,1,0,0:0:0:0:
384,160,267996,1,8,0:0:0:0:
432,144,268167,1,0,0:0:0:0:
400,160,268339,1,8,0:0:0:0:
464,160,268510,1,8,0:0:0:0:
400,160,268596,1,0,0:0:0:0:
474,199,268853,1,0,0:0:0:0:
474,199,268939,1,0,0:0:0:0:
400,160,269024,1,8,0:0:0:0:
400,160,269196,1,8,0:0:0:0:
476,230,269367,1,4,0:0:0:0:
447,129,269539,1,0,0:0:0:0:
422,153,269710,1,8,0:0:0:0:
438,168,269882,1,0,0:0:0:0:
422,159,269967,1,8,0:0:0:0:
447,155,270224,1,0,0:0:0:0:
449,154,270396,1,8,0:0:0:0:
429,158,270567,1,0,0:0:0:0:
429,158,270653,1,0,0:0:0:0:
413,169,270739,1,8,0:0:0:0:
438,168,270910,1,0,0:0:0:0:
429,154,271082,1,8,0:0:0:0:
429,154,271253,1,8,0:0:0:0:
433,163,271339,1,0,0:0:0:0:
454,166,271596,1,0,0:0:0:0:
407,161,271767,1,8,0:0:0:0:
406,156,271939,1,8,0:0:0:0:
406,156,272024,1,8,0:0:0:0:
435,154,272110,1,0,0:0:0:0:
429,154,272282,1,0,0:0:0:0:
413,148,272453,1,8,0:0:0:0:
448,224,272624,1,8,0:0:0:0:
468,151,272710,1,0,0:0:0:0:
432,144,272882,1,0,0:0:0:0:
400,128,272967,1,8,0:0:0:0:
366,146,273139,1,8,0:0:0:0:
429,154,273310,1,0,0:0:0:0:
431,152,273396,1,0,0:0:0:0:
366,146,273482,1,8,0:0:0:0:
409,159,273653,1,0,0:0:0:0:
377,146,273824,1,8,0:0:0:0:
429,154,273996,1,8,0:0:0:0:
411,160,274082,1,0,0:0:0:0:
413,148,274167,1,0,0:0:0:0:
409,159,274339,1,0,0:0:0:0:
352,144,274510,1,8,0:0:0:0:
320,144,274596,1,8,0:0:0:0:
468,174,274682,1,0,0:0:0:0:
384,144,274853,1,12,0:0:0:0:
352,160,275024,1,0,0:0:0:0:
448,160,275196,1,8,0:0:0:0:
400,144,275367,1,0,0:0:0:0:
416,160,275453,1,8,0:0:0:0:
400,208,275710,1,0,0:0:0:0:
400,144,275882,1,8,0:0:0:0:
400,144,276053,1,0,0:0:0:0:
400,144,276139,1,0,0:0:0:0:
384,160,276224,1,8,0:0:0:0:
448,144,276396,1,0,0:0:0:0:
448,160,276567,1,8,0:0:0:0:
432,160,276739,1,8,0:0:0:0:
384,144,276824,1,0,0:0:0:0:
384,144,277082,1,0,0:0:0:0:
416,144,277253,1,8,0:0:0:0:
416,128,277424,1,8,0:0:0:0:
416,128,277510,1,8,0:0:0:0:
432,144,277596,1,0,0:0:0:0:
416,144,277767,1,0,0:0:0:0:
416,144,277939,1,8,0:0:0:0:
448,208,278110,1,8,0:0:0:0:
464,160,278196,1,0,0:0:0:0:
464,192,278367,1,0,0:0:0:0:
432,160,278453,1,8,0:0:0:0:
416,144,278624,1,8,0:0:0:0:
400,160,278796,1,0,0:0:0:0:
400,160,278882,1,0,0:0:0:0:
384,160,278967,1,8,0:0:0:0:
432,144,279139,1,0,0:0:0:0:
400,160,279310,1,8,0:0:0:0:
464,160,279482,1,8,0:0:0:0:
400,160,279567,1,0,0:0:0:0:
400,160,279739,1,0,0:0:0:0:
370,184,279824,1,8,0:0:0:0:
438,168,279996,1,8,0:0:0:0:
438,196,280082,1,8,0:0:0:0:
400,160,280167,1,8,0:0:0:0:
476,230,280339,1,4,0:0:0:0:
447,129,280510,1,0,0:0:0:0:
422,153,280682,1,8,0:0:0:0:
438,168,280853,1,0,0:0:0:0:
422,159,280939,1,8,0:0:0:0:
447,155,281196,1,0,0:0:0:0:
449,154,281367,1,8,0:0:0:0:
392,153,281539,1,0,0:0:0:0:
392,153,281710,1,12,0:0:0:0:
438,168,281882,1,0,0:0:0:0:
429,154,282053,1,8,0:0:0:0:
429,154,282224,1,8,0:0:0:0:
433,163,282310,1,0,0:0:0:0:
454,166,282567,1,0,0:0:0:0:
407,161,282739,1,8,0:0:0:0:
406,156,282910,1,8,0:0:0:0:
406,156,282996,1,8,0:0:0:0:
435,154,283082,1,0,0:0:0:0:
429,154,283253,1,0,0:0:0:0:
413,148,283424,1,8,0:0:0:0:
448,224,283596,1,8,0:0:0:0:
468,151,283682,1,0,0:0:0:0:
432,192,283853,1,0,0:0:0:0:
416,160,283939,1,8,0:0:0:0:
366,146,284110,1,8,0:0:0:0:
429,154,284282,1,0,0:0:0:0:
431,152,284367,1,0,0:0:0:0:
366,146,284453,1,8,0:0:0:0:
409,159,284624,1,0,0:0:0:0:
377,146,284796,1,8,0:0:0:0:
377,146,284967,1,8,0:0:0:0:
411,160,285053,1,0,0:0:0:0:
468,174,285139,1,0,0:0:0:0:
429,154,285310,1,0,0:0:0:0:
409,159,285482,1,8,0:0:0:0:
409,159,285567,1,0,0:0:0:0:
468,174,285653,1,8,0:0:0:0:
416,176,285824,1,4,0:0:0:0:
416,176,286167,1,0,0:0:0:0:
377,146,286339,1,0,0:0:0:0:
411,160,286424,1,8,0:0:0:0:
411,160,286682,1,0,0:0:0:0:
416,192,286853,1,0,0:0:0:0:
429,154,287024,1,0,0:0:0:0:
377,146,287196,1,8,0:0:0:0:
304,224,287539,1,0,0:0:0:0:
416,176,287710,1,8,0:0:0:0:
429,154,287796,1,0,0:0:0:0:
336,144,288053,1,0,0:0:0:0:
411,160,288224,1,8,0:0:0:0:
411,160,288396,1,8,0:0:0:0:
416,176,288567,1,0,0:0:0:0:
377,146,288910,1,8,0:0:0:0:
400,160,289082,1,8,0:0:0:0:
320,144,289167,1,0,0:0:0:0:
464,176,289424,1,8,0:0:0:0:
400,176,289596,1,0,0:0:0:0:
411,160,289767,1,0,0:0:0:0:
411,160,289939,1,8,0:0:0:0:
411,160,290110,1,0,0:0:0:0:
384,176,290282,1,8,0:0:0:0:
377,146,290453,1,8,0:0:0:0:
377,146,290539,1,8,0:0:0:0:
377,146,290624,1,0,0:0:0:0:
411,160,290796,1,0,0:0:0:0:
352,160,290967,1,8,0:0:0:0:
304,160,291139,1,8,0:0:0:0:
336,112,291310,1,4,0:0:0:0:
368,192,291653,1,0,0:0:0:0:
416,192,291824,1,0,0:0:0:0:
416,192,291910,1,0,0:0:0:0:
352,128,292167,1,0,0:0:0:0:
352,144,292339,1,0,0:0:0:0:
352,144,292510,1,0,0:0:0:0:
384,176,292682,1,8,0:0:0:0:
416,176,293024,1,8,0:0:0:0:
432,176,293196,1,8,0:0:0:0:
432,176,293282,1,8,0:0:0:0:
384,160,293539,1,8,0:0:0:0:
384,160,293710,1,8,0:0:0:0:
416,160,293882,1,8,0:0:0:0:
384,176,294053,1,0,0:0:0:0:
400,144,294396,1,0,0:0:0:0:
384,176,294567,1,0,0:0:0:0:
384,176,294653,1,0,0:0:0:0:
368,128,294910,1,0,0:0:0:0:
368,128,295082,1,0,0:0:0:0:
432,160,295253,1,0,0:0:0:0:
432,176,295424,1,8,0:0:0:0:
464,160,295767,1,8,0:0:0:0:
400,160,295939,1,8,0:0:0:0:
400,160,296024,1,8,0:0:0:0:
432,176,296282,1,8,0:0:0:0:
432,176,296453,1,8,0:0:0:0:
336,160,296624,1,8,0:0:0:0:
256,192,296796,12,0,301939,0:0:0:0:
