osu file format v14

[General]
AudioFilename: audio.mp3
AudioLeadIn: 0
PreviewTime: 89012
Countdown: 1
SampleSet: Soft
StackLeniency: 0.2
Mode: 0
LetterboxInBreaks: 0
WidescreenStoryboard: 1

[Editor]
Bookmarks: 1052,25212,38012,50812,63612,89212,92412,95612,98812,102012,114812,140412,166012,191612,217212,242812,255612,268412,271612
DistanceSpacing: 1
BeatDivisor: 8
GridSize: 16
TimelineZoom: 1.8

[Metadata]
Title:Colors -sasakure.UK Futurelogic Remix-
TitleUnicode:Colors -sasakure.UK Futurelogic Remix-
Artist:dj TAKA
ArtistUnicode:dj TAKA
Creator:YokesPai
Version::exarch1Hello:
Source:
Tags:
BeatmapID:2129091
BeatmapSetID:1017238

[Difficulty]
HPDrainRate:5
CircleSize:4.5
OverallDifficulty:8.2
ApproachRate:9.2
SliderMultiplier:2
SliderTickRate:1

[Events]
//Background and Video events
0,0,"blue.jpg",0,0
//Break Periods
//Storyboard Layer 0 (Background)
//Storyboard Layer 1 (Fail)
//Storyboard Layer 2 (Pass)
//Storyboard Layer 3 (Foreground)
//Storyboard Layer 4 (Overlay)
//Storyboard Sound Samples

[TimingPoints]
1052,521.739130434783,4,2,0,30,1,0
1573,571.428571428571,4,2,0,30,1,0
1573,-200,4,2,0,30,0,0
2144,-200,4,2,0,5,0,0
2430,521.739130434783,4,2,0,30,1,0
2690,495.867768595041,4,2,0,30,1,0
2937,428.571428571429,4,2,0,30,1,0
3151,352.941176470588,4,2,0,30,1,0
3151,-200,4,2,0,30,0,0
3856,-200,4,2,0,5,0,0
4290,545.454545454546,4,2,0,30,1,0
5108,400,4,2,0,30,1,0
5108,-200,4,2,0,30,0,0
5908,-200,4,2,0,5,0,0
6508,545.454545454546,4,2,0,30,1,0
7053,530.973451327434,4,2,0,30,1,0
7584,571.428571428571,4,2,0,30,1,0
8441,530.973451327434,4,2,0,30,1,0
8441,-200,4,2,0,30,0,0
9502,-200,4,2,0,5,0,0
10299,375,4,2,0,30,1,0
10299,-200,4,2,0,30,0,0
10486,461.538461538462,4,2,0,30,1,0
10716,571.428571428571,4,2,0,30,1,0
10716,-200,4,2,0,30,0,0
11287,631.578947368421,4,2,0,30,1,0
11918,444.444444444444,4,2,0,30,1,0
11918,-200,4,2,0,30,0,0
12362,375,4,2,0,30,1,0
12737,333.333333333333,4,2,0,30,1,0
12737,-200,4,2,0,30,0,0
13070,582.52427184466,4,2,0,30,1,0
13357,363.636363636364,4,2,0,30,1,0
13720,444.444444444444,4,2,0,30,1,0
14164,428.571428571429,4,2,0,30,1,0
14164,-200,4,2,0,30,0,0
15021,444.444444444444,4,2,0,30,1,0
15021,-200,4,2,0,30,0,0
15465,389.61038961039,4,2,0,30,1,0
15465,-200,4,2,0,30,0,0
15854,400,4,2,0,30,1,0
16254,437.956204379562,4,2,0,30,1,0
16691,521.739130434783,4,2,0,30,1,0
17734,517.241379310345,4,2,0,30,1,0
17734,-200,4,2,0,30,0,0
18768,508.474576271186,4,2,0,30,1,0
18768,-200,4,2,0,30,0,0
19276,666.666666666667,4,2,0,30,1,0
19609,521.739130434783,4,2,0,30,1,0
19609,-200,4,2,0,30,0,0
19869,666.666666666667,4,2,0,30,1,0
20202,461.538461538462,4,2,0,30,1,0
20202,-200,4,2,0,30,0,0
20432,545.454545454546,4,2,0,30,1,0
20704,705.882352941176,4,2,0,30,1,0
21056,685.714285714286,4,2,0,30,1,0
21227,480,4,2,0,30,1,0
21347,685.714285714286,4,2,0,30,1,0
21518,369.230769230769,4,2,0,30,1,0
21702,324.324324324324,4,2,0,30,1,0
22674,600,4,2,0,30,1,0
22749,545.454545454546,4,2,0,30,1,0
22817,500,4,2,0,30,1,0
24817,400,4,2,0,30,1,0
25212,400,4,2,0,30,1,0
25212,-133.333333333333,4,2,0,60,0,0
43212,-100,4,2,0,70,0,0
43612,-80,4,2,0,80,0,0
44012,-100,4,2,0,70,0,0
44412,-133.333333333333,4,2,0,60,0,0
51112,-100,4,2,0,60,0,0
52412,-133.333333333333,4,2,0,60,0,0
52712,-100,4,2,0,60,0,0
54012,-133.333333333333,4,2,0,60,0,0
54312,-100,4,2,0,60,0,0
57212,-133.333333333333,4,2,0,60,0,0
57512,-100,4,2,0,60,0,0
58812,-133.333333333333,4,2,0,60,0,0
59112,-100,4,2,0,60,0,0
60412,-133.333333333333,4,2,0,60,0,0
60712,-100,4,2,0,60,0,0
63662,-133.333333333333,4,2,0,60,0,0
65612,-100,4,2,0,70,0,0
66012,-80,4,2,0,80,0,0
66412,-100,4,2,0,70,0,0
66812,-133.333333333333,4,2,0,60,0,0
78412,-100,4,2,0,70,0,0
78812,-80,4,2,0,80,0,0
79212,-100,4,2,0,70,0,0
79612,-133.333333333333,4,2,0,60,0,0
90412,-33.3333333333333,4,2,0,60,0,0
93612,-50,4,2,0,60,0,0
98812,-28.5714285714286,4,2,0,60,0,0
99412,-28.5714285714286,4,2,0,60,0,0
99612,-33.3333333333333,4,2,0,60,0,0
100212,-66.6666666666667,4,2,0,60,0,0
100612,-100,4,2,0,60,0,0
102012,-200,4,2,0,60,0,0
105212,-200,4,2,0,30,0,0
108412,-200,4,2,0,60,0,0
113812,-133.333333333333,4,2,0,60,0,0
120012,-100,4,2,0,70,0,0
120412,-80,4,2,0,80,0,0
120812,-100,4,2,0,70,0,0
121212,-133.333333333333,4,2,0,60,0,0
126812,-133.333333333333,4,2,0,40,0,0
127612,-133.333333333333,4,2,0,60,0,0
153212,-100,4,2,0,60,0,0
166012,-80,4,2,0,60,0,1
166712,-66.6666666666667,4,2,0,60,0,1
166912,-57.1428571428571,4,2,0,60,0,1
167612,-66.6666666666667,4,2,0,60,0,1
168012,-80,4,2,0,60,0,1
168212,-66.6666666666667,4,2,0,60,0,1
168812,-100,4,2,0,60,0,1
169912,-80,4,2,0,60,0,1
171312,-100,4,2,0,60,0,1
172412,-80,4,2,0,60,0,1
172712,-100,4,2,0,60,0,1
173012,-80,4,2,0,60,0,1
174012,-133.333333333333,4,2,0,60,0,1
174312,-80,4,2,0,60,0,1
178012,-80,4,2,0,40,0,1
178212,-66.6666666666667,4,2,0,50,0,1
178412,-57.1428571428571,4,2,0,60,0,1
179512,-66.6666666666667,4,2,0,60,0,1
180512,-100,4,2,0,60,0,1
181112,-66.6666666666667,4,2,0,60,0,1
182012,-133.333333333333,4,2,0,45,0,1
182312,-66.6666666666667,4,2,0,60,0,1
182612,-133.333333333333,4,2,0,45,0,1
182912,-66.6666666666667,4,2,0,60,0,1
183812,-80,4,2,0,60,0,1
184112,-100,4,2,0,60,0,1
185912,-80,4,2,0,60,0,1
186112,-66.6666666666667,4,2,0,60,0,1
186912,-80,4,2,0,60,0,1
188412,-66.6666666666667,4,2,0,60,0,1
189312,-80,4,2,0,60,0,1
189712,-66.6666666666667,4,2,0,60,0,1
190012,-100,4,2,0,60,0,0
190812,-100,4,2,0,40,0,0
191612,-66.6666666666667,4,2,0,60,0,1
217212,-100,4,2,0,60,0,0
230012,-66.6666666666667,4,2,0,60,0,1
237412,-100,4,2,0,60,0,1
242812,-100,4,2,0,60,0,0
245212,-80,4,2,0,60,0,0
245612,-100,4,2,0,60,0,0
250212,-125,4,2,0,60,0,0
250812,-133.333333333333,4,2,0,60,0,0
251212,-111.111111111111,4,2,0,70,0,0
251612,-83.3333333333333,4,2,0,80,0,0
252012,-111.111111111111,4,2,0,70,0,0
255612,-153.846153846154,4,2,0,30,0,0
268612,-153.846153846154,4,2,0,53,0,0
268812,-153.846153846154,4,2,0,46,0,0
269012,-153.846153846154,4,2,0,39,0,0
269212,-153.846153846154,4,2,0,32,0,0
269412,-153.846153846154,4,2,0,25,0,0
269612,-153.846153846154,4,2,0,18,0,0
269812,-153.846153846154,4,2,0,12,0,0
270012,-153.846153846154,4,2,0,5,0,0

[Colours]
Combo1 : 255,255,45
Combo2 : 74,165,255
Combo3 : 0,128,255
Combo4 : 192,192,192
Combo5 : 128,128,128
Combo6 : 255,53,53
Combo7 : 255,124,62
Combo8 : 49,255,49

[HitObjects]
20,120,1052,37,2,0:0:0:0:
14,195,1312,1,2,0:0:0:0:
59,262,1573,5,2,0:0:0:0:
61,252,1644,2,0,P|105:228|152:232,1,87.5
203,292,2430,101,0,0:0:0:0:
176,365,2690,1,0,0:0:0:0:
276,319,2937,1,2,0:0:0:0:
126,305,3151,1,2,0:0:0:0:
243,222,3386,2,0,L|248:237,1,16.6666666666667,2|0,0:0|0:0,0:0:0:0:
263,243,3503,6,0,P|310:255|360:248,1,100
445,384,4290,1,2,0:0:0:0:
420,313,4562,2,0,P|433:265|467:228,1,100
362,172,5108,1,0,0:0:0:0:
471,153,5308,2,0,L|483:150,2,12.5
491,153,5508,101,2,0:0:0:0:
498,158,5558,2,0,P|509:115|503:66,1,87.5,2|0,0:0|0:0,0:0:0:0:
374,16,6508,1,2,0:0:0:0:
454,0,6780,1,0,0:0:0:0:
225,42,7053,1,0,0:0:0:0:
305,58,7318,1,0,0:0:0:0:
156,0,7584,6,0,L|56:11,1,100,2|0,0:0|0:0,0:0:0:0:
3,93,8250,2,0,L|24:89,2,16.6666666666667
31,87,8441,102,0,B|57:132|42:186|34:184|19:235|46:281,1,200,2|0,0:0|0:0,0:0:0:0:
0,3,10299,2,0,P|24:9|48:11,1,50,2|2,0:0|0:0,0:0:0:0:
117,55,10716,2,0,P|162:32|212:27,1,100,2|0,0:0|0:0,0:0:0:0:
374,96,11918,6,0,P|324:92|278:72,1,100,2|0,0:0|0:0,0:0:0:0:
444,7,12737,2,0,P|447:56|464:104,1,100,2|0,0:0|0:0,0:0:0:0:
364,0,13357,1,2,0:0:0:0:
415,164,13720,1,0,0:0:0:0:
512,306,14108,1,2,0:0:0:0:
500,301,14164,102,0,B|485:254|493:205|493:205|475:256|439:291,1,200,2|2,0:0|0:0,0:0:0:0:
310,359,15317,2,0,L|315:365,2,8.33333333333333
322,372,15465,6,0,P|365:370|403:356,1,83.3333333333333,2|0,0:0|0:0,0:0:0:0:
240,317,16254,1,2,0:0:0:0:
144,384,16691,1,2,0:0:0:0:
256,192,16756,12,0,17734,0:0:0:0:
79,334,18574,102,0,L|67:337,2,12.5
56,342,18768,6,0,P|33:297|26:248,1,100,2|0,0:0|0:0,0:0:0:0:
86,141,19609,2,0,P|86:167|82:192,1,50,2|0,0:0|0:0,0:0:0:0:
205,224,20202,2,0,P|179:224|154:228,1,50,2|0,0:0|0:0,0:0:0:0:
167,65,20704,2,0,P|167:91|163:116,1,50,2|0,0:0|0:0,0:0:0:0:
259,166,21056,1,2,0:0:0:0:
337,184,21227,1,0,0:0:0:0:
413,160,21347,1,2,0:0:0:0:
466,101,21518,1,0,0:0:0:0:
481,64,21610,1,0,0:0:0:0:
482,23,21702,1,2,0:0:0:0:
30,23,22674,101,2,0:0:0:0:
31,64,22749,1,0,0:0:0:0:
46,101,22817,1,0,0:0:0:0:
73,130,22879,1,2,0:0:0:0:
256,192,22942,12,0,24317,0:0:0:0:
309,63,24817,6,0,P|342:99|389:114,1,100,0|0,1:0|1:0,0:0:0:0:
500,60,25212,69,4,1:0:0:0:
479,90,25312,1,0,0:0:0:0:
467,125,25412,1,2,0:0:0:0:
465,163,25512,2,0,P|474:218|466:273,1,112.500004291535,2|0,0:0|0:0,0:0:0:0:
407,331,26012,1,0,0:0:0:0:
321,356,26212,1,0,0:0:0:0:
227,330,26412,1,2,0:0:0:0:
159,260,26612,1,2,0:0:0:0:
55,217,26812,21,2,0:0:0:0:
72,250,26912,1,2,0:0:0:0:
80,286,27012,1,2,0:0:0:0:
80,324,27112,2,0,B|79:346|70:368|70:368|36:380|4:380,1,112.500004291535,2|0,0:0|0:0,0:0:0:0:
159,260,27612,1,2,0:0:0:0:
142,227,27712,1,2,0:0:0:0:
134,191,27812,1,2,0:0:0:0:
134,153,27912,1,2,0:0:0:0:
145,117,28012,1,0,0:0:0:0:
55,217,28212,1,0,0:0:0:0:
21,46,28412,101,2,0:0:0:0:
58,46,28512,1,2,0:0:0:0:
95,43,28612,1,2,0:0:0:0:
132,36,28712,2,0,P|188:28|243:33,1,112.500004291535,2|0,0:0|0:0,0:0:0:0:
457,78,29212,2,0,P|422:91|385:90,1,75.0000028610231,0|0,0:0|2:0,0:0:0:0:
374,80,29512,2,0,P|336:78|302:92,1,75.0000028610231,0|0,0:0|2:0,0:0:0:0:
295,106,29812,1,0,0:0:0:0:
239,234,30012,21,2,0:0:0:0:
263,205,30112,1,2,0:0:0:0:
295,186,30212,1,2,0:0:0:0:
332,179,30312,2,0,P|387:186|433:218,1,112.500004291535,2|0,0:0|0:0,0:0:0:0:
425,316,30812,1,2,0:0:0:0:
389,302,30912,1,2,0:0:0:0:
360,278,31012,1,2,0:0:0:0:
342,248,31112,2,0,P|330:194|344:139,1,112.500004291535,2|0,0:0|0:0,0:0:0:0:
498,8,31612,69,2,0:0:0:0:
461,15,31712,1,2,0:0:0:0:
423,18,31812,1,2,0:0:0:0:
386,14,31912,2,0,P|348:8|311:9,1,75.0000028610231,2|0,0:0|0:0,0:0:0:0:
287,19,32212,1,0,0:0:0:0:
342,90,32412,1,0,0:0:0:0:
208,26,32612,2,0,P|175:42|150:70,1,75.0000028610231
98,11,33012,2,0,P|77:42|70:78,1,75.0000028610231,0|2,0:0|0:0,0:0:0:0:
81,103,33312,21,2,0:0:0:0:
87,140,33412,1,2,0:0:0:0:
73,175,33512,2,0,P|55:221|108:339,1,187.500007152558,2|2,0:0|0:0,0:0:0:0:
133,349,34112,1,2,0:0:0:0:
170,350,34212,1,2,0:0:0:0:
206,339,34312,2,0,P|236:319|257:288,1,75.0000028610231,2|0,0:0|0:0,0:0:0:0:
282,279,34612,1,0,0:0:0:0:
442,291,34812,102,0,P|370:310|323:366,1,150.000005722046,2|0,0:0|0:0,0:0:0:0:
498,348,35412,1,0,0:0:0:0:
473,219,35612,2,0,P|448:191|430:158,1,75.0000028610231
449,140,35912,2,0,P|473:112|491:79,1,75.0000028610231
509,59,36212,1,0,0:0:0:0:
282,4,36412,22,0,B|348:37|422:37|422:37|394:69|355:80,1,225.000008583069,2|0,0:0|0:0,0:0:0:0:
325,236,37212,5,0,1:0:0:0:
337,201,37312,1,2,0:3:0:0:
311,176,37412,1,2,0:3:0:0:
304,141,37512,1,2,0:3:0:0:
268,138,37612,1,0,1:0:0:0:
244,110,37712,1,2,0:3:0:0:
210,120,37812,1,2,0:3:0:0:
176,108,37912,1,2,0:3:0:0:
101,117,38012,54,0,L|27:128,1,75.0000028610231,0|2,1:0|0:0,0:0:0:0:
138,46,38412,2,0,L|213:35,1,75.0000028610231,0|2,1:0|0:0,0:0:0:0:
380,76,38812,5,0,1:0:0:0:
290,55,39012,1,2,0:0:0:0:
443,9,39212,1,0,1:0:0:0:
407,165,39412,1,2,0:0:0:0:
470,97,39612,5,0,1:0:0:0:
490,128,39712,1,0,0:0:0:0:
497,164,39812,1,2,0:0:0:0:
490,201,39912,2,0,P|478:236|473:274,1,75.0000028610231
493,306,40212,2,0,L|496:343,1,37.5000014305115,2|0,0:0|0:0,0:0:0:0:
400,378,40412,5,0,1:0:0:0:
379,346,40512,1,0,0:0:0:0:
372,310,40612,1,2,0:0:0:0:
379,273,40712,1,0,0:0:0:0:
397,240,40812,2,0,L|402:202,1,37.5000014305115,0|0,1:0|0:0,0:0:0:0:
346,103,41012,2,0,L|352:141,1,37.5000014305115,2|0,0:0|0:0,0:0:0:0:
298,200,41212,70,0,L|291:274,1,75.0000028610231,0|2,1:0|0:0,0:0:0:0:
207,364,41612,2,0,L|213:289,1,75.0000028610231,0|2,1:0|0:0,0:0:0:0:
65,207,42012,5,0,1:0:0:0:
141,254,42212,1,2,0:0:0:0:
139,248,42312,1,0,0:0:0:0:
137,242,42412,1,0,1:0:0:0:
129,384,42612,1,2,0:0:0:0:
43,301,42812,6,0,P|44:338|52:374,1,75.0000028610231,0|0,0:0|0:0,1:0:0:0:
141,254,43212,2,0,P|143:204|137:154,1,100,0|0,0:0|0:0,1:0:0:0:
8,103,43612,6,0,P|5:191|9:239,1,125,0|0,0:0|0:0,1:0:0:0:
171,84,44012,2,0,P|147:39|118:0,1,100,0|0,0:0|0:0,1:0:0:0:
242,117,44412,70,0,P|280:120|317:117,1,75.0000028610231,0|2,1:0|0:0,0:0:0:0:
375,57,44812,1,0,1:0:0:0:
450,94,45012,1,2,0:0:0:0:
338,263,45212,5,0,1:0:0:0:
437,177,45412,2,0,P|435:214|440:251,1,75.0000028610231,2|0,0:0|0:0,0:0:0:0:
328,189,45812,2,0,P|336:225|337:262,1,75.0000028610231,2|0,0:0|0:0,0:0:0:0:
269,309,46212,5,2,0:0:0:0:
488,319,46412,2,0,P|418:345|343:345,1,150.000005722046,0|0,1:0|1:0,0:0:0:0:
192,274,47012,6,0,P|154:271|118:285,1,75.0000028610231,2|0,0:0|0:0,0:0:0:0:
98,303,47312,2,0,P|60:301|26:287,1,75.0000028610231,2|0,0:0|0:0,0:0:0:0:
2,303,47612,70,0,P|11:228|5:135,1,150.000005722046,0|0,1:0|1:0,0:0:0:0:
71,1,48212,1,2,0:0:0:0:
16,66,48412,2,0,P|47:83|86:84,1,75.0000028610231,0|2,1:0|0:0,0:0:0:0:
110,96,48712,2,0,P|143:78|180:77,1,75.0000028610231,2|0,0:0|0:0,0:0:0:0:
200,60,49012,1,2,0:0:0:0:
268,353,49212,6,0,B|259:295|221:257|209:260|171:222|165:158,1,225.000008583069,0|0,1:0|0:0,0:0:0:0:
285,31,50012,38,0,L|282:49,3,18.7500007152558,2|0|0|0,0:0|0:0|0:0|0:0,0:0:0:0:
340,53,50212,2,0,L|333:70,3,18.7500007152558,2|0|0|0,0:0|0:0|0:0|0:0,0:0:0:0:
398,44,50412,2,0,L|395:62,3,18.7500007152558,2|0|0|0,0:0|0:0|0:0|0:0,0:0:0:0:
453,65,50612,2,0,L|455:84,3,18.7500007152558,2|0|0|0,0:0|0:0|0:0|0:0,0:0:0:0:
480,109,50812,85,0,1:0:0:0:
491,153,50912,2,2,L|489:115,1,37.5000014305115
408,151,51112,1,2,0:0:0:0:
414,200,51212,1,0,1:0:0:0:
435,245,51312,1,2,0:0:0:0:
467,283,51412,1,2,0:0:0:0:
492,327,51512,1,2,0:0:0:0:
502,375,51612,5,0,1:0:0:0:
436,374,51712,1,2,0:0:0:0:
369,372,51812,1,2,0:0:0:0:
303,371,51912,2,0,L|203:368,1,100,0|2,1:0|0:0,0:0:0:0:
137,366,52212,2,0,L|87:364,1,50,0|2,1:0|0:0,0:0:0:0:
33,317,52412,101,0,1:0:0:0:
22,361,52512,2,2,L|24:323,1,37.5000014305115
4,239,52712,1,2,0:0:0:0:
49,217,52812,1,0,1:0:0:0:
98,212,52912,1,2,0:0:0:0:
148,217,53012,1,2,0:0:0:0:
198,216,53112,1,2,0:0:0:0:
229,130,53212,5,0,1:0:0:0:
244,198,53312,1,2,0:0:0:0:
313,204,53412,1,2,0:0:0:0:
339,139,53512,2,0,P|378:109|425:93,1,100,0|2,1:0|0:0,0:0:0:0:
475,3,53812,2,0,L|481:52,1,50,0|2,1:0|0:0,0:0:0:0:
467,185,54012,101,0,1:0:0:0:
478,141,54112,2,2,L|476:179,1,37.5000014305115
440,331,54312,1,2,0:0:0:0:
396,307,54412,1,0,1:0:0:0:
346,306,54512,1,2,0:0:0:0:
298,319,54612,1,2,0:0:0:0:
249,322,54712,1,2,0:0:0:0:
203,304,54812,5,0,1:0:0:0:
164,251,54912,1,2,0:0:0:0:
152,185,55012,1,2,0:0:0:0:
122,127,55112,2,0,P|92:88|47:66,1,100,0|2,1:0|0:0,0:0:0:0:
18,175,55412,2,0,L|12:125,1,50,0|2,1:0|0:0,0:0:0:0:
96,9,55612,5,0,1:0:0:0:
104,12,55712,1,0,0:0:0:0:
186,92,55812,2,0,L|235:89,1,50,2|0,0:0|0:0,0:0:0:0:
312,1,56012,2,0,L|289:45,1,50,0|0,1:0|0:0,0:0:0:0:
327,155,56212,2,0,L|299:113,1,50,2|0,0:0|0:0,0:0:0:0:
475,5,56412,5,0,1:0:0:0:
472,13,56512,1,0,0:0:0:0:
392,95,56612,2,0,L|394:144,1,50,2|0,0:0|0:0,0:0:0:0:
329,236,56812,2,0,L|370:208,1,50,0|0,1:0|0:0,0:0:0:0:
483,221,57013,2,0,L|438:198,1,50,2|0,0:0|0:0,0:0:0:0:
512,334,57212,69,0,1:0:0:0:
501,290,57312,2,2,L|503:328,1,37.5000014305115
374,304,57512,1,2,0:0:0:0:
324,308,57612,1,0,1:0:0:0:
274,301,57712,1,2,0:0:0:0:
226,287,57812,1,2,0:0:0:0:
177,278,57912,1,2,0:0:0:0:
128,281,58012,5,0,1:0:0:0:
65,312,58112,1,2,0:0:0:0:
25,369,58212,1,2,0:0:0:0:
31,299,58312,2,0,P|29:250|16:202,1,100,0|2,1:0|0:0,0:0:0:0:
89,196,58612,2,0,L|94:146,1,50,0|2,1:0|0:0,0:0:0:0:
26,61,58812,101,0,1:0:0:0:
37,105,58912,2,2,L|35:67,1,37.5000014305115
172,14,59112,1,2,0:0:0:0:
201,54,59212,1,0,1:0:0:0:
218,101,59312,1,2,0:0:0:0:
226,150,59412,1,2,0:0:0:0:
241,198,59512,1,2,0:0:0:0:
338,218,59612,5,0,1:0:0:0:
271,237,59712,1,2,0:0:0:0:
268,306,59812,1,2,0:0:0:0:
332,328,59912,2,0,P|363:290|400:256,1,100,0|2,1:0|0:0,0:0:0:0:
453,345,60212,2,0,L|457:295,1,50,0|2,1:0|0:0,0:0:0:0:
474,183,60412,101,0,1:0:0:0:
463,227,60512,2,2,L|464:189,1,37.5000014305115
478,36,60712,1,2,0:0:0:0:
431,23,60812,1,0,1:0:0:0:
381,28,60912,1,2,0:0:0:0:
333,43,61012,1,2,0:0:0:0:
284,47,61112,1,2,0:0:0:0:
237,31,61212,5,0,1:0:0:0:
240,98,61312,1,2,0:0:0:0:
244,164,61412,1,2,0:0:0:0:
247,231,61512,2,0,L|251:331,1,100,0|2,1:0|0:0,0:0:0:0:
320,369,61812,2,0,L|317:319,1,50,0|2,1:0|0:0,0:0:0:0:
309,194,62012,5,0,1:0:0:0:
317,198,62112,1,0,0:0:0:0:
385,238,62212,2,0,L|383:188,1,50,2|0,0:0|0:0,0:0:0:0:
396,73,62412,2,0,L|397:122,1,50,0|0,1:0|0:0,0:0:0:0:
456,304,62612,2,0,L|454:254,1,50,2|0,0:0|0:0,0:0:0:0:
203,190,62812,5,0,1:0:0:0:
195,186,62912,1,0,0:0:0:0:
127,146,63012,2,0,L|128:195,1,50,2|0,0:0|0:0,0:0:0:0:
116,311,63212,2,0,L|114:261,1,50,0|0,1:0|0:0,0:0:0:0:
56,80,63412,2,0,L|57:129,1,50,2|0,0:0|0:0,0:0:0:0:
124,315,63612,37,0,1:0:0:0:
155,325,63712,1,2,0:0:0:0:
188,328,63812,1,2,0:0:0:0:
221,323,63912,1,2,0:0:0:0:
238,250,64012,5,4,0:0:0:0:
262,246,64112,1,2,0:0:0:0:
287,247,64212,1,2,0:0:0:0:
311,253,64312,1,2,0:0:0:0:
329,326,64412,102,0,L|331:346,4,18.7500007152558,2|2|2|2|2,3:0|3:0|3:0|3:0|3:0,0:0:0:0:
338,348,64712,1,2,0:0:0:0:
425,245,64812,5,0,1:0:0:0:
423,323,64912,1,0,1:0:0:0:
433,249,65012,1,0,1:0:0:0:
431,327,65112,1,0,1:0:0:0:
503,275,65212,6,0,L|507:200,1,75.0000028610231,0|0,0:0|0:0,1:0:0:0:
425,245,65612,2,0,L|380:155,1,100,0|0,0:0|0:0,1:0:0:0:
342,258,66012,6,0,L|237:189,1,125,4|0,0:3|0:0,1:0:0:0:
276,310,66412,2,0,L|176:304,1,100,0|0,0:0|0:0,1:0:0:0:
62,354,66812,102,0,L|56:316,1,37.5000014305115,0|0,1:0|0:0,0:0:0:0:
37,199,67012,1,2,0:0:0:0:
70,358,67212,1,0,1:0:0:0:
193,252,67412,1,2,0:0:0:0:
29,195,67612,6,0,L|98:166,1,75.0000028610231,2|0,0:3|0:0,0:0:0:0:
207,53,68012,2,0,L|209:71,4,18.7500007152558,2|2|2|2|2,3:0|3:0|3:0|3:0|3:0,0:0:0:0:
368,17,68412,101,0,1:0:0:0:
323,50,68512,1,0,1:0:0:0:
296,99,68612,1,0,1:0:0:0:
294,154,68712,1,0,1:0:0:0:
316,206,68812,6,2,L|325:222,3,18.7500007152558
281,251,69012,2,2,L|296:260,3,18.7500007152558
272,307,69212,69,0,1:0:0:0:
305,343,69312,1,2,0:0:0:0:
352,360,69412,1,2,0:0:0:0:
401,355,69512,1,2,0:0:0:0:
448,372,69612,5,0,1:0:0:0:
418,331,69712,1,2,0:0:0:0:
410,282,69812,1,2,0:0:0:0:
425,235,69912,1,2,0:0:0:0:
473,177,70012,101,0,1:0:0:0:
453,146,70112,1,2,0:0:0:0:
443,110,70212,1,2,0:0:0:0:
443,73,70312,1,2,0:0:0:0:
477,2,70412,5,0,1:0:0:0:
449,5,70512,1,2,0:0:0:0:
421,7,70612,1,2,0:0:0:0:
392,7,70712,1,2,0:0:0:0:
342,62,70812,102,0,L|339:88,4,18.7500007152558,2|2|2|2|2,3:0|3:0|3:0|3:0|3:0,0:0:0:0:
331,84,71112,1,2,0:0:0:0:
202,11,71212,5,0,1:0:0:0:
276,23,71312,1,0,1:0:0:0:
194,15,71412,1,0,1:0:0:0:
268,27,71512,1,0,1:0:0:0:
123,42,71612,5,0,1:0:0:0:
107,50,71712,1,2,0:0:0:0:
91,60,71812,1,2,0:0:0:0:
77,73,71912,1,2,0:0:0:0:
64,86,72012,2,2,L|52:102,3,18.7500007152558
54,140,72212,2,2,L|51:159,3,18.7500007152558
72,192,72412,5,0,1:0:0:0:
78,228,72512,1,2,0:0:0:0:
73,266,72612,1,2,0:0:0:0:
59,300,72712,1,2,0:0:0:0:
36,330,72812,1,0,1:0:0:0:
174,365,73012,1,2,0:0:0:0:
210,227,73212,102,0,L|219:190,1,37.5000014305115,0|0,1:0|0:0,0:0:0:0:
253,53,73412,1,2,0:0:0:0:
383,178,73612,1,0,1:0:0:0:
245,49,73812,1,2,0:0:0:0:
71,99,74012,6,0,L|143:117,1,75.0000028610231,2|0,1:3|0:0,0:0:0:0:
391,182,74412,2,0,L|409:186,4,18.7500007152558,2|2|2|2|2,3:0|3:0|3:0|3:0|3:0,0:0:0:0:
151,121,74812,5,0,1:0:0:0:
159,125,74912,1,0,1:0:0:0:
253,172,75012,5,0,1:0:0:0:
245,176,75112,1,0,1:0:0:0:
149,228,75212,101,0,1:0:0:0:
157,224,75312,1,0,1:0:0:0:
253,180,75412,5,0,1:0:0:0:
261,176,75512,1,0,1:0:0:0:
358,91,75612,37,0,1:0:0:0:
365,128,75712,1,2,0:0:0:0:
443,169,75812,5,0,1:0:0:0:
436,202,75912,1,2,0:0:0:0:
336,200,76012,101,0,1:0:0:0:
343,237,76112,1,2,0:0:0:0:
421,278,76212,5,0,1:0:0:0:
414,311,76312,1,2,0:0:0:0:
356,365,76412,101,0,1:0:0:0:
319,372,76512,1,2,0:0:0:0:
282,370,76612,1,2,0:0:0:0:
246,358,76712,1,2,0:0:0:0:
233,285,76812,5,0,1:0:0:0:
204,282,76912,1,2,0:0:0:0:
176,284,77012,1,2,0:0:0:0:
149,290,77112,1,2,0:0:0:0:
120,359,77212,102,0,L|116:377,4,18.7500007152558,2|2|2|2|2,3:0|3:0|3:0|3:0|3:0,0:0:0:0:
108,381,77512,1,2,0:0:0:0:
20,276,77612,5,0,1:0:0:0:
31,350,77712,1,0,1:0:0:0:
28,280,77812,1,0,1:0:0:0:
39,354,77912,1,0,1:0:0:0:
86,234,78012,6,0,L|75:159,1,75.0000028610231,0|0,0:0|0:0,1:0:0:0:
138,6,78412,2,0,L|122:109,1,100,0|0,0:0|0:0,1:0:0:0:
196,279,78812,6,0,L|177:155,1,125,4|0,0:3|0:0,1:0:0:0:
244,1,79212,2,0,L|228:104,1,100,0|0,0:0|0:0,1:0:0:0:
274,333,79612,102,0,L|268:295,1,37.5000014305115,0|0,1:0|0:0,0:0:0:0:
250,171,79812,1,2,0:0:0:0:
403,232,80012,1,0,1:0:0:0:
242,167,80212,1,2,0:0:0:0:
266,337,80412,6,0,L|324:290,1,75.0000028610231,4|0,0:3|0:0,0:0:0:0:
482,174,80812,2,0,L|500:159,4,18.7500007152558,2|2|2|2|2,3:0|3:0|3:0|3:0|3:0,0:0:0:0:
463,326,81212,101,0,1:0:0:0:
427,282,81312,1,0,1:0:0:0:
403,232,81412,1,0,1:0:0:0:
392,177,81512,1,0,1:0:0:0:
395,121,81612,6,0,L|396:102,3,18.7500007152558
454,103,81812,2,2,L|446:85,3,18.7500007152558
468,41,82012,69,0,1:0:0:0:
427,13,82112,1,2,0:0:0:0:
378,9,82212,1,2,0:0:0:0:
334,31,82312,1,2,0:0:0:0:
296,0,82412,5,0,1:0:0:0:
311,47,82512,1,2,0:0:0:0:
307,96,82612,1,2,0:0:0:0:
283,140,82712,1,2,0:0:0:0:
202,180,82812,101,0,1:0:0:0:
190,143,82912,1,2,0:0:0:0:
196,107,83012,1,2,0:0:0:0:
218,76,83112,1,2,0:0:0:0:
180,11,83212,5,0,1:0:0:0:
151,9,83312,1,2,0:0:0:0:
123,11,83412,1,2,0:0:0:0:
96,18,83512,1,2,0:0:0:0:
26,61,83612,102,0,L|12:78,4,18.7500007152558,2|2|2|2|2,3:0|3:0|3:0|3:0|3:0,0:0:0:0:
10,83,83912,1,2,0:0:0:0:
75,167,84012,5,0,1:0:0:0:
99,96,84112,1,0,1:0:0:0:
83,171,84212,1,0,1:0:0:0:
107,100,84312,1,0,1:0:0:0:
19,217,84412,5,0,1:0:0:0:
12,239,84512,1,2,0:0:0:0:
8,262,84612,1,2,0:0:0:0:
7,285,84712,1,2,0:0:0:0:
8,309,84812,2,2,L|11:342,2,18.7500007152558
83,354,85012,2,2,L|81:335,2,18.7500007152558
147,299,85212,6,0,L|184:294,1,37.5000014305115,2|0,1:3|0:0,0:0:0:0:
272,203,85412,1,2,0:0:0:0:
259,242,85512,1,2,0:0:0:0:
260,283,85612,1,2,0:0:0:0:
276,322,85712,2,2,P|288:335|303:347,2,37.5000014305115
382,362,86012,102,0,L|378:324,1,37.5000014305115,0|0,1:0|0:0,0:0:0:0:
365,198,86212,1,2,0:0:0:0:
498,101,86412,1,0,1:0:0:0:
357,202,86612,1,2,0:0:0:0:
507,268,86812,6,0,L|502:193,1,75.0000028610231,2|0,3:0|0:0,0:0:0:0:
494,27,87212,2,0,L|494:9,4,18.7500007152558,2|2|2|2|2,3:0|3:0|3:0|3:0|3:0,0:0:0:0:
304,76,87612,5,0,1:0:0:0:
308,84,87712,1,0,1:0:0:0:
226,30,87812,5,0,1:0:0:0:
234,26,87912,1,0,1:0:0:0:
180,108,88012,101,0,1:0:0:0:
176,100,88112,1,0,1:0:0:0:
258,154,88212,5,0,1:0:0:0:
250,158,88312,1,0,1:0:0:0:
382,122,88412,70,2,L|378:140,2,18.7500007152558
130,262,88612,2,2,L|133:243,2,18.7500007152558
321,155,88812,6,2,L|317:173,2,18.7500007152558
191,229,89012,2,2,L|194:210,2,18.7500007152558
256,192,89212,5,0,1:0:0:0:
256,192,89612,1,0,1:0:0:0:
156,192,90212,1,0,1:0:0:0:
356,192,90412,2,2,B|232:208|232:208|276:176|276:176|156:192,1,300.000011444092,0|0,0:0|0:0,1:0:0:0:
256,192,90812,1,0,1:0:0:0:
256,192,91612,1,0,1:0:0:0:
176,192,92412,5,0,1:0:0:0:
256,192,92612,1,0,1:0:0:0:
336,192,92812,1,0,1:0:0:0:
256,280,93412,1,0,1:0:0:0:
256,280,93612,1,0,1:0:0:0:
144,348,93812,2,2,B|112:284|104:224|104:224|128:248|157:245|157:245|157:167|168:96|168:96|208:148|209:189|209:189|232:84|272:16|272:16|276:68|296:124|296:124|336:68|336:68|320:136|320:212|320:212|340:208|356:196|356:196|360:248|352:284|352:284|375:283|396:276|396:276|400:313|393:350,1,1200,0|0,0:0|0:0,1:0:0:0:
256,280,95212,1,0,1:0:0:0:
256,368,95412,1,0,1:0:0:0:
256,192,95612,5,0,1:0:0:0:
256,192,96012,1,0,1:0:0:0:
180,192,96612,1,0,1:0:0:0:
332,193,96812,1,0,1:0:0:0:
256,116,97012,1,0,1:0:0:0:
256,268,97212,2,2,B|144:268|144:268|116:240|116:240|116:144|116:144|144:116|144:116|256:116,1,400,0|0,1:0|0:0,1:0:0:0:
256,268,98012,2,2,B|368:268|368:268|396:240|396:240|396:144|396:144|368:116|368:116|256:116,1,400,0|0,1:0|0:0,1:0:0:0:
240,32,98812,6,2,B|193:38|150:57|123:110|121:188|144:242|172:273|201:288|256:303|305:294|340:272|362:241|384:185|384:103|349:51|308:33|259:30,1,700,2|0,1:0|0:0,1:0:0:0:
146,150,99412,2,2,B|109:179|63:172|38:158|38:158|53:136|53:136|34:136|19:131,1,175.00000166893,2|0,1:0|0:0,1:0:0:0:
193,193,99612,2,2,B|256:194|319:195|319:195|316:233|288:257|255:258|255:258|226:257|208:248|188:229,1,300.000011444092,0|0,1:0|0:0,1:0:0:0:
363,181,100012,2,2,B|430:186|428:269|345:265,1,150.000005722046,0|0,1:0|0:0,1:0:0:0:
176,291,100212,2,2,B|179:351|131:370|131:370|189:373,1,150.000005722046,0|0,1:0|0:0,1:0:0:0:
314,292,100612,2,2,B|323:334|312:376|312:376|348:374,1,100,0|0,1:0|0:0,1:0:0:0:
206,104,101012,2,0,L|206:129,1,25,2|0,1:0|0:0,0:0:0:0:
306,104,101412,2,0,L|306:129,1,25,2|0,1:0|0:0,0:0:0:0:
117,265,102012,5,0,1:0:0:0:
162,199,102212,1,2,0:0:0:0:
240,185,102412,1,2,0:0:0:0:
305,229,102612,1,2,0:0:0:0:
182,309,102812,2,0,L|282:320,1,100,0|0,1:0|0:0,0:0:0:0:
446,58,103612,5,0,1:0:0:0:
380,103,103812,1,2,0:0:0:0:
366,181,104012,1,2,0:0:0:0:
410,246,104212,1,2,0:0:0:0:
494,161,104412,2,0,L|444:155,1,50,0|0,1:0|0:0,0:0:0:0:
304,80,104812,2,0,L|254:86,1,50,0|0,1:0|0:0,0:0:0:0:
72,124,105212,6,2,L|91:323,1,200,2|0,0:0|0:0,1:0:0:0:
264,293,106412,1,0,1:0:0:0:
342,308,106612,1,0,1:0:0:0:
420,323,106812,6,2,L|430:223,1,100,2|0,0:0|0:0,1:0:0:0:
407,79,107412,2,0,L|405:91,1,12.5,4|0,0:0|0:0,0:0:0:0:
456,148,107612,1,2,0:0:0:0:
215,130,107812,2,0,L|227:131,1,12.5,4|0,0:0|0:0,0:0:0:0:
329,85,108012,2,0,L|321:95,1,12.5,4|0,0:0|0:0,0:0:0:0:
310,206,108212,2,0,L|304:194,1,12.5,4|0,0:0|0:0,0:0:0:0:
234,9,108412,69,0,1:0:0:0:
95,59,108612,1,2,0:0:0:0:
175,63,108812,1,2,0:0:0:0:
36,113,109012,2,0,L|29:214,1,100,2|0,0:0|0:0,0:0:0:0:
82,273,109612,2,0,L|78:322,1,50,2|0,0:0|0:0,0:0:0:0:
193,375,110012,5,0,1:0:0:0:
332,325,110212,1,2,0:0:0:0:
252,321,110412,1,2,0:0:0:0:
391,271,110612,1,2,0:0:0:0:
436,157,110812,2,0,L|439:207,1,50,0|0,1:0|0:0,0:0:0:0:
487,323,111212,37,0,1:0:0:0:
244,317,111412,1,0,1:0:0:0:
496,99,111612,1,0,1:0:0:0:
256,192,111662,12,0,113612,0:0:0:0:
105,65,113812,5,0,1:0:0:0:
277,117,114012,1,0,1:0:0:0:
122,191,114212,1,0,1:0:0:0:
260,243,114412,2,0,L|249:317,1,75.0000028610231,2|0,0:0|0:0,0:0:0:0:
67,364,114812,37,0,1:0:0:0:
81,329,114912,1,2,0:0:0:0:
82,292,115012,1,2,0:0:0:0:
70,257,115112,1,2,0:0:0:0:
46,228,115212,1,0,1:0:0:0:
153,123,115412,1,2,0:0:0:0:
1,59,115612,1,0,1:0:0:0:
9,63,115812,2,0,P|63:74|114:52,1,112.500004291535,2|0,0:0|0:0,0:0:0:0:
121,27,116212,1,2,0:0:0:0:
240,10,116412,6,0,B|214:61|232:126|241:123|256:173|246:230,1,225.000008583069,0|2,1:0|0:0,0:0:0:0:
221,301,117212,1,0,1:0:0:0:
225,309,117412,2,0,B|212:344|178:363|178:363|213:355|239:373|241:366|265:382|290:378,1,187.500007152558,2|0,0:0|0:0,0:0:0:0:
392,327,118012,5,0,1:0:0:0:
366,299,118112,1,2,0:0:0:0:
351,265,118212,1,2,0:0:0:0:
347,228,118312,1,2,0:0:0:0:
354,190,118412,2,0,P|371:157|399:132,1,75.0000028610231,0|2,1:0|0:0,0:0:0:0:
512,141,118812,1,0,1:0:0:0:
503,145,119012,2,0,P|461:84|466:10,1,150.000005722046,2|2,0:0|0:0,0:0:0:0:
309,32,119612,6,0,L|382:46,1,75.0000028610231,0|0,1:0|0:0,0:0:0:0:
250,136,120012,2,0,L|348:117,1,100,0|0,1:0|0:0,0:0:0:0:
111,15,120412,2,0,L|233:38,1,125,2|0,1:3|0:0,0:0:0:0:
82,124,120812,2,0,L|180:105,1,100,0|0,1:0|0:0,0:0:0:0:
38,48,121212,69,0,1:0:0:0:
11,73,121312,1,2,0:0:0:0:
0,107,121412,1,2,0:0:0:0:
0,144,121512,1,2,0:0:0:0:
16,177,121612,2,0,P|39:206|46:243,1,75.0000028610231,0|2,1:0|0:0,0:0:0:0:
1,353,122012,1,0,1:0:0:0:
9,357,122212,1,2,0:0:0:0:
70,316,122412,2,0,P|37:332|9:356,1,75.0000028610231,0|2,1:0|0:0,0:0:0:0:
166,355,122812,6,0,P|146:283|159:210,1,150.000005722046,0|0,1:0|1:0,0:0:0:0:
276,149,123412,1,2,0:0:0:0:
137,105,123612,2,0,P|201:142|275:148,1,150.000005722046,0|0,1:0|1:0,0:0:0:0:
373,65,124212,1,2,0:0:0:0:
366,210,124412,5,0,1:0:0:0:
355,174,124512,1,2,0:0:0:0:
353,137,124612,1,2,0:0:0:0:
359,100,124712,1,2,0:0:0:0:
373,65,124812,2,0,P|399:39|434:25,1,75.0000028610231,0|2,1:0|0:0,0:0:0:0:
504,218,125212,1,0,1:0:0:0:
496,214,125412,2,0,P|472:144|497:74,1,150.000005722046,2|0,0:0|0:0,0:0:0:0:
481,327,126012,6,0,L|475:281,2,37.5000014305115,0|2|2,1:0|0:0|0:0,0:0:0:0:
488,331,126312,2,2,P|445:365|390:369,1,112.500004291535,2|0,0:0|0:0,0:0:0:0:
364,244,126812,6,0,L|389:238,2,25.0000009536744,2|2|2,1:3|3:0|3:0,0:0:0:0:
319,309,127012,2,0,L|344:313,2,25.0000009536744,2|2|2,1:3|3:0|3:0,0:0:0:0:
247,342,127212,2,0,L|265:358,2,25.0000009536744,2|2|2,1:3|3:0|3:0,0:0:0:0:
168,334,127412,2,0,L|175:359,2,25.0000009536744,2|2|2,1:3|3:0|3:0,0:0:0:0:
99,305,127612,53,0,1:0:0:0:
0,362,127812,1,2,0:0:0:0:
107,301,128012,2,0,L|118:226,1,75.0000028610231,0|2,1:0|0:0,0:0:0:0:
26,154,128412,2,0,L|28:172,4,18.7500007152558,2|2|2|2|2,3:0|3:0|3:0|3:0|3:0,0:0:0:0:
33,181,128712,1,2,0:0:0:0:
12,50,128812,5,0,1:0:0:0:
79,98,128912,1,0,1:0:0:0:
4,46,129012,1,0,1:0:0:0:
87,102,129112,1,0,1:0:0:0:
94,3,129212,102,0,P|147:39|204:37,1,112.500004291535,0|0,1:0|0:0,0:0:0:0:
232,18,129612,2,2,L|228:54,2,18.7500007152558
286,113,129812,2,2,L|282:77,2,18.7500007152558
351,16,130012,6,0,L|348:67,1,37.5000014305115,0|0,1:0|0:0,0:0:0:0:
343,165,130212,1,2,0:0:0:0:
420,89,130412,2,0,L|421:70,2,18.7500007152558,0|0|0,1:0|0:0|0:0,0:0:0:0:
505,8,130612,1,2,0:0:0:0:
501,16,130712,1,2,0:0:0:0:
496,99,130812,101,0,1:0:0:0:
356,57,131012,1,2,0:0:0:0:
508,177,131212,2,0,P|506:214|493:249,1,75.0000028610231,0|2,1:0|0:0,0:0:0:0:
356,299,131612,6,0,L|430:294,1,75.0000028610231,0|2,1:0|0:0,0:0:0:0:
304,362,132012,2,0,L|285:359,4,18.7500007152558,2|2|2|2|2,1:3|3:0|3:0|3:0|3:0,0:0:0:0:
117,377,132412,1,0,1:0:0:0:
125,381,132512,1,0,1:0:0:0:
201,368,132612,1,0,1:0:0:0:
209,372,132712,1,0,1:0:0:0:
220,293,132812,102,2,L|217:274,2,18.7500007152558,2|2|2,1:2|0:0|0:0,0:0:0:0:
81,290,133012,2,2,L|83:308,2,18.7500007152558
40,384,133212,1,0,1:0:0:0:
21,242,133412,2,0,L|23:223,2,18.7500007152558,2|0|0,0:0|0:0|0:0,0:0:0:0:
55,87,133612,5,0,1:0:0:0:
72,164,133712,1,0,1:0:0:0:
63,83,133812,1,0,1:0:0:0:
237,97,134012,101,0,1:0:0:0:
126,39,134212,1,2,0:0:0:0:
302,39,134412,2,0,L|330:117,1,75.0000028610231,0|2,1:0|0:0,0:0:0:0:
383,236,134812,2,0,L|384:217,4,18.7500007152558,2|2|2|2|2,1:3|3:0|3:0|3:0|3:0,0:0:0:0:
450,41,135212,5,0,1:0:0:0:
454,49,135312,1,0,1:0:0:0:
480,148,135412,1,0,1:0:0:0:
476,156,135512,1,0,1:0:0:0:
444,287,135612,101,0,1:0:0:0:
317,184,135812,1,2,0:0:0:0:
484,356,136012,2,2,L|487:374,2,18.7500007152558,2|2|2,1:2|0:0|0:0,0:0:0:0:
272,268,136212,2,2,L|275:249,2,18.7500007152558
390,345,136412,6,0,L|315:333,1,75.0000028610231,2|2,1:3|0:0,0:0:0:0:
123,301,136812,1,0,1:0:0:0:
259,384,137012,2,0,L|221:378,1,37.5000014305115,2|0,0:0|0:0,0:0:0:0:
58,346,137212,101,0,1:0:0:0:
188,256,137412,1,2,0:0:0:0:
50,350,137612,1,0,1:0:0:0:
38,184,137812,1,2,0:0:0:0:
326,162,138012,6,0,L|251:168,1,75.0000028610231,2|2,1:3|0:0,0:0:0:0:
26,18,138412,2,0,L|27:36,4,18.7500007152558,2|2|2|2|2,1:3|3:0|3:0|3:0|3:0,0:0:0:0:
244,28,138812,101,0,1:0:0:0:
200,15,138912,1,0,1:0:0:0:
136,58,139012,1,0,1:0:0:0:
112,65,139112,2,0,P|78:96|65:162,1,112.500004291535,0|0,1:0|0:0,0:0:0:0:
118,247,139612,6,2,L|121:228,3,18.7500007152558
158,146,139812,2,2,L|154:164,3,18.7500007152558
214,225,140012,2,2,L|217:206,3,18.7500007152558
253,123,140212,2,2,L|250:142,2,18.7500007152558
324,341,140412,5,0,1:0:0:0:
396,362,140612,1,2,0:0:0:0:
450,310,140812,1,2,0:0:0:0:
437,274,140912,1,2,0:0:0:0:
433,237,141012,1,2,0:0:0:0:
438,200,141112,1,2,0:0:0:0:
490,146,141312,1,2,0:0:0:0:
486,71,141512,1,2,0:0:0:0:
448,73,141612,1,2,0:0:0:0:
411,69,141712,1,2,0:0:0:0:
375,57,141812,1,2,0:0:0:0:
344,37,141912,1,2,0:0:0:0:
318,11,142012,5,0,1:0:0:0:
281,17,142112,1,2,0:0:0:0:
221,62,142312,1,2,0:0:0:0:
213,25,142412,1,2,0:0:0:0:
177,29,142512,1,2,0:0:0:0:
139,29,142612,1,2,0:0:0:0:
102,23,142712,2,2,B|84:23|66:15|66:15|65:34|58:51,1,75.0000028610231
33,78,143012,1,2,0:0:0:0:
19,113,143112,1,2,0:0:0:0:
18,151,143212,1,2,0:0:0:0:
30,186,143312,2,2,P|59:210|75:243,1,75.0000028610231
76,282,143612,101,0,1:0:0:0:
40,348,143812,1,2,0:0:0:0:
77,353,143912,1,2,0:0:0:0:
114,358,144012,1,2,0:0:0:0:
145,337,144112,1,2,0:0:0:0:
182,331,144212,1,2,0:0:0:0:
219,326,144312,1,2,0:0:0:0:
293,338,144512,1,2,0:0:0:0:
267,269,144712,1,2,0:0:0:0:
239,244,144812,1,2,0:0:0:0:
228,208,144912,2,2,P|231:171|224:134,1,75.0000028610231
195,111,145212,5,0,1:0:0:0:
161,44,145412,1,2,0:0:0:0:
197,37,145512,1,2,0:0:0:0:
234,31,145612,1,2,0:0:0:0:
266,53,145712,1,2,0:0:0:0:
302,59,145812,1,2,0:0:0:0:
339,65,145912,1,2,0:0:0:0:
403,24,146112,1,2,0:0:0:0:
474,1,146312,1,2,0:0:0:0:
510,6,146412,1,2,0:0:0:0:
497,40,146512,1,2,0:0:0:0:
490,77,146612,1,2,0:0:0:0:
491,115,146712,1,2,0:0:0:0:
512,207,146812,69,0,1:0:0:0:
464,222,146912,1,2,0:0:0:0:
414,226,147012,1,2,0:0:0:0:
365,218,147112,1,2,0:0:0:0:
295,157,147212,5,0,1:0:0:0:
278,190,147312,1,2,0:0:0:0:
274,227,147412,1,2,0:0:0:0:
285,263,147512,1,2,0:0:0:0:
355,291,147712,5,2,0:0:0:0:
430,286,147912,1,2,0:0:0:0:
466,278,148012,1,2,0:0:0:0:
456,312,148112,1,2,0:0:0:0:
436,343,148212,1,2,0:0:0:0:
407,367,148312,1,2,0:0:0:0:
372,381,148412,5,0,1:0:0:0:
351,351,148512,1,2,0:0:0:0:
280,328,148712,1,2,0:0:0:0:
269,363,148812,1,2,0:0:0:0:
233,357,148912,1,2,0:0:0:0:
197,366,149012,1,2,0:0:0:0:
160,363,149112,2,2,P|123:371|86:365,1,75.0000028610231
49,373,149412,1,2,0:0:0:0:
27,342,149512,1,2,0:0:0:0:
18,306,149612,1,2,0:0:0:0:
24,269,149712,2,2,P|32:232|27:195,1,75.0000028610231
8,164,150012,101,0,1:0:0:0:
62,111,150212,1,2,0:0:0:0:
64,75,150312,1,2,0:0:0:0:
47,42,150412,1,2,0:0:0:0:
52,5,150512,1,2,0:0:0:0:
87,16,150612,1,2,0:0:0:0:
123,8,150712,1,2,0:0:0:0:
194,34,150912,1,2,0:0:0:0:
269,40,151112,1,2,0:0:0:0:
304,28,151212,1,2,0:0:0:0:
341,24,151312,2,2,P|379:27|415:38,1,75.0000028610231
437,69,151612,5,0,1:0:0:0:
502,32,151812,1,2,0:0:0:0:
510,68,151912,1,2,0:0:0:0:
502,104,152012,1,2,0:0:0:0:
473,128,152112,1,2,0:0:0:0:
464,164,152212,1,2,0:0:0:0:
472,200,152312,1,2,0:0:0:0:
512,264,152512,1,2,0:0:0:0:
486,334,152712,1,2,0:0:0:0:
505,365,152812,1,2,0:0:0:0:
470,374,152912,1,2,0:0:0:0:
433,370,153012,1,2,0:0:0:0:
396,376,153112,1,2,0:0:0:0:
353,286,153212,69,0,1:0:0:0:
324,326,153312,1,2,0:0:0:0:
283,355,153412,1,2,0:0:0:0:
236,371,153512,1,2,0:0:0:0:
162,282,153612,6,0,P|167:306|170:331,1,50,2|2,1:3|0:0,0:0:0:0:
56,375,153812,1,2,0:0:0:0:
100,353,153912,1,2,0:0:0:0:
92,249,154012,102,0,L|64:245,4,25,2|2|2|2|2,1:3|3:0|3:0|3:0|3:0,0:0:0:0:
55,247,154312,1,2,0:0:0:0:
30,79,154412,5,0,1:0:0:0:
78,136,154512,1,2,0:0:0:0:
134,164,154612,1,2,0:0:0:0:
176,170,154712,1,2,0:0:0:0:
204,169,154812,101,0,1:0:0:0:
231,98,154912,2,0,P|230:148|244:196,1,100,2|2,0:0|0:0,0:0:0:0:
298,242,155212,5,0,1:0:0:0:
315,182,155312,1,2,0:0:0:0:
309,107,155412,1,2,0:0:0:0:
258,30,155512,102,0,P|282:30|307:26,1,50,0|2,1:0|0:0,0:0:0:0:
445,26,155712,1,2,0:0:0:0:
421,92,155812,2,0,P|419:116|423:141,1,50,0|2,1:0|0:0,0:0:0:0:
399,362,156012,5,2,0:0:0:0:
417,305,156112,1,0,1:0:0:0:
411,245,156212,2,0,P|401:222|386:202,1,50,2|2,0:0|0:0,0:0:0:0:
262,184,156412,102,0,L|257:233,1,50,0|2,1:0|0:0,0:0:0:0:
184,350,156612,5,2,0:0:0:0:
169,327,156712,1,2,0:0:0:0:
162,285,156812,1,0,1:0:0:0:
160,232,156912,1,2,0:0:0:0:
138,171,157012,1,2,0:0:0:0:
79,119,157112,2,0,P|56:110|32:106,1,50,0|0,1:0|0:0,0:0:0:0:
203,47,157312,102,0,P|222:31|238:12,1,50,0|0,1:0|0:0,0:0:0:0:
35,181,157512,5,2,0:0:0:0:
15,240,157612,1,2,0:0:0:0:
14,302,157712,2,0,B|15:327|27:351|27:351|51:361|76:354,1,100,0|0,1:0|0:0,0:0:0:0:
199,266,158012,101,0,1:0:0:0:
223,298,158112,1,0,1:0:0:0:
317,283,158212,1,0,1:0:0:0:
341,315,158312,1,0,1:0:0:0:
435,300,158412,6,0,P|443:323|444:348,1,50,0|0,1:0|0:0,0:0:0:0:
466,193,158612,2,0,P|457:169|456:144,1,50,2|0,0:0|0:0,0:0:0:0:
506,26,158812,101,0,1:0:0:0:
476,43,158912,1,2,0:0:0:0:
428,56,159012,1,2,0:0:0:0:
366,52,159112,1,2,0:0:0:0:
303,22,159212,5,0,1:0:0:0:
276,70,159312,1,2,0:0:0:0:
224,113,159412,1,2,0:0:0:0:
153,129,159512,1,2,0:0:0:0:
76,107,159612,101,2,0:0:0:0:
112,51,159712,1,0,1:0:0:0:
170,20,159812,1,0,1:0:0:0:
236,19,159912,1,0,1:0:0:0:
321,128,160012,5,0,1:0:0:0:
315,177,160112,1,2,0:0:0:0:
325,246,160212,1,2,0:0:0:0:
326,325,160312,2,0,P|326:350|321:375,1,50,0|0,1:0|0:0,0:0:0:0:
391,195,160512,102,0,P|412:182|436:174,1,50,0|0,1:0|0:0,0:0:0:0:
204,174,160712,5,2,0:0:0:0:
245,204,160812,2,0,P|234:197|224:189,4,25,2|2|2|2|2,1:3|3:0|3:0|3:0|3:0,0:0:0:0:
196,170,161112,1,2,0:0:0:0:
135,44,161212,101,0,1:0:0:0:
129,120,161312,2,0,P|122:143|109:164,1,50,2|0,0:0|0:0,0:0:0:0:
30,211,161512,5,2,0:0:0:0:
26,264,161612,1,0,1:0:0:0:
82,297,161712,1,2,0:0:0:0:
156,289,161812,1,2,0:0:0:0:
244,308,161912,102,0,P|267:317|286:332,1,50,0|0,1:0|0:0,0:0:0:0:
294,362,162112,1,2,0:0:0:0:
365,268,162212,5,0,1:0:0:0:
368,293,162312,1,2,0:0:0:0:
452,359,162412,101,0,1:0:0:0:
449,334,162512,1,2,0:0:0:0:
485,254,162612,5,0,1:0:0:0:
482,229,162712,1,2,0:0:0:0:
445,58,162812,101,0,1:0:0:0:
477,63,162912,1,2,0:0:0:0:
340,16,163012,5,0,1:0:0:0:
372,11,163112,1,2,0:0:0:0:
246,72,163212,101,0,1:0:0:0:
278,77,163312,1,2,0:0:0:0:
164,5,163412,5,0,1:0:0:0:
196,0,163512,1,2,0:0:0:0:
42,83,163612,101,0,1:0:0:0:
38,128,163712,1,2,0:0:0:0:
176,163,163812,5,0,1:0:0:0:
180,208,163912,1,2,0:0:0:0:
11,224,164012,101,0,1:0:0:0:
7,269,164112,1,2,0:0:0:0:
209,305,164212,5,0,1:0:0:0:
213,350,164312,1,2,0:0:0:0:
309,238,164412,5,0,1:0:0:0:
299,320,164512,1,2,0:0:0:0:
313,230,164612,5,0,1:0:0:0:
475,151,164812,101,0,1:0:0:0:
373,127,164912,1,2,0:0:0:0:
483,155,165012,5,0,1:0:0:0:
365,123,165112,1,2,0:0:0:0:
491,159,165212,101,0,1:0:0:0:
357,119,165312,1,2,0:0:0:0:
499,163,165412,6,0,L|505:187,2,25,0|2|2,1:0|0:0|0:0,0:0:0:0:
174,62,165612,101,0,1:0:0:0:
188,186,165712,1,2,0:0:0:0:
170,54,165812,5,0,1:0:0:0:
192,194,165912,1,2,0:0:0:0:
166,46,166012,6,0,P|181:80|189:116,1,62.5,4|0,1:0|0:0,0:0:0:0:
150,301,166212,2,0,P|134:266|126:230,1,62.5,0|0,1:0|0:0,0:0:0:0:
370,145,166412,1,0,1:0:0:0:
333,171,166512,1,2,0:0:0:0:
270,194,166612,1,2,0:0:0:0:
192,194,166712,6,0,P|157:183|125:164,1,75.0000028610231,0|0,1:0|0:0,0:0:0:0:
50,22,166912,2,0,P|73:58|87:100,1,87.500000834465,0|0,1:0|0:0,0:0:0:0:
62,228,167112,1,0,1:0:0:0:
32,297,167212,1,0,1:0:0:0:
104,319,167312,1,2,0:0:0:0:
167,307,167412,1,2,0:0:0:0:
216,300,167512,1,2,0:0:0:0:
250,302,167612,5,0,1:0:0:0:
325,360,167712,1,2,0:0:0:0:
317,364,167812,2,0,P|318:326|329:291,1,75.0000028610231,0|0,1:0|0:0,0:0:0:0:
496,204,168012,2,0,P|494:241|483:276,1,62.5,0|0,1:0|0:0,0:0:0:0:
254,206,168212,2,0,P|264:170|285:138,1,75.0000028610231,0|0,1:0|0:0,0:0:0:0:
501,76,168412,5,0,1:0:0:0:
412,89,168512,1,2,0:0:0:0:
334,76,168612,1,0,1:0:0:0:
273,56,168712,1,2,0:0:0:0:
228,56,168812,2,0,P|192:66|160:87,1,50,0|0,1:0|0:0,0:0:0:0:
186,237,169012,2,0,P|221:226|253:205,1,50,0|0,1:0|0:0,0:0:0:0:
45,57,169212,70,0,P|42:94|52:130,1,50,0|0,1:0|0:0,0:0:0:0:
304,164,169412,1,0,1:0:0:0:
300,156,169512,2,0,P|269:134|233:124,1,50,0|0,1:0|0:0,0:0:0:0:
103,300,169712,2,0,P|136:284|163:257,1,50,0|0,1:0|0:0,0:0:0:0:
160,87,169912,6,0,L|154:161,1,62.5,0|0,1:0|0:0,0:0:0:0:
257,321,170112,2,0,L|251:246,1,62.5,0|0,1:0|0:0,0:0:0:0:
249,64,170312,1,0,1:0:0:0:
246,101,170412,1,2,0:0:0:0:
326,189,170512,2,0,L|331:114,2,62.5,2|0|0,1:2|0:0|0:0,0:0:0:0:
357,374,170812,5,0,1:0:0:0:
355,355,170912,1,2,0:0:0:0:
430,312,171012,1,0,1:0:0:0:
428,293,171112,1,2,0:0:0:0:
503,250,171212,1,0,1:0:0:0:
499,229,171312,2,0,P|485:195|457:170,1,50,0|0,1:0|0:0,0:0:0:0:
307,371,171512,6,0,P|344:375|379:364,1,50,0|0,1:0|0:0,0:0:0:0:
260,145,171712,1,0,1:0:0:0:
240,205,171812,1,0,1:0:0:0:
242,282,171912,1,0,1:0:0:0:
218,362,172012,1,0,1:0:0:0:
157,333,172112,1,2,0:0:0:0:
105,334,172212,1,2,0:0:0:0:
71,331,172312,1,2,0:0:0:0:
50,322,172412,70,0,P|27:294|17:258,1,62.5,0|0,1:0|0:0,0:0:0:0:
169,160,172612,1,2,0:0:0:0:
173,168,172712,2,0,P|160:202|133:229,1,50,0|0,1:0|0:0,0:0:0:0:
0,52,172912,1,2,0:0:0:0:
4,44,173012,2,0,P|40:37|76:47,1,62.5,0|0,1:0|0:0,0:0:0:0:
169,160,173212,5,2,0:0:0:0:
173,168,173312,2,0,P|209:174|245:164,1,62.5,0|0,1:0|0:0,0:0:0:0:
291,62,173512,1,0,1:0:0:0:
389,30,173612,1,0,1:0:0:0:
369,96,173712,1,2,0:0:0:0:
374,149,173812,1,2,0:0:0:0:
386,181,173912,1,2,0:0:0:0:
397,196,174012,5,0,1:0:0:0:
477,167,174112,2,0,P|482:186|482:204,1,37.5000014305115,0|0,1:0|0:0,0:0:0:0:
307,307,174312,1,2,0:0:0:0:
299,303,174412,2,0,P|277:280|261:253,1,62.5,0|0,1:0|0:0,0:0:0:0:
276,36,174612,1,0,1:0:0:0:
310,96,174712,1,2,0:0:0:0:
295,163,174812,5,0,1:0:0:0:
252,182,174912,1,2,0:0:0:0:
199,177,175012,1,0,1:0:0:0:
134,154,175112,1,2,0:0:0:0:
58,175,175212,1,0,1:0:0:0:
18,246,175312,1,2,0:0:0:0:
47,325,175412,1,0,1:0:0:0:
130,353,175512,1,2,0:0:0:0:
138,357,175612,5,0,1:0:0:0:
134,332,175712,1,2,0:0:0:0:
153,279,175812,1,2,0:0:0:0:
220,246,175912,1,2,0:0:0:0:
273,266,176012,1,2,0:0:0:0:
289,285,176112,1,2,0:0:0:0:
293,293,176212,5,0,1:0:0:0:
309,312,176312,1,2,0:0:0:0:
362,332,176412,1,2,0:0:0:0:
429,299,176512,1,2,0:0:0:0:
448,246,176612,1,2,0:0:0:0:
444,221,176712,1,2,0:0:0:0:
440,213,176812,5,0,1:0:0:0:
424,194,176912,1,2,0:0:0:0:
371,174,177012,1,2,0:0:0:0:
296,173,177112,1,2,0:0:0:0:
243,153,177212,1,2,0:0:0:0:
227,134,177312,1,0,0:0:0:0:
223,126,177412,5,0,1:0:0:0:
212,148,177512,1,2,0:0:0:0:
166,181,177612,1,2,0:0:0:0:
94,201,177712,1,2,0:0:0:0:
48,234,177812,1,2,0:0:0:0:
37,257,177912,1,2,0:0:0:0:
41,265,178012,70,0,P|67:280|98:285,1,62.5,2|0,1:0|0:0,0:0:0:0:
223,126,178212,6,0,P|203:158|198:194,1,75.0000028610231,2|0,1:0|0:0,0:0:0:0:
415,327,178412,6,0,P|439:285|446:237,1,87.500000834465,2|0,1:0|0:0,0:0:0:0:
394,109,178612,5,0,1:0:0:0:
395,133,178712,1,2,0:0:0:0:
356,211,178812,5,0,1:0:0:0:
357,235,178912,1,0,0:0:0:0:
284,295,179012,1,2,0:0:0:0:
283,271,179112,1,2,0:0:0:0:
208,214,179212,1,0,1:0:0:0:
209,238,179312,1,2,0:0:0:0:
136,298,179412,1,2,0:0:0:0:
135,274,179512,6,0,P|130:236|115:202,1,75.0000028610231,0|0,1:0|0:0,0:0:0:0:
0,90,179712,2,0,P|34:104|71:109,1,75.0000028610231,0|0,1:0|0:0,0:0:0:0:
186,21,179912,1,0,1:0:0:0:
167,109,180012,1,0,1:0:0:0:
245,95,180112,1,2,0:0:0:0:
310,112,180212,1,2,0:0:0:0:
354,122,180312,1,2,0:0:0:0:
380,126,180412,5,0,1:0:0:0:
463,63,180512,2,0,P|453:85|450:110,1,50,0|0,1:0|0:0,0:0:0:0:
494,245,180712,1,2,0:0:0:0:
481,334,180812,1,2,0:0:0:0:
450,313,180912,1,2,0:0:0:0:
405,313,181012,1,2,0:0:0:0:
334,317,181112,6,0,P|297:313|262:299,1,75.0000028610231,0|0,1:0|0:0,0:0:0:0:
288,40,181312,1,2,0:0:0:0:
358,55,181412,2,0,P|373:88|379:125,1,75.0000028610231,0|0,1:0|0:0,0:0:0:0:
82,182,181612,1,0,1:0:0:0:
86,174,181712,1,2,0:0:0:0:
115,61,181812,1,0,1:0:0:0:
126,124,181912,1,2,0:0:0:0:
155,161,182012,6,2,P|187:180|223:186,1,75.0000028610231,0|0,0:0|0:0,1:0:0:0:
287,60,182312,6,2,P|287:134|321:200,1,150.000005722046,0|0,0:0|0:0,1:0:0:0:
424,119,182612,6,2,P|404:151|398:187,1,75.0000028610231,0|0,0:0|0:0,1:0:0:0:
409,267,182912,6,2,P|371:263|337:278,1,75.0000028610231,0|0,0:0|0:0,1:0:0:0:
277,352,183112,1,2,0:0:0:0:
244,268,183212,69,0,1:0:0:0:
211,300,183312,1,2,0:0:0:0:
150,329,183412,1,2,0:0:0:0:
67,330,183512,6,0,P|32:321|4:296,1,75.0000028610231,0|0,1:0|0:0,0:0:0:0:
64,195,183712,1,2,0:0:0:0:
68,187,183812,2,0,P|74:217|78:248,1,62.5,0|0,1:0|0:0,0:0:0:0:
0,126,184012,5,2,0:0:0:0:
3,118,184112,2,0,P|23:103|46:95,1,50,0|0,1:0|0:0,0:0:0:0:
155,116,184312,1,2,0:0:0:0:
114,39,184412,5,0,1:0:0:0:
151,46,184512,1,2,0:0:0:0:
211,42,184612,1,2,0:0:0:0:
284,24,184712,1,2,0:0:0:0:
343,14,184812,1,0,1:0:0:0:
380,15,184912,1,2,0:0:0:0:
401,22,185012,2,0,P|423:32|443:47,1,50,2|0,0:0|0:0,0:0:0:0:
489,162,185212,5,0,1:0:0:0:
481,201,185312,1,2,0:0:0:0:
502,278,185412,1,2,0:0:0:0:
494,317,185512,1,2,0:0:0:0:
423,354,185612,1,0,1:0:0:0:
389,333,185712,1,2,0:0:0:0:
321,317,185812,1,2,0:0:0:0:
243,331,185912,6,0,P|214:345|184:350,1,62.5,0|0,1:0|0:0,0:0:0:0:
8,287,186112,2,0,P|32:315|64:334,1,75.0000028610231,0|0,1:0|0:0,0:0:0:0:
243,138,186312,1,0,1:0:0:0:
172,77,186412,1,0,1:0:0:0:
152,150,186512,1,2,0:0:0:0:
165,205,186612,1,2,0:0:0:0:
166,243,186712,1,2,0:0:0:0:
161,261,186812,5,0,1:0:0:0:
79,214,186912,2,0,P|53:159|64:98,1,125,0|0,1:0|0:0,0:0:0:0:
0,0,187212,1,0,1:0:0:0:
35,15,187312,1,2,0:0:0:0:
84,27,187412,1,2,0:0:0:0:
159,26,187512,1,2,0:0:0:0:
245,42,187612,5,0,1:0:0:0:
302,68,187712,1,2,0:0:0:0:
324,113,187812,1,2,0:0:0:0:
322,150,187912,1,2,0:0:0:0:
311,173,188012,1,0,1:0:0:0:
316,109,188112,1,2,0:0:0:0:
363,56,188212,1,2,0:0:0:0:
440,43,188312,1,2,0:0:0:0:
512,93,188412,5,0,1:0:0:0:
508,101,188512,1,2,0:0:0:0:
507,176,188612,2,0,L|503:250,1,75.0000028610231,0|0,1:0|0:0,0:0:0:0:
292,347,188812,1,0,1:0:0:0:
359,313,188912,2,0,L|355:238,1,75.0000028610231,0|0,1:0|0:0,0:0:0:0:
185,64,189112,6,0,P|169:99|162:135,1,75.0000028610231,0|0,1:0|0:0,0:0:0:0:
402,103,189312,102,0,P|384:77|362:55,1,62.5,0|0,1:0|0:0,0:0:0:0:
270,33,189512,1,2,0:0:0:0:
266,41,189612,1,0,1:0:0:0:
259,193,189712,6,0,P|258:155|250:119,3,75.0000028610231,0|0|0|0,1:0|1:0|1:0|1:0,0:0:0:0:
242,115,190212,6,0,L|192:122,1,50,2|0,0:0|0:0,0:0:0:0:
36,152,190412,1,2,0:0:0:0:
44,156,190512,2,0,L|93:163,1,50,2|0,0:0|0:0,0:0:0:0:
267,197,190712,1,2,0:0:0:0:
275,201,190812,6,0,L|316:209,2,33.3333333333333,2|2|2,1:3|3:0|3:0,0:0:0:0:
246,271,191012,2,0,L|221:250,2,33.3333333333333,2|2|2,1:3|3:0|3:0,0:0:0:0:
149,265,191212,2,0,L|162:304,2,33.3333333333333,2|2|2,1:3|3:0|3:0,0:0:0:0:
72,273,191412,2,0,L|79:241,2,33.3333333333333,2|2|2,1:3|3:0|3:0,0:0:0:0:
0,311,191612,70,0,P|24:339|58:352,1,75.0000028610231,0|0,1:0|0:0,0:0:0:0:
209,366,191812,2,0,L|134:376,1,75.0000028610231,2|0,0:0|0:0,0:0:0:0:
274,319,192012,1,0,1:0:0:0:
304,347,192112,1,2,0:0:0:0:
360,369,192212,1,2,0:0:0:0:
431,363,192312,1,2,0:0:0:0:
495,311,192412,6,0,L|501:236,1,75.0000028610231,0|0,1:0|0:0,0:0:0:0:
371,170,192612,2,0,L|377:244,1,75.0000028610231,2|0,0:0|0:0,0:0:0:0:
459,72,192812,1,0,1:0:0:0:
393,40,192912,1,2,0:0:0:0:
329,44,193012,1,2,0:0:0:0:
286,67,193112,1,2,0:0:0:0:
261,95,193212,101,0,1:0:0:0:
250,235,193312,2,0,P|250:197|238:162,1,75.0000028610231,0|0,1:0|0:0,0:0:0:0:
44,39,193512,1,2,0:0:0:0:
27,72,193612,1,0,1:0:0:0:
13,127,193712,1,0,0:0:0:0:
14,202,193812,1,0,0:0:0:0:
40,280,193912,1,0,0:0:0:0:
95,350,194012,6,0,P|130:365|167:369,1,75.0000028610231,0|0,1:0|0:0,0:0:0:0:
234,154,194212,2,0,P|196:158|162:174,1,75.0000028610231,2|0,0:0|0:0,0:0:0:0:
437,234,194412,2,0,P|451:199|455:162,1,75.0000028610231,0|0,1:0|0:0,0:0:0:0:
259,33,194612,1,2,0:0:0:0:
263,41,194712,1,2,0:0:0:0:
350,98,194812,102,0,P|357:135|356:172,1,75.0000028610231,0|0,1:0|0:0,0:0:0:0:
72,129,195012,2,0,P|100:104|133:87,1,75.0000028610231,2|0,0:0|0:0,0:0:0:0:
237,355,195212,1,0,1:0:0:0:
170,322,195312,1,2,0:0:0:0:
163,246,195412,6,0,P|168:209|184:175,1,75.0000028610231,2|0,0:0|0:0,0:0:0:0:
297,66,195612,2,0,P|319:95|333:130,1,75.0000028610231,0|0,1:0|0:0,0:0:0:0:
326,298,195812,101,2,0:0:0:0:
333,130,196012,5,0,1:0:0:0:
333,294,196112,2,2,P|342:219|336:144,1,150.000005722046,2|0,0:0|0:0,1:0:0:0:
175,34,196412,101,0,1:0:0:0:
102,23,196512,1,2,0:0:0:0:
37,57,196612,1,0,1:0:0:0:
3,123,196712,1,2,0:0:0:0:
14,196,196812,2,0,P|31:229|60:252,1,75.0000028610231,0|0,1:0|0:0,0:0:0:0:
243,87,197012,5,2,0:0:0:0:
178,124,197112,2,0,P|158:155|151:192,1,75.0000028610231,0|0,1:0|0:0,0:0:0:0:
254,340,197312,2,0,P|242:304|246:267,1,75.0000028610231,0|0,1:0|0:0,0:0:0:0:
345,94,197512,1,2,0:0:0:0:
431,22,197612,1,0,1:0:0:0:
449,110,197712,1,2,0:0:0:0:
426,181,197812,1,0,1:0:0:0:
403,237,197912,1,2,0:0:0:0:
405,282,198012,102,0,P|412:318|429:351,1,75.0000028610231,0|0,1:0|0:0,0:0:0:0:
254,340,198212,1,2,0:0:0:0:
204,325,198312,1,2,0:0:0:0:
129,331,198412,1,0,1:0:0:0:
53,298,198512,1,2,0:0:0:0:
2,224,198612,1,2,0:0:0:0:
9,127,198712,1,2,0:0:0:0:
79,50,198812,6,0,P|116:41|153:39,1,75.0000028610231,0|0,1:0|0:0,0:0:0:0:
254,123,199012,1,2,0:0:0:0:
270,157,199112,1,2,0:0:0:0:
281,224,199212,1,0,1:0:0:0:
262,153,199312,1,2,0:0:0:0:
302,81,199412,1,2,0:0:0:0:
390,64,199512,1,2,0:0:0:0:
461,131,199612,101,0,1:0:0:0:
507,3,199712,2,0,P|466:65|457:139,1,150.000005722046,0|0,1:0|0:0,0:0:0:0:
489,282,200012,1,0,1:0:0:0:
469,322,200112,1,2,0:0:0:0:
418,366,200212,1,2,0:0:0:0:
329,380,200312,1,2,0:0:0:0:
239,326,200412,6,0,P|224:291|220:254,1,75.0000028610231,0|0,1:0|0:0,0:0:0:0:
382,184,200612,2,0,P|377:221|362:255,1,75.0000028610231,2|0,0:0|0:0,0:0:0:0:
108,301,200812,1,0,1:0:0:0:
121,212,200912,1,2,0:0:0:0:
68,149,201012,1,2,0:0:0:0:
79,75,201112,1,2,0:0:0:0:
15,5,201212,102,0,P|41:33|75:49,1,75.0000028610231,0|0,1:0|0:0,0:0:0:0:
300,38,201412,1,2,0:0:0:0:
248,107,201512,2,0,P|237:142|239:180,1,75.0000028610231,0|0,1:0|0:0,0:0:0:0:
500,76,201712,2,0,P|502:38|491:2,1,75.0000028610231,0|0,1:0|0:0,0:0:0:0:
239,297,201912,5,2,0:0:0:0:
308,322,202012,1,2,0:0:0:0:
383,315,202112,2,0,P|418:302|445:277,1,75.0000028610231,0|0,1:0|0:0,0:0:0:0:
291,174,202312,1,0,1:0:0:0:
217,178,202412,1,0,0:0:0:0:
152,213,202512,1,0,0:0:0:0:
123,281,202612,2,0,P|127:318|141:353,1,75.0000028610231,0|0,1:0|0:0,0:0:0:0:
297,285,202812,101,0,1:0:0:0:
304,314,202912,1,2,0:0:0:0:
357,200,203012,1,0,1:0:0:0:
350,229,203112,1,2,0:0:0:0:
275,150,203212,6,0,P|299:122|333:107,1,75.0000028610231,0|0,1:0|0:0,0:0:0:0:
141,353,203412,2,0,P|104:345|74:324,1,75.0000028610231,0|0,1:0|0:0,0:0:0:0:
41,143,203612,101,0,1:0:0:0:
46,106,203712,1,2,0:0:0:0:
71,64,203812,1,2,0:0:0:0:
122,32,203912,1,2,0:0:0:0:
198,34,204012,5,0,1:0:0:0:
190,63,204112,1,0,1:0:0:0:
298,115,204212,1,0,1:0:0:0:
290,86,204312,1,0,1:0:0:0:
398,33,204412,102,0,P|408:69|415:106,1,75.0000028610231,0|0,1:0|0:0,0:0:0:0:
239,174,204612,2,0,P|264:146|293:122,1,75.0000028610231,2|0,0:0|0:0,0:0:0:0:
440,241,204812,1,0,1:0:0:0:
459,282,204912,1,2,0:0:0:0:
443,340,205012,1,2,0:0:0:0:
373,367,205112,1,2,0:0:0:0:
305,336,205212,6,0,P|285:304|282:267,1,75.0000028610231,0|0,1:0|0:0,0:0:0:0:
415,106,205412,2,0,P|415:143|400:177,1,75.0000028610231,2|0,0:0|0:0,0:0:0:0:
161,119,205612,1,0,1:0:0:0:
199,55,205712,1,2,0:0:0:0:
248,20,205812,1,2,0:0:0:0:
291,7,205912,1,2,0:0:0:0:
321,4,206012,101,0,1:0:0:0:
327,101,206112,2,0,P|322:137|307:172,1,75.0000028610231,0|0,1:0|0:0,0:0:0:0:
116,243,206312,1,2,0:0:0:0:
32,173,206412,1,0,1:0:0:0:
8,228,206512,1,2,0:0:0:0:
23,301,206612,1,2,0:0:0:0:
93,351,206712,1,2,0:0:0:0:
184,329,206812,6,0,P|209:302|223:268,1,75.0000028610231,0|0,1:0|0:0,0:0:0:0:
127,53,207012,2,0,P|138:88|160:118,1,75.0000028610231,2|0,0:0|0:0,0:0:0:0:
394,7,207212,2,0,P|357:-1|320:3,1,75.0000028610231,0|0,1:0|0:0,0:0:0:0:
313,175,207412,1,2,0:0:0:0:
321,171,207512,1,2,0:0:0:0:
404,101,207612,102,0,P|422:134|429:171,1,75.0000028610231,0|0,1:0|0:0,0:0:0:0:
222,266,207812,2,0,P|198:237|183:203,1,75.0000028610231,2|0,0:0|0:0,0:0:0:0:
233,35,208012,1,0,1:0:0:0:
237,110,208112,1,2,0:0:0:0:
301,149,208212,6,0,L|375:144,1,75.0000028610231,2|0,0:0|0:0,0:0:0:0:
378,243,208412,2,0,L|452:238,1,75.0000028610231,0|0,1:0|0:0,0:0:0:0:
455,337,208612,101,2,0:0:0:0:
297,157,208812,5,0,1:0:0:0:
374,251,208912,2,2,L|224:259,1,150.000005722046,2|0,0:0|0:0,1:0:0:0:
85,353,209212,101,0,1:0:0:0:
57,284,209312,1,2,0:0:0:0:
68,210,209412,1,0,1:0:0:0:
92,140,209512,1,2,0:0:0:0:
75,68,209612,2,0,P|80:31|99:0,1,75.0000028610231,0|0,1:0|0:0,0:0:0:0:
240,87,209812,5,2,0:0:0:0:
311,112,209912,2,0,P|348:113|382:99,1,75.0000028610231,0|0,1:0|0:0,0:0:0:0:
469,0,210112,2,0,P|458:35|462:72,1,75.0000028610231,0|0,1:0|0:0,0:0:0:0:
512,149,210312,1,2,0:0:0:0:
450,234,210412,1,0,1:0:0:0:
365,179,210512,1,2,0:0:0:0:
291,190,210612,1,0,1:0:0:0:
242,218,210712,1,2,0:0:0:0:
220,243,210812,102,0,P|184:232|152:212,1,75.0000028610231,0|0,1:0|0:0,0:0:0:0:
94,32,211012,1,2,0:0:0:0:
70,49,211112,1,2,0:0:0:0:
38,81,211212,1,0,1:0:0:0:
10,134,211312,1,2,0:0:0:0:
1,209,211412,1,2,0:0:0:0:
32,294,211512,1,2,0:0:0:0:
112,360,211612,6,0,P|150:365|187:361,1,75.0000028610231,0|0,1:0|0:0,0:0:0:0:
297,265,211812,1,2,0:0:0:0:
290,228,211912,1,2,0:0:0:0:
257,187,212012,1,0,1:0:0:0:
286,236,212112,1,2,0:0:0:0:
345,269,212212,1,2,0:0:0:0:
419,264,212312,1,2,0:0:0:0:
480,209,212412,101,0,1:0:0:0:
499,362,212512,2,0,P|505:287|483:216,1,150.000005722046,0|0,1:0|0:0,0:0:0:0:
342,62,212812,1,0,1:0:0:0:
318,109,212912,1,2,0:0:0:0:
315,177,213012,1,2,0:0:0:0:
322,259,213112,1,2,0:0:0:0:
286,345,213212,6,0,P|255:366|219:377,1,75.0000028610231,0|0,1:0|0:0,0:0:0:0:
142,182,213412,2,0,P|175:197|202:223,1,75.0000028610231,2|0,0:0|0:0,0:0:0:0:
54,353,213612,1,0,1:0:0:0:
74,265,213712,1,2,0:0:0:0:
12,211,213812,1,2,0:0:0:0:
29,138,213912,1,2,0:0:0:0:
2,52,214012,102,0,L|75:64,1,75.0000028610231,0|0,1:0|0:0,0:0:0:0:
202,125,214212,1,2,0:0:0:0:
276,111,214312,2,0,L|349:98,1,75.0000028610231,0|0,1:0|0:0,0:0:0:0:
512,0,214512,2,0,L|499:73,1,75.0000028610231,0|0,1:0|0:0,0:0:0:0:
447,357,214712,5,2,0:0:0:0:
401,300,214812,1,2,0:0:0:0:
389,227,214912,2,0,L|376:153,1,75.0000028610231,0|0,1:0|0:0,0:0:0:0:
253,0,215112,1,0,1:0:0:0:
184,26,215212,1,2,0:0:0:0:
138,83,215312,1,2,0:0:0:0:
126,156,215412,2,0,L|113:229,1,75.0000028610231,0|0,1:0|0:0,0:0:0:0:
20,313,215612,101,0,1:0:0:0:
23,343,215712,1,0,0:0:0:0:
46,214,215812,1,0,1:0:0:0:
43,244,215912,1,0,0:0:0:0:
108,349,216012,6,0,P|145:354|182:353,1,75.0000028610231,0|0,1:0|0:0,0:0:0:0:
317,285,216212,2,0,P|340:255|358:222,1,75.0000028610231,0|0,1:0|0:0,0:0:0:0:
173,48,216412,2,2,L|210:53,2,37.5000014305115,2|2|2,1:2|0:0|0:0,0:0:0:0:
350,89,216612,2,2,L|312:94,2,37.5000014305115,2|2|2,1:2|0:0|0:0,0:0:0:0:
100,168,216812,2,2,L|137:173,2,37.5000014305115,2|2|2,1:2|0:0|0:0,0:0:0:0:
430,253,217012,2,2,L|392:258,2,37.5000014305115,2|2|2,1:2|0:0|1:2,0:0:0:0:
256,334,217212,5,0,1:0:0:0:
164,295,217412,1,2,0:0:0:0:
85,357,217612,1,0,1:0:0:0:
42,330,217712,1,2,0:0:0:0:
14,289,217812,1,2,0:0:0:0:
5,241,217912,2,0,L|3:191,1,50,2|0,0:0|0:0,0:0:0:0:
42,98,218112,1,2,0:0:0:0:
0,7,218312,1,2,0:0:0:0:
50,11,218412,2,2,L|74:13,6,25,2|2|2|2|2|2|2,1:3|3:0|1:3|3:0|1:3|3:0|1:3,0:0:0:0:
137,60,218812,5,0,1:0:0:0:
185,50,218912,2,0,P|235:53|278:77,1,100,2|2,0:0|0:0,0:0:0:0:
296,151,219212,2,2,L|291:187,2,25,2|2|2,1:2|0:0|0:0,0:0:0:0:
353,75,219412,2,2,L|349:50,2,25
398,181,219612,2,0,L|406:126,1,50,2|0,1:3|0:0,0:0:0:0:
421,23,219812,1,2,0:0:0:0:
476,106,220012,2,0,L|480:155,1,50,0|0,1:0|0:0,0:0:0:0:
425,251,220212,2,0,L|420:300,1,50,2|0,0:0|0:0,0:0:0:0:
512,363,220412,101,0,1:0:0:0:
345,308,220612,2,0,P|295:302|247:313,1,100,2|0,0:0|0:0,0:0:0:0:
199,374,220912,2,0,P|175:382|150:386,1,50,2|0,0:0|0:0,0:0:0:0:
87,342,221112,2,0,P|98:319|113:299,1,50,2|0,0:0|0:0,0:0:0:0:
244,235,221312,1,2,0:0:0:0:
10,362,221512,1,2,0:0:0:0:
14,379,221612,1,0,1:0:0:0:
33,281,221712,1,2,0:0:0:0:
0,208,221812,1,2,0:0:0:0:
11,159,221912,1,2,0:0:0:0:
6,127,222012,5,0,1:0:0:0:
10,119,222112,1,0,1:0:0:0:
70,55,222212,101,0,1:0:0:0:
74,63,222312,1,0,1:0:0:0:
119,135,222412,6,2,L|116:159,2,25,2|2|2,1:2|0:0|0:0,0:0:0:0:
184,79,222612,2,2,L|181:54,2,25,2|2|2,1:2|0:0|0:0,0:0:0:0:
235,189,222812,102,0,L|241:139,1,50,2|0,1:3|0:0,0:0:0:0:
282,64,223012,2,0,L|285:40,3,25,2|2|2|2,1:3|3:0|3:0|3:0,0:0:0:0:
352,11,223212,5,0,1:0:0:0:
405,84,223312,1,2,0:0:0:0:
361,145,223412,1,2,0:0:0:0:
398,192,223512,1,2,0:0:0:0:
380,233,223612,101,0,1:0:0:0:
412,329,223812,2,0,P|413:279|387:237,1,100,2|0,0:0|0:0,0:0:0:0:
480,214,224112,1,2,0:0:0:0:
466,166,224212,1,2,0:0:0:0:
470,116,224312,2,0,P|477:92|492:72,1,50,2|0,0:0|0:0,0:0:0:0:
459,0,224512,2,0,P|437:11|412:15,1,50,2|0,0:0|0:0,0:0:0:0:
311,0,224712,1,2,0:0:0:0:
317,49,224812,2,0,L|320:73,6,25,2|2|2|2|2|2|2,1:3|3:0|3:0|3:0|3:0|3:0|3:0,0:0:0:0:
213,18,225212,5,0,1:0:0:0:
231,64,225312,2,0,P|236:113|220:160,1,100,2|0,0:0|0:0,0:0:0:0:
133,181,225612,2,2,L|108:184,2,25,2|2|2,1:2|0:0|0:0,0:0:0:0:
96,94,225812,2,2,L|121:98,1,25
88,90,225912,1,2,0:0:0:0:
80,86,226012,2,0,P|60:101|45:121,1,50,2|0,1:3|0:0,0:0:0:0:
20,184,226212,1,2,0:0:0:0:
0,0,226412,2,0,P|19:15|34:35,1,50,0|0,1:0|0:0,0:0:0:0:
16,192,226612,2,0,P|19:216|29:239,1,50,2|0,0:0|0:0,0:0:0:0:
118,298,226812,101,0,1:0:0:0:
22,341,227012,2,0,P|61:311|108:293,1,100,2|0,0:0|0:0,0:0:0:0:
178,347,227312,2,0,P|200:357|225:362,1,50,2|0,0:0|0:0,0:0:0:0:
236,248,227512,2,0,P|258:237|283:232,1,50,2|0,0:0|0:0,0:0:0:0:
386,306,227712,1,2,0:0:0:0:
455,195,227912,1,2,0:0:0:0:
459,203,228012,1,0,1:0:0:0:
490,107,228112,2,2,P|494:83|496:58,2,50,0|0|0,0:0|0:0|0:0,0:0:0:0:
408,37,228412,21,0,1:0:0:0:
416,71,228512,1,0,1:0:0:0:
272,69,228612,5,0,1:0:0:0:
306,61,228712,1,0,1:0:0:0:
304,205,228812,5,0,1:0:0:0:
296,171,228912,1,0,1:0:0:0:
440,173,229012,5,0,1:0:0:0:
406,181,229112,1,0,1:0:0:0:
304,205,229212,6,2,L|279:209,7,25,2|2|2|2|2|2|2|2,1:2|0:0|0:0|0:0|0:0|0:0|0:0|0:0,0:0:0:0:
168,237,229612,5,0,1:0:0:0:
95,220,229712,1,0,1:0:0:0:
42,147,229812,1,0,1:0:0:0:
70,46,229912,1,0,1:0:0:0:
183,10,230012,102,0,P|221:9|257:19,1,75.0000028610231,0|0,1:0|0:0,0:0:0:0:
279,208,230212,2,0,P|278:170|288:134,1,75.0000028610231,2|0,0:0|0:0,0:0:0:0:
411,34,230412,1,0,1:0:0:0:
434,85,230512,1,2,0:0:0:0:
427,160,230612,1,2,0:0:0:0:
461,247,230712,2,0,B|473:261|486:269|486:269|484:293|470:307,1,75.0000028610231,0|0,1:0|0:0,0:0:0:0:
315,357,230912,2,0,P|277:358|241:348,1,75.0000028610231,0|0,1:0|0:0,0:0:0:0:
168,237,231112,1,2,0:0:0:0:
136,327,231212,1,2,0:0:0:0:
127,330,231312,2,0,P|75:280|70:206,1,150.000005722046,0|0,1:0|0:0,0:0:0:0:
37,20,231612,5,0,1:0:0:0:
37,28,231712,2,0,P|54:98|115:139,1,150.000005722046,0|0,1:0|0:0,0:0:0:0:
243,107,232012,1,0,1:0:0:0:
217,98,232112,1,2,0:0:0:0:
240,60,232212,1,2,0:0:0:0:
310,47,232312,2,0,P|346:54|379:72,1,75.0000028610231,0|0,1:0|0:0,0:0:0:0:
481,12,232512,1,2,0:0:0:0:
489,16,232612,2,0,P|500:51|501:88,1,75.0000028610231,0|0,1:0|0:0,0:0:0:0:
484,310,232812,1,2,0:0:0:0:
466,159,232912,2,0,P|460:211|480:316,1,150.000005722046,0|0,1:0|0:0,0:0:0:0:
512,373,233212,101,0,1:0:0:0:
292,320,233412,2,0,P|321:345|354:362,1,75.0000028610231,0|0,1:0|1:0,1:0:0:0:
426,357,233612,1,2,0:0:0:0:
335,254,233712,2,0,P|298:246|261:249,1,75.0000028610231,0|0,1:0|0:0,0:0:0:0:
220,346,233912,2,0,P|208:310|187:279,1,75.0000028610231,0|0,1:0|0:0,0:0:0:0:
179,275,234112,1,2,0:0:0:0:
55,345,234212,5,0,1:0:0:0:
71,341,234312,1,2,0:0:0:0:
175,283,234412,101,0,1:0:0:0:
159,279,234512,1,2,0:0:0:0:
31,248,234612,5,0,1:0:0:0:
47,244,234712,1,2,0:0:0:0:
172,187,234812,101,0,1:0:0:0:
168,171,234912,1,2,0:0:0:0:
92,160,235012,5,0,1:0:0:0:
96,144,235112,1,2,0:0:0:0:
36,96,235212,101,0,1:0:0:0:
47,84,235312,1,2,0:0:0:0:
19,12,235412,5,0,1:0:0:0:
35,8,235512,1,2,0:0:0:0:
120,55,235612,101,0,1:0:0:0:
136,59,235712,1,2,0:0:0:0:
229,30,235812,5,0,1:0:0:0:
245,26,235912,1,2,0:0:0:0:
321,87,236012,101,0,1:0:0:0:
337,91,236112,1,2,0:0:0:0:
426,51,236212,5,0,1:0:0:0:
442,47,236312,1,2,0:0:0:0:
313,91,236412,101,0,1:0:0:0:
329,95,236512,1,2,0:0:0:0:
380,178,236612,5,0,1:0:0:0:
466,128,236812,101,0,1:0:0:0:
462,144,236912,1,2,0:0:0:0:
372,182,237012,5,0,1:0:0:0:
376,198,237112,1,2,0:0:0:0:
475,252,237212,101,0,1:0:0:0:
471,268,237312,1,2,0:0:0:0:
357,305,237412,6,2,L|361:329,2,25,2|2|2,1:2|0:0|0:0,0:0:0:0:
364,186,237612,101,0,1:0:0:0:
348,181,237712,1,2,0:0:0:0:
300,116,237812,5,0,1:0:0:0:
287,128,237912,1,2,0:0:0:0:
207,138,238012,101,0,1:0:0:0:
211,154,238112,1,2,0:0:0:0:
179,229,238212,5,0,1:0:0:0:
195,234,238312,1,2,0:0:0:0:
244,298,238412,101,0,1:0:0:0:
257,287,238512,1,2,0:0:0:0:
337,276,238612,5,0,1:0:0:0:
333,260,238712,1,2,0:0:0:0:
269,200,238812,101,0,1:0:0:0:
273,216,238912,1,2,0:0:0:0:
261,295,239012,5,0,1:0:0:0:
248,306,239112,1,2,0:0:0:0:
174,335,239212,101,0,1:0:0:0:
158,329,239312,1,2,0:0:0:0:
95,279,239412,5,0,1:0:0:0:
93,262,239512,1,2,0:0:0:0:
103,182,239612,101,0,1:0:0:0:
117,172,239712,1,2,0:0:0:0:
191,140,239812,5,0,1:0:0:0:
53,82,240012,101,0,1:0:0:0:
67,92,240112,1,2,0:0:0:0:
111,186,240212,5,0,1:0:0:0:
125,176,240312,1,2,0:0:0:0:
166,59,240412,101,0,1:0:0:0:
180,69,240512,1,2,0:0:0:0:
224,193,240612,6,2,L|259:171,2,25,2|2|2,1:2|0:0|0:0,0:0:0:0:
56,306,240812,101,0,1:0:0:0:
72,300,240912,1,2,0:0:0:0:
157,317,241012,5,0,1:0:0:0:
173,311,241112,1,2,0:0:0:0:
258,328,241212,101,0,1:0:0:0:
293,316,241312,1,0,1:0:0:0:
330,320,241412,1,0,1:0:0:0:
362,339,241512,1,0,1:0:0:0:
383,370,241612,5,0,1:0:0:0:
396,321,241712,1,0,1:0:0:0:
423,280,241812,1,0,1:0:0:0:
462,249,241912,1,0,1:0:0:0:
508,231,242012,101,0,1:0:0:0:
474,180,242112,1,0,1:0:0:0:
461,119,242212,1,0,1:0:0:0:
472,58,242312,1,0,1:0:0:0:
505,6,242412,5,0,1:0:0:0:
440,42,242512,1,0,1:0:0:0:
368,62,242612,1,0,1:0:0:0:
293,64,242712,1,0,1:0:0:0:
220,47,242812,6,0,P|200:32|186:12,2,50,0|2|2,1:0|0:0|0:0,0:0:0:0:
224,56,243112,1,2,0:0:0:0:
180,78,243212,1,0,1:0:0:0:
151,119,243312,1,2,0:0:0:0:
133,166,243412,1,2,0:0:0:0:
101,204,243512,1,2,0:0:0:0:
56,224,243612,2,0,P|31:229|7:225,1,50,0|0,1:0|0:0,0:0:0:0:
72,323,243812,1,2,0:0:0:0:
35,122,244012,2,2,L|30:90,4,25,2|2|2|2|2,1:2|0:0|0:0|0:0|0:0,0:0:0:0:
0,0,244412,5,0,1:0:0:0:
45,19,244512,1,2,0:0:0:0:
94,29,244612,1,2,0:0:0:0:
128,96,244712,1,2,0:0:0:0:
176,86,244812,2,0,P|226:91|268:117,1,100,0|0,1:0|0:0,0:0:0:0:
446,130,245212,2,0,P|384:127|332:159,1,125,0|0,1:0|0:0,0:0:0:0:
185,196,245612,2,0,P|235:196|279:218,1,100,0|0,1:0|0:0,0:0:0:0:
445,225,246012,102,0,L|450:174,2,50,0|0|0,1:0|0:0|0:0,0:0:0:0:
441,233,246312,2,0,P|390:233|346:255,1,100,2|0,0:0|0:0,0:0:0:0:
334,301,246612,1,2,0:0:0:0:
304,324,246712,1,2,0:0:0:0:
271,341,246812,1,0,1:0:0:0:
235,351,246912,1,2,0:0:0:0:
197,353,247012,2,0,P|172:351|149:344,1,50,2|0,0:0|0:0,0:0:0:0:
105,254,247212,2,2,L|103:227,4,25,2|2|2|2|2,1:2|0:0|0:0|0:0|0:0,0:0:0:0:
28,353,247612,5,0,1:0:0:0:
12,293,247712,1,2,0:0:0:0:
34,235,247812,1,2,0:0:0:0:
63,181,247912,1,2,0:0:0:0:
51,121,248012,2,0,L|40:72,1,50,0|0,1:0|0:0,0:0:0:0:
120,8,248212,2,0,L|130:56,1,50,2|0,0:0|0:0,0:0:0:0:
173,200,248412,1,0,1:0:0:0:
178,175,248512,1,2,0:0:0:0:
183,151,248612,2,2,L|194:103,4,25
261,40,248912,1,2,0:0:0:0:
266,64,249012,1,2,0:0:0:0:
271,88,249112,1,2,0:0:0:0:
275,153,249212,101,0,1:0:0:0:
303,112,249312,1,2,0:0:0:0:
343,82,249412,1,2,0:0:0:0:
390,66,249512,1,2,0:0:0:0:
440,66,249612,1,0,1:0:0:0:
413,92,249712,1,2,0:0:0:0:
393,124,249812,1,2,0:0:0:0:
381,159,249912,1,2,0:0:0:0:
377,196,250012,1,0,1:0:0:0:
373,225,250112,1,2,0:0:0:0:
364,248,250212,2,0,P|352:269|333:288,1,40
409,340,250412,6,2,L|417:363,6,20,2|2|2|2|2|2|2,1:2|0:0|0:0|0:0|0:0|0:0|0:0,0:0:0:0:
442,266,250812,102,0,P|472:241|507:241,1,75.0000028610231,0|0,1:0|0:0,1:0:0:0:
377,195,251212,6,0,P|412:168|454:152,1,89.9999972534181,0|0,1:0|0:0,1:0:0:0:
278,139,251612,102,0,P|255:80|214:32,1,119.999996337891,0|0,1:0|0:0,1:0:0:0:
172,136,252012,6,0,P|147:101|98:84,1,89.9999972534181,0|0,1:0|0:0,1:0:0:0:
30,200,252412,102,0,L|25:150,1,44.999998626709,0|0,1:0|0:0,0:0:0:0:
10,20,252612,1,2,0:0:0:0:
9,10,252712,2,0,P|-2:52|72:61,1,134.999995880127,2|0,0:0|0:0,0:0:0:0:
75,77,253112,1,2,0:0:0:0:
81,90,253212,1,2,0:0:0:0:
121,95,253312,1,2,0:0:0:0:
156,75,253412,1,2,0:0:0:0:
197,185,253612,6,0,L|200:218,4,22.4999993133545,2|2|2|2|2,1:3|3:0|3:0|3:0|3:0,0:0:0:0:
181,44,254012,101,0,1:0:0:0:
214,25,254112,1,2,0:0:0:0:
217,14,254212,1,2,0:0:0:0:
250,33,254312,1,2,0:0:0:0:
260,70,254412,5,0,1:0:0:0:
282,92,254512,1,2,0:0:0:0:
282,101,254612,1,2,0:0:0:0:
313,93,254712,1,2,0:0:0:0:
329,71,254812,101,0,1:0:0:0:
355,55,254912,1,2,0:0:0:0:
358,46,255012,1,2,0:0:0:0:
386,62,255112,1,2,0:0:0:0:
394,83,255212,5,0,1:0:0:0:
412,100,255312,1,2,0:0:0:0:
414,107,255412,1,2,0:0:0:0:
439,98,255512,1,2,0:0:0:0:
446,91,255612,102,2,L|448:55,3,32.4999985122681,2|2|2|2,1:2|0:0|0:0|0:0,0:0:0:0:
452,55,256012,2,2,L|454:19,3,32.4999985122681
458,19,256412,1,2,0:0:0:0:
464,23,256612,6,0,B|449:58|464:93|469:81|488:117|478:154,1,129.999994049073,2|0,0:0|0:0,0:0:0:0:
419,225,257212,102,0,L|422:263,2,32.4999985122681,2|0|0,1:2|0:0|0:0,0:0:0:0:
417,219,257512,2,0,B|383:215|383:215|352:226|352:226|321:216|289:224,1,129.999994049073,2|0,0:0|0:0,0:0:0:0:
212,290,258012,6,0,L|215:252,2,32.4999985122681,2|0|0,0:0|0:0|0:0,0:0:0:0:
210,296,258312,2,0,B|176:300|176:300|145:289|145:289|114:299|82:290,1,129.999994049073,2|0,0:0|0:0,0:0:0:0:
26,216,258812,1,2,1:2:0:0:
30,208,258912,1,0,0:0:0:0:
31,213,259012,1,0,0:0:0:0:
24,210,259112,2,0,B|9:160|41:135|23:82,1,129.999994049073,2|0,0:0|0:0,0:0:0:0:
22,81,259812,2,0,B|72:66|97:98|150:80,1,129.999994049073,2|0,0:0|0:0,0:0:0:0:
237,22,260412,102,0,L|205:19,2,32.4999985122681,2|0|0,1:2|0:0|0:0,0:0:0:0:
245,24,260712,2,0,B|257:56|245:89|245:89|242:126|260:150,1,129.999994049073,2|0,0:0|0:0,0:0:0:0:
343,180,261212,6,0,L|375:177,2,32.4999985122681,2|0|0,0:0|0:0|0:0,0:0:0:0:
335,182,261512,2,0,B|323:214|335:247|335:247|338:284|320:308,1,129.999994049073,2|0,0:0|0:0,0:0:0:0:
245,341,262012,102,0,L|210:346,3,32.4999985122681,2|2|2|2,1:2|0:0|0:0|0:0,0:0:0:0:
207,343,262412,2,2,L|172:348,3,32.4999985122681
169,345,262812,1,2,0:0:0:0:
166,351,263012,2,0,B|122:342|83:355|83:355|92:328|88:302,1,129.999994049073,2|0,0:0|0:0,0:0:0:0:
19,259,263612,6,0,L|24:226,2,32.4999985122681,2|0|0,1:2|0:0|0:0,0:0:0:0:
24,267,263912,2,0,B|33:212|33:212|55:205|55:205|63:150,1,129.999994049073,2|0,0:0|0:0,0:0:0:0:
104,39,264412,102,0,L|109:71,2,32.4999985122681,2|0|0,0:0|0:0|0:0,0:0:0:0:
109,31,264712,2,0,B|118:86|118:86|140:93|140:93|148:148,1,129.999994049073,2|0,0:0|0:0,0:0:0:0:
139,228,265212,1,2,1:2:0:0:
147,232,265312,1,0,0:0:0:0:
142,233,265412,1,0,0:0:0:0:
145,226,265512,2,0,B|194:201|248:207|248:207|238:215|225:218,1,129.999994049073,2|0,0:0|0:0,0:0:0:0:
226,217,266212,2,0,B|223:205|215:195|215:195|209:249|234:298,1,129.999994049073
313,321,266812,6,0,L|317:286,2,32.4999985122681,2|0|0,1:2|0:0|0:0,0:0:0:0:
317,330,267112,2,0,P|375:348|448:342,1,129.999994049073
491,182,267612,102,0,L|487:147,2,32.4999985122681
487,191,267912,2,0,P|429:209|356:203,1,129.999994049073
256,192,268412,12,0,271612,0:0:0:0:
