osu file format v14

[General]
AudioFilename: audio.mp3
AudioLeadIn: 0
PreviewTime: -1
Countdown: 1
SampleSet: Normal
StackLeniency: 0.7
Mode: 0
LetterboxInBreaks: 0
WidescreenStoryboard: 1

[Editor]
Bookmarks: 37313
DistanceSpacing: 0.1
BeatDivisor: 4
GridSize: 4
TimelineZoom: 1

[Metadata]
Title:Colors (sasakure.UK Futurelogic Remix)
TitleUnicode:Colors (sasakure.UK Futurelogic Remix)
Artist:dj TAKA
ArtistUnicode:dj TAKA
Creator:peng
Version:Epileptic v2
Source:
Tags:
BeatmapID:1901504
BeatmapSetID:649623

[Difficulty]
HPDrainRate:4
CircleSize:4
OverallDifficulty:8
ApproachRate:9.4
SliderMultiplier:2.9
SliderTickRate:4

[Events]
//Background and Video events
0,0,"random background.jpg",0,0
//Break Periods
2,140713,152773
//Storyboard Layer 0 (Background)
//Storyboard Layer 1 (Fail)
//Storyboard Layer 2 (Pass)
//Storyboard Layer 3 (Foreground)
//Storyboard Sound Samples

[TimingPoints]
113,400,4,1,0,50,1,0
213,-142.857142857143,4,1,0,50,0,0
25313,-100,4,1,0,50,0,0
25713,-200,4,1,0,50,0,0
50113,-50,4,1,0,50,0,0
52013,-200,4,1,0,50,0,0
54313,-50,4,1,0,50,0,0
55213,-200,4,1,0,50,0,0
72513,-100,4,1,0,50,0,0
73313,-200,4,1,0,50,0,0
85513,-50,4,1,0,50,0,0
86213,-200,4,1,0,50,0,0
88513,-50,4,1,0,50,0,0
89313,-200,4,1,0,50,0,0
91313,-100,4,1,0,50,0,0
91713,-66.6666666666667,4,1,0,50,0,0
91713,-200,4,1,0,50,0,0
92113,-200,4,1,0,50,0,0
118113,-50,4,1,0,50,0,1
120113,-200,4,1,0,50,0,0
126913,-100,4,1,0,50,0,0
127713,-200,4,1,0,50,0,0
128513,-33.3333333333333,4,1,0,15,0,0
128813,-200,4,1,0,50,0,0
130913,-50,4,1,0,50,0,0
134113,-200,4,1,0,50,0,0
135713,-50,4,1,0,50,0,0
137313,-200,4,1,0,50,0,0
139313,-50,4,1,0,50,0,0

[HitObjects]
232,156,25313,6,0,L|292:228,3,72.5
256,192,26313,5,0,0:0:0:0:
256,192,26913,5,0,0:0:0:0:
256,184,27013,1,0,0:0:0:0:
256,176,27113,1,0,0:0:0:0:
256,168,27213,1,0,0:0:0:0:
256,156,27713,5,0,0:0:0:0:
256,172,27813,1,0,0:0:0:0:
256,188,27913,1,0,0:0:0:0:
256,204,28013,1,0,0:0:0:0:
256,228,28513,5,0,0:0:0:0:
256,196,28613,1,0,0:0:0:0:
256,164,28713,1,0,0:0:0:0:
256,132,28813,1,0,0:0:0:0:
251,321,29513,5,0,0:0:0:0:
244,184,30113,5,0,0:0:0:0:
252,181,30213,1,0,0:0:0:0:
259,178,30313,1,0,0:0:0:0:
267,175,30413,1,0,0:0:0:0:
278,171,30913,5,0,0:0:0:0:
263,177,31013,1,0,0:0:0:0:
248,182,31113,1,0,0:0:0:0:
233,188,31213,1,0,0:0:0:0:
211,197,31713,5,0,0:0:0:0:
241,185,31813,1,0,0:0:0:0:
270,174,31913,1,0,0:0:0:0:
300,162,32013,1,0,0:0:0:0:
126,187,32713,5,0,0:0:0:0:
245,174,33313,5,0,0:0:0:0:
252,178,33413,1,0,0:0:0:0:
259,182,33513,1,0,0:0:0:0:
266,185,33613,1,0,0:0:0:0:
276,192,34113,5,0,0:0:0:0:
262,184,34213,1,0,0:0:0:0:
249,175,34313,1,0,0:0:0:0:
235,168,34413,1,0,0:0:0:0:
214,156,34913,5,0,0:0:0:0:
242,172,35013,1,0,0:0:0:0:
269,188,35113,1,0,0:0:0:0:
297,204,35213,1,0,0:0:0:0:
141,252,35913,5,0,0:0:0:0:
332,132,36513,5,0,0:0:0:0:
296,276,36613,1,0,0:0:0:0:
188,168,36713,1,0,0:0:0:0:
332,132,36813,1,0,0:0:0:0:
332,132,37313,5,0,0:0:0:0:
296,276,37413,1,0,0:0:0:0:
188,168,37513,1,0,0:0:0:0:
322,182,37613,5,0,0:0:0:0:
250,256,37713,1,0,0:0:0:0:
223,153,37813,1,0,0:0:0:0:
299,209,37913,5,0,0:0:0:0:
230,229,38013,1,0,0:0:0:0:
248,160,38113,6,0,L|336:104,1,72.5
309,121,38513,2,0,L|368:188,1,72.5
357,175,38913,2,0,L|416:120,1,72.5
410,125,39313,2,0,L|468:184,1,72.5
336,248,39713,5,0,0:0:0:0:
276,292,39813,1,0,0:0:0:0:
204,288,39913,1,0,0:0:0:0:
344,253,40113,5,0,0:0:0:0:
278,302,40213,1,0,0:0:0:0:
198,297,40313,1,0,0:0:0:0:
352,259,40513,5,0,0:0:0:0:
280,313,40613,1,0,0:0:0:0:
193,308,40713,1,0,0:0:0:0:
362,266,40913,5,0,0:0:0:0:
282,325,41013,1,0,0:0:0:0:
186,319,41113,1,0,0:0:0:0:
108,280,41213,1,0,0:0:0:0:
120,192,41313,6,0,L|160:120,1,72.5
155,128,41713,2,0,L|208:212,1,72.5
193,189,42113,2,0,L|236:112,1,72.5
228,126,42513,2,0,L|272:200,1,72.5
265,188,42913,6,0,L|356:88,1,108.75
338,107,43313,2,0,L|392:172,1,72.5
384,163,43713,2,0,L|296:60,1,108.75
313,80,44113,2,0,L|256:156,1,72.5
96,164,44513,6,0,L|144:232,1,72.5
137,223,44913,2,0,L|196:156,1,72.5
185,168,45313,2,0,L|240:236,1,72.5
230,224,45713,2,0,L|296:156,1,72.5
380,64,46113,5,0,0:0:0:0:
424,124,46213,1,0,0:0:0:0:
412,196,46313,1,0,0:0:0:0:
392,51,46513,5,0,0:0:0:0:
440,117,46613,1,0,0:0:0:0:
427,196,46713,1,0,0:0:0:0:
406,37,46913,5,0,0:0:0:0:
459,109,47013,1,0,0:0:0:0:
444,196,47113,1,0,0:0:0:0:
421,21,47313,5,0,0:0:0:0:
479,101,47413,1,0,0:0:0:0:
463,197,47513,1,0,0:0:0:0:
416,268,47613,1,0,0:0:0:0:
344,316,47713,6,0,L|296:236,1,72.5
306,253,48113,2,0,L|256:328,1,72.5
265,313,48513,2,0,L|204:240,1,72.5
219,258,48913,2,0,L|160:316,1,72.5
256,192,49313,12,0,49713,0:0:0:0:
256,192,50113,6,0,L|256:140,1,36.25
256,192,50213,6,0,L|256:140,1,36.25
256,192,50313,6,0,L|256:140,1,36.25
256,192,50413,6,0,L|256:140,1,36.25
256,192,50513,6,0,L|256:140,1,36.25
256,192,50613,6,0,L|256:140,1,36.25
256,192,50713,6,0,L|256:140,1,36.25
256,192,50813,6,0,L|256:140,1,36.25
376,144,50913,5,2,0:0:0:0:
376,144,51013,1,2,0:0:0:0:
428,196,51113,5,0,0:0:0:0:
448,128,51213,1,0,0:0:0:0:
404,68,51313,1,0,0:0:0:0:
332,68,51413,1,0,0:0:0:0:
296,132,51513,1,0,0:0:0:0:
324,200,51613,1,0,0:0:0:0:
296,268,51713,1,0,0:0:0:0:
224,276,51813,1,0,0:0:0:0:
180,220,51913,1,0,0:0:0:0:
192,148,52013,2,4,P|208:112|188:148,1,108.75
168,130,52513,5,2,0:0:0:0:
168,130,52613,1,2,0:0:0:0:
116,182,52713,5,0,0:0:0:0:
96,114,52813,1,0,0:0:0:0:
140,54,52913,1,0,0:0:0:0:
212,54,53013,1,0,0:0:0:0:
248,118,53113,1,0,0:0:0:0:
220,186,53213,1,0,0:0:0:0:
248,254,53313,1,0,0:0:0:0:
320,262,53413,1,0,0:0:0:0:
364,206,53513,1,0,0:0:0:0:
352,134,53614,2,4,P|340:93|375:116,1,108.75
375,116,54113,5,2,0:0:0:0:
375,116,54213,1,2,0:0:0:0:
356,188,54313,5,0,0:0:0:0:
316,128,54413,1,0,0:0:0:0:
284,192,54513,1,0,0:0:0:0:
244,132,54613,1,0,0:0:0:0:
212,196,54713,1,0,0:0:0:0:
172,136,54813,1,0,0:0:0:0:
140,200,54913,1,0,0:0:0:0:
100,140,55013,1,0,0:0:0:0:
68,204,55113,1,0,0:0:0:0:
104,268,55213,2,4,P|120:288|104:264,1,108.75
156,192,55713,5,2,0:0:0:0:
156,192,55813,1,2,0:0:0:0:
276,192,55913,5,0,0:0:0:0:
254,234,56013,1,0,0:0:0:0:
283,206,56113,5,0,0:0:0:0:
247,228,56213,1,0,0:0:0:0:
285,226,56313,5,0,0:0:0:0:
247,228,56413,1,0,0:0:0:0:
279,237,56513,5,2,0:0:0:0:
248,221,56613,1,2,0:0:0:0:
279,237,56713,5,0,0:0:0:0:
247,228,56813,1,0,0:0:0:0:
285,226,56913,5,0,0:0:0:0:
250,235,57013,1,0,0:0:0:0:
286,213,57113,5,0,0:0:0:0:
257,241,57213,5,0,0:0:0:0:
324,88,57313,5,2,0:0:0:0:
324,88,57413,1,2,0:0:0:0:
284,148,57513,5,0,0:0:0:0:
248,84,57613,1,0,0:0:0:0:
284,20,57713,1,0,0:0:0:0:
356,24,57813,1,0,0:0:0:0:
392,88,57913,1,0,0:0:0:0:
380,160,58013,1,0,0:0:0:0:
400,228,58113,1,0,0:0:0:0:
360,288,58213,1,0,0:0:0:0:
288,280,58313,1,0,0:0:0:0:
220,324,58413,2,4,P|184:304|216:312,1,108.75
188,302,58913,5,2,0:0:0:0:
188,302,59013,1,2,0:0:0:0:
232,246,59113,5,0,0:0:0:0:
268,310,59213,1,0,0:0:0:0:
232,374,59313,1,0,0:0:0:0:
160,370,59413,1,0,0:0:0:0:
124,306,59513,1,0,0:0:0:0:
136,234,59613,1,0,0:0:0:0:
116,166,59713,1,0,0:0:0:0:
156,106,59813,1,0,0:0:0:0:
228,114,59913,1,0,0:0:0:0:
296,70,60013,2,4,P|332:90|300:82,1,108.75
327,91,60513,5,2,0:0:0:0:
327,91,60613,1,2,0:0:0:0:
304,160,60713,5,0,0:0:0:0:
276,228,60813,1,0,0:0:0:0:
212,196,60913,1,0,0:0:0:0:
184,264,61013,1,0,0:0:0:0:
124,224,61113,1,0,0:0:0:0:
152,156,61213,1,0,0:0:0:0:
212,196,61313,1,0,0:0:0:0:
240,128,61413,1,0,0:0:0:0:
304,160,61513,1,0,0:0:0:0:
276,228,61613,2,4,P|292:260|292:216,1,108.75
302,216,62113,5,2,0:0:0:0:
302,216,62213,1,2,0:0:0:0:
223,180,62313,5,0,0:0:0:0:
281,116,62413,1,0,0:0:0:0:
198,94,62513,1,0,0:0:0:0:
140,161,62613,1,0,0:0:0:0:
149,248,62713,1,0,0:0:0:0:
233,273,62813,1,0,0:0:0:0:
310,232,62913,5,2,0:0:0:0:
310,232,63013,1,2,0:0:0:0:
233,273,63113,5,0,0:0:0:0:
149,248,63213,1,0,0:0:0:0:
140,161,63313,1,0,0:0:0:0:
198,94,63413,1,0,0:0:0:0:
281,116,63513,1,0,0:0:0:0:
223,180,63613,1,0,0:0:0:0:
312,172,63713,6,8,L|356:172,1,36.25
348,135,63913,2,8,L|348:199,1,36.25
311,135,64113,2,8,L|351:135,1,36.25
312,172,64313,2,8,L|312:132,1,36.25
236,64,64513,6,2,L|284:64,3,36.25
164,64,64913,5,0,0:0:0:0:
140,88,65013,1,0,0:0:0:0:
148,160,65113,5,0,0:0:0:0:
168,188,65213,1,0,0:0:0:0:
236,136,65313,6,2,L|348:136,1,108.75
344,136,65713,2,2,L|256:136,1,72.5
272,136,66113,6,2,L|392:136,1,108.75
381,136,66513,2,2,L|280:136,1,72.5
164,132,66913,5,0,0:0:0:0:
164,132,67013,1,0,0:0:0:0:
164,132,67113,2,0,L|164:192,1,36.25
232,200,67313,5,0,0:0:0:0:
232,200,67413,1,0,0:0:0:0:
232,200,67513,2,0,L|232:248,1,36.25
348,131,67713,5,0,0:0:0:0:
348,131,67813,1,0,0:0:0:0:
348,131,67913,2,0,L|348:83,1,36.25
280,199,68113,6,0,L|280:139,3,36.25
208,272,68513,5,0,0:0:0:0:
184,244,68613,1,0,0:0:0:0:
192,172,68713,5,0,0:0:0:0:
216,200,68813,1,0,0:0:0:0:
280,200,68913,6,8,L|280:252,1,36.25
280,92,69113,2,8,L|280:156,1,36.25
280,8,69313,1,0,0:0:0:0:
352,20,69413,1,0,0:0:0:0:
348,92,69513,1,0,0:0:0:0:
420,104,69613,1,0,0:0:0:0:
460,44,69713,1,0,0:0:0:0:
388,60,69813,1,0,0:0:0:0:
352,124,69913,1,0,0:0:0:0:
348,196,70013,1,0,0:0:0:0:
276,196,70113,6,8,L|276:240,1,36.25
239,196,70313,2,8,L|307:196,1,36.25
239,232,70513,2,8,L|239:184,1,36.25
280,236,70713,2,8,L|224:236,1,36.25
280,308,70913,6,0,L|220:308,3,36.25
172,308,71313,5,0,0:0:0:0:
172,236,71413,1,0,0:0:0:0:
172,164,71513,1,0,0:0:0:0:
100,164,71613,1,0,0:0:0:0:
280,164,71713,6,0,L|216:164,1,36.25
172,164,71913,2,0,L|112:164,1,36.25
243,220,72113,6,0,L|280:220,1,36.25
135,220,72313,2,0,L|200:220,1,36.25
280,164,72513,6,0,L|200:164,1,72.5
172,164,72713,2,0,L|100:164,1,72.5
243,220,72913,6,0,L|316:220,1,72.5
135,220,73113,2,0,L|208:220,1,72.5
280,220,73313,5,0,0:0:0:0:
352,220,73413,1,0,0:0:0:0:
316,156,73513,1,0,0:0:0:0:
388,156,73613,1,0,0:0:0:0:
352,92,73713,5,0,0:0:0:0:
424,96,73813,1,0,0:0:0:0:
456,160,73913,1,0,0:0:0:0:
424,224,74013,1,0,0:0:0:0:
352,220,74113,1,0,0:0:0:0:
316,156,74213,1,0,0:0:0:0:
352,92,74313,1,0,0:0:0:0:
424,96,74413,1,0,0:0:0:0:
456,160,74513,6,0,L|480:216,1,36.25
448,264,74713,2,0,L|420:328,1,36.25
360,296,74913,5,0,0:0:0:0:
312,240,75013,1,0,0:0:0:0:
276,304,75113,1,0,0:0:0:0:
228,248,75213,1,0,0:0:0:0:
188,188,75313,1,0,0:0:0:0:
156,252,75413,1,0,0:0:0:0:
116,192,75513,1,0,0:0:0:0:
148,128,75613,1,0,0:0:0:0:
216,108,75713,6,0,L|268:84,1,36.25
296,148,75913,2,0,L|344:172,1,36.25
263,99,76113,6,0,L|320:104,1,36.25
312,173,76313,2,0,L|342:218,1,36.25
308,115,76513,6,0,L|355:148,1,36.25
314,204,76713,2,0,L|317:258,1,36.25
340,152,76913,6,0,L|364:204,1,36.25
300,232,77113,2,0,L|276:280,1,36.25
348,199,77313,6,0,L|343:256,1,36.25
274,248,77513,2,0,L|229:278,1,36.25
332,244,77713,6,0,L|299:291,1,36.25
243,250,77913,2,0,L|189:253,1,36.25
140,196,78113,6,2,P|184:256|160:312,1,108.75
179,285,78513,2,2,P|244:260|264:280,1,72.5
238,257,78913,2,2,P|255:316|316:296,1,108.75
295,316,79313,2,2,P|332:276|368:296,1,72.5
400,320,79713,6,0,L|456:288,1,36.25
444,232,79913,1,0,0:0:0:0:
444,160,80013,1,0,0:0:0:0:
362,294,80113,6,0,L|427:294,1,36.25
444,240,80313,1,0,0:0:0:0:
480,177,80413,1,0,0:0:0:0:
343,253,80513,6,0,L|398:285,1,36.25
441,247,80713,1,0,0:0:0:0:
503,211,80813,1,0,0:0:0:0:
460,152,80913,2,0,L|400:180,3,36.25
392,104,81313,5,0,0:0:0:0:
328,140,81413,1,0,0:0:0:0:
288,80,81513,1,0,0:0:0:0:
228,124,81613,1,0,0:0:0:0:
176,172,81713,6,0,L|112:148,1,36.25
116,228,81913,2,0,L|164:248,1,36.25
216,268,82113,5,0,0:0:0:0:
176,208,82213,1,0,0:0:0:0:
236,168,82313,1,0,0:0:0:0:
300,200,82413,1,0,0:0:0:0:
308,128,82513,1,0,0:0:0:0:
256,76,82613,1,0,0:0:0:0:
188,100,82713,1,0,0:0:0:0:
132,52,82813,1,0,0:0:0:0:
100,116,82913,6,8,L|100:172,1,36.25
136,152,83113,2,8,L|92:152,1,36.25
136,115,83313,2,8,L|136:159,1,36.25
100,116,83513,2,8,L|140:116,1,36.25
208,112,83713,6,0,L|208:160,3,36.25
208,220,84113,5,0,0:0:0:0:
244,220,84213,1,0,0:0:0:0:
280,292,84313,5,0,0:0:0:0:
244,292,84413,1,0,0:0:0:0:
136,292,84513,6,0,L|136:232,1,36.25
136,184,84713,2,0,L|136:136,1,36.25
136,128,84913,6,0,L|136:164,1,36.25
136,236,85113,2,0,L|136:272,1,36.25
136,344,85313,2,0,L|180:344,1,36.25
296,268,85513,6,0,B|52:444|728:-40|-144:-40|284:436|616:276|344:188,1,435
404,261,85913,1,0,0:0:0:0:
404,261,86013,1,0,0:0:0:0:
404,261,86113,1,0,0:0:0:0:
256,192,86213,12,0,87313,0:0:0:0:
272,144,87713,5,0,0:0:0:0:
329,144,87813,1,0,0:0:0:0:
240,144,87913,5,0,0:0:0:0:
182,144,88013,1,0,0:0:0:0:
266,132,88113,5,0,0:0:0:0:
302,132,88213,1,0,0:0:0:0:
246,132,88313,5,0,0:0:0:0:
210,132,88413,1,0,0:0:0:0:
256,240,88513,6,0,L|204:240,1,36.25
256,240,88613,6,0,L|256:304,1,36.25
256,240,88713,6,0,L|256:192,1,36.25
256,240,88813,6,0,L|308:240,1,36.25
256,240,88913,6,0,L|210:214,1,36.25
256,240,89013,6,0,L|224:295,1,36.25
256,240,89113,6,0,L|280:198,1,36.25
256,240,89213,6,0,L|301:266,1,36.25
356,152,89313,5,0,0:0:0:0:
356,152,89713,1,0,0:0:0:0:
356,296,89913,2,0,L|356:248,1,36.25
356,152,90113,5,0,0:0:0:0:
212,152,90313,1,0,0:0:0:0:
212,296,90513,1,0,0:0:0:0:
356,296,90713,1,0,0:0:0:0:
356,152,90913,6,0,L|316:152,1,36.25
356,152,91313,6,0,L|280:152,1,72.5
356,152,91713,6,0,L|244:152,1,108.75
247,152,92113,2,0,L|356:152,1,108.75
355,152,92513,2,0,L|356:220,1,36.25
356,260,92713,1,0,0:0:0:0:
140,188,92913,1,0,0:0:0:0:
236,296,93113,1,0,0:0:0:0:
355,152,93313,2,0,L|356:220,1,36.25
356,332,93513,5,0,0:0:0:0:
236,252,93713,1,0,0:0:0:0:
356,172,93913,1,0,0:0:0:0:
232,100,94113,1,0,0:0:0:0:
96,268,94313,5,0,0:0:0:0:
232,100,94513,1,0,0:0:0:0:
63,222,94713,5,0,0:0:0:0:
264,145,94913,1,0,0:0:0:0:
57,167,95113,6,0,L|104:176,1,36.25
270,200,95313,1,0,0:0:0:0:
416,316,95713,6,0,L|416:280,1,36.25
416,208,96113,2,0,L|416:168,1,36.25
416,316,96513,6,0,L|416:264,1,36.25
416,208,96713,1,0,0:0:0:0:
316,100,96913,1,0,0:0:0:0:
216,204,97113,1,0,0:0:0:0:
116,100,97313,6,0,B|88:156|88:156|120:208,1,108.75
112,195,97713,2,0,B|108:248|108:248|72:256,1,72.5
88,252,98113,2,0,B|112:304|112:304|176:304,1,108.75
164,304,98513,2,0,B|216:280|216:280|208:256,1,72.5
256,192,98913,12,0,101713,0:0:0:0:
256,192,102113,5,0,0:0:0:0:
256,192,102313,5,0,0:0:0:0:
400,196,102513,5,0,0:0:0:0:
112,196,102713,5,0,0:0:0:0:
256,192,102913,5,0,0:0:0:0:
400,196,103113,5,0,0:0:0:0:
256,192,103313,5,0,0:0:0:0:
112,196,103513,5,0,0:0:0:0:
112,196,103713,5,0,0:0:0:0:
400,196,103913,5,0,0:0:0:0:
256,192,104113,5,0,0:0:0:0:
256,192,104313,5,0,0:0:0:0:
256,192,104513,2,0,B|256:236|256:236|256:136,1,145
256,135,105313,2,0,B|296:152|296:152|232:184|232:184|300:216|300:216|232:256|232:256|232:304,1,290
232,276,106513,1,0,0:0:0:0:
256,132,106713,1,0,0:0:0:0:
232,276,106913,2,0,B|296:284|296:284|236:208|236:208|152:272|152:272|320:288,1,435
104,92,108513,5,0,0:0:0:0:
104,92,108713,5,0,0:0:0:0:
104,92,108913,5,0,0:0:0:0:
104,92,109113,5,0,0:0:0:0:
100,236,109313,5,0,0:0:0:0:
244,240,109513,5,0,0:0:0:0:
248,96,109713,5,0,0:0:0:0:
104,92,109913,5,0,0:0:0:0:
100,236,110113,5,0,0:0:0:0:
100,236,110313,5,0,0:0:0:0:
104,92,110513,5,0,0:0:0:0:
100,236,110713,5,0,0:0:0:0:
380,104,111313,5,0,0:0:0:0:
380,104,111513,1,0,0:0:0:0:
188,52,111713,6,0,B|268:76|268:76|156:204|156:204|300:248|376:100|376:100|332:312|340:300,1,725
196,308,113913,6,0,L|132:312,1,36.25
96,276,114113,2,0,L|60:248,1,36.25
60,180,114313,1,0,0:0:0:0:
104,112,114413,1,0,0:0:0:0:
180,88,114513,1,0,0:0:0:0:
260,100,114613,1,0,0:0:0:0:
312,160,114713,1,0,0:0:0:0:
332,236,114813,1,0,0:0:0:0:
380,288,114913,6,0,L|424:236,1,36.25
408,188,115113,2,0,L|448:140,1,36.25
380,96,115313,6,0,L|424:148,1,36.25
408,196,115513,2,0,L|448:244,1,36.25
396,288,115713,5,0,0:0:0:0:
332,320,115813,1,0,0:0:0:0:
260,308,115913,1,0,0:0:0:0:
216,252,116013,1,0,0:0:0:0:
220,180,116113,1,0,0:0:0:0:
276,132,116213,1,0,0:0:0:0:
348,136,116313,1,0,0:0:0:0:
416,108,116413,1,0,0:0:0:0:
376,48,116513,6,0,L|340:28,3,36.25
136,48,116913,6,0,L|172:28,3,36.25
376,48,117313,6,0,L|340:28,1,36.25
136,48,117513,6,0,L|172:28,1,36.25
344,30,117713,6,0,L|376:48,1,36.25
167,30,117913,6,0,L|136:48,1,36.25
288,124,118113,6,0,L|144:212,1,145
224,272,118313,6,0,L|347:196,1,145
300,130,118513,6,0,L|143:192,1,145
211,265,118713,6,0,L|346:212,1,145
311,139,118913,6,0,L|145:172,1,145
200,256,119113,6,0,L|342:227,1,145
320,149,119313,6,0,L|152:154,1,145
191,246,119513,6,0,L|336:242,1,145
328,161,119713,6,0,L|161:136,1,145
183,234,119913,6,0,L|327:255,1,145
327,255,120113,6,0,L|192:232,1,108.75
220,236,120513,2,0,L|292:248,1,72.5
291,247,120913,2,0,L|160:224,1,108.75
184,228,121313,6,0,L|248:240,1,36.25
256,300,121513,2,0,L|320:316,1,36.25
219,120,121713,6,0,L|208:184,1,36.25
148,192,121913,2,0,L|132:256,1,36.25
327,155,122113,6,0,L|264:144,1,36.25
256,84,122313,2,0,L|192:68,1,36.25
292,263,122513,6,0,L|304:200,1,36.25
364,192,122713,2,0,L|380:128,1,36.25
372,156,122913,6,0,L|364:192,1,36.25
299,227,123113,2,0,L|292:263,1,36.25
220,75,123314,6,0,L|256:84,1,36.25
291,148,123513,2,0,L|327:155,1,36.25
139,227,123714,6,0,L|148:192,1,36.25
212,156,123914,2,0,L|219:120,1,36.25
291,308,124113,6,0,L|256:300,1,36.25
220,235,124314,2,0,L|184:228,1,36.25
152,164,124513,5,0,0:0:0:0:
181,97,124613,1,0,0:0:0:0:
249,74,124713,1,0,0:0:0:0:
319,91,124813,1,0,0:0:0:0:
355,153,124913,1,0,0:0:0:0:
345,224,125013,1,0,0:0:0:0:
293,274,125113,1,0,0:0:0:0:
220,269,125213,1,0,0:0:0:0:
172,214,125313,1,0,0:0:0:0:
194,145,125413,1,0,0:0:0:0:
246,195,125513,5,0,0:0:0:0:
271,126,125613,1,0,0:0:0:0:
223,71,125713,1,0,0:0:0:0:
150,76,125813,1,0,0:0:0:0:
120,142,125913,1,0,0:0:0:0:
68,90,126013,1,0,0:0:0:0:
52,160,126113,6,0,L|38:202,1,36.25
106,224,126313,2,0,L|128:162,1,36.25
460,224,126513,6,0,L|474:182,1,36.25
406,160,126713,2,0,L|384:222,1,36.25
248,164,126913,6,0,L|270:226,16,36.25
140,284,127913,6,0,L|140:224,1,36.25
116,180,128113,2,0,L|116:248,1,36.25
184,244,128313,2,0,L|184:304,1,36.25
256,276,128513,2,0,L|308:276,13,36.25
228,144,128913,5,0,0:0:0:0:
228,108,129013,1,0,0:0:0:0:
156,72,129113,5,0,0:0:0:0:
152,108,129213,1,0,0:0:0:0:
228,72,129313,6,0,L|228:128,1,36.25
228,180,129513,2,0,L|296:180,1,36.25
336,180,129713,2,0,L|336:232,1,36.25
336,288,129913,2,0,L|376:288,1,36.25
284,72,130113,6,0,L|284:128,1,36.25
284,180,130313,2,0,L|216:180,1,36.25
176,180,130513,2,0,L|176:232,1,36.25
176,288,130713,2,0,L|112:288,1,36.25
284,72,130913,6,0,L|284:240,1,145
284,180,131113,2,0,L|136:180,1,145
176,180,131313,2,0,L|176:332,1,145
176,288,131513,2,0,L|24:288,1,145
228,72,131713,6,0,L|228:240,1,145
228,180,131913,2,0,L|376:180,1,145
336,180,132113,2,0,L|336:332,1,145
336,288,132313,2,0,L|488:288,1,145
481,288,132513,6,0,L|336:288,1,145
336,325,132713,2,0,L|336:180,1,145
373,180,132913,2,0,L|228:180,1,145
228,217,133113,2,0,L|228:72,1,145
284,72,133313,6,0,L|284:240,1,145
284,180,133513,2,0,L|136:180,1,145
176,180,133713,2,0,L|176:332,1,145
176,288,133913,2,0,L|24:288,1,145
28,216,134113,5,0,0:0:0:0:
28,144,134213,1,0,0:0:0:0:
100,144,134313,1,0,0:0:0:0:
100,216,134413,1,0,0:0:0:0:
172,216,134513,1,0,0:0:0:0:
172,144,134613,1,0,0:0:0:0:
244,144,134713,1,0,0:0:0:0:
244,216,134813,1,0,0:0:0:0:
316,216,134913,1,0,0:0:0:0:
316,144,135013,1,0,0:0:0:0:
388,144,135113,1,0,0:0:0:0:
388,216,135213,1,0,0:0:0:0:
460,216,135313,1,0,0:0:0:0:
460,144,135413,1,0,0:0:0:0:
460,72,135513,1,0,0:0:0:0:
388,72,135613,1,0,0:0:0:0:
416,168,135713,6,0,L|416:320,1,145
416,313,135913,2,0,L|268:372,1,145
281,366,136113,2,0,L|123:287,1,145
151,301,136313,2,0,L|151:143,1,145
151,156,136513,2,0,L|275:67,1,145
269,72,136713,2,0,L|403:155,1,145
392,149,136913,2,0,L|391:307,1,145
392,294,137113,2,0,L|392:149,1,145
388,76,137313,5,0,0:0:0:0:
336,124,137413,1,0,0:0:0:0:
284,176,137513,1,0,0:0:0:0:
236,124,137613,1,0,0:0:0:0:
180,168,137713,1,0,0:0:0:0:
124,216,137813,1,0,0:0:0:0:
176,268,137913,5,0,0:0:0:0:
232,220,138013,1,0,0:0:0:0:
284,176,138113,1,0,0:0:0:0:
236,120,138213,1,0,0:0:0:0:
288,72,138313,1,0,0:0:0:0:
344,28,138413,1,0,0:0:0:0:
396,80,138513,5,0,0:0:0:0:
340,128,138613,1,0,0:0:0:0:
284,176,138713,1,0,0:0:0:0:
340,220,138813,1,0,0:0:0:0:
400,260,138913,5,0,0:0:0:0:
340,220,139013,1,0,0:0:0:0:
284,176,139113,1,0,0:0:0:0:
228,132,139213,1,0,0:0:0:0:
172,84,139313,6,0,L|52:232,1,145
136,244,139513,2,0,L|248:108,1,145
284,176,139713,2,0,L|184:304,1,145
152,348,139913,1,0,0:0:0:0:
284,176,140113,5,0,0:0:0:0:
196,292,140213,1,0,0:0:0:0:
284,176,140313,1,0,0:0:0:0:
152,348,140513,5,0,0:0:0:0:
233,95,153313,5,0,0:0:0:0:
161,220,153413,1,0,0:0:0:0:
350,163,153513,5,0,0:0:0:0:
278,288,153613,1,0,0:0:0:0:
237,114,153713,5,0,0:0:0:0:
180,214,153813,1,0,0:0:0:0:
331,169,153913,5,0,0:0:0:0:
274,269,154013,1,0,0:0:0:0:
245,145,154113,5,0,0:0:0:0:
210,205,154213,1,0,0:0:0:0:
301,178,154313,5,0,0:0:0:0:
266,238,154413,1,0,0:0:0:0:
238,118,154513,5,0,0:0:0:0:
183,213,154613,1,0,0:0:0:0:
328,170,154713,5,0,0:0:0:0:
273,265,154813,1,0,0:0:0:0:
416,248,154913,6,0,P|292:324|268:296,1,145
109,118,155113,6,0,P|133:53|200:32,1,145
363,315,155313,6,0,P|217:319|211:283,1,145
162,50,155513,6,0,P|215:5|284:20,1,145
283,348,155713,6,0,P|155:279|167:244,1,145
242,18,155913,6,0,P|310:6|362:53,1,145
198,336,156113,6,0,P|122:212|150:188,1,145
327,30,156313,6,0,P|393:53|414:120,1,145
252,192,156513,5,0,0:0:0:0:
260,192,156613,5,0,0:0:0:0:
248,192,156713,5,0,0:0:0:0:
264,192,156813,5,0,0:0:0:0:
244,192,156913,5,0,0:0:0:0:
268,192,157013,5,0,0:0:0:0:
240,192,157113,5,0,0:0:0:0:
272,192,157213,5,0,0:0:0:0:
236,192,157313,5,0,0:0:0:0:
276,192,157413,5,0,0:0:0:0:
232,192,157513,5,0,0:0:0:0:
280,192,157613,5,0,0:0:0:0:
228,192,157713,5,0,0:0:0:0:
144,72,157813,5,0,0:0:0:0:
108,116,157913,1,0,0:0:0:0:
152,152,158013,1,0,0:0:0:0:
192,108,158113,1,0,0:0:0:0:
144,72,158213,5,0,0:0:0:0:
108,116,158313,1,0,0:0:0:0:
152,152,158413,1,0,0:0:0:0:
192,108,158513,1,0,0:0:0:0:
144,72,158613,5,0,0:0:0:0:
108,116,158713,1,0,0:0:0:0:
152,152,158813,1,0,0:0:0:0:
192,108,158913,1,0,0:0:0:0:
244,56,159013,5,0,0:0:0:0:
312,32,159113,1,0,0:0:0:0:
348,96,159213,1,0,0:0:0:0:
300,152,159313,1,0,0:0:0:0:
360,196,159413,1,0,0:0:0:0:
356,268,159513,1,0,0:0:0:0:
288,296,159613,1,0,0:0:0:0:
236,244,159713,6,0,L|92:316,1,145
108,316,159913,6,0,L|237:251,1,145
276,140,160113,6,0,L|420:68,1,145
404,68,160313,6,0,L|274:132,1,145
308,212,160513,6,0,L|380:356,1,145
380,340,160713,6,0,L|315:210,1,145
204,172,160913,6,0,L|132:28,1,145
132,44,161113,6,0,L|196:173,1,145
232,236,161313,5,0,0:0:0:0:
232,236,161413,1,0,0:0:0:0:
232,236,161513,1,0,0:0:0:0:
232,236,161613,1,0,0:0:0:0:
232,236,161713,1,0,0:0:0:0:
232,236,161813,1,0,0:0:0:0:
232,236,161913,1,0,0:0:0:0:
232,236,162013,1,0,0:0:0:0:
232,236,162113,1,0,0:0:0:0:
300,208,162213,5,0,0:0:0:0:
308,296,162313,1,0,0:0:0:0:
380,248,162413,1,0,0:0:0:0:
392,336,162513,1,0,0:0:0:0:
464,284,162613,5,0,0:0:0:0:
483,199,162713,1,0,0:0:0:0:
428,131,162813,1,0,0:0:0:0:
341,130,162913,1,0,0:0:0:0:
274,186,163013,1,0,0:0:0:0:
288,271,163113,1,0,0:0:0:0:
259,353,163213,1,0,0:0:0:0:
172,363,163313,1,0,0:0:0:0:
91,329,163413,1,0,0:0:0:0:
77,243,163513,1,0,0:0:0:0:
116,165,163613,1,0,0:0:0:0:
192,124,163713,1,0,0:0:0:0:
271,160,163813,1,0,0:0:0:0:
323,229,163913,1,0,0:0:0:0:
401,265,164013,1,0,0:0:0:0:
479,228,164113,1,0,0:0:0:0:
485,141,164213,1,0,0:0:0:0:
423,79,164313,1,0,0:0:0:0:
340,106,164413,1,0,0:0:0:0:
259,52,164513,5,0,0:0:0:0:
249,62,164613,5,0,0:0:0:0:
262,66,164713,5,0,0:0:0:0:
273,56,164813,5,0,0:0:0:0:
260,47,164913,5,0,0:0:0:0:
249,62,165013,5,0,0:0:0:0:
273,56,165113,5,0,0:0:0:0:
273,70,165213,5,0,0:0:0:0:
249,62,165313,5,0,0:0:0:0:
259,52,165413,5,0,0:0:0:0:
273,52,165513,5,0,0:0:0:0:
273,56,165613,5,0,0:0:0:0:
273,70,165713,5,0,0:0:0:0:
273,56,165813,5,0,0:0:0:0:
249,62,165913,5,0,0:0:0:0:
273,56,166013,5,0,0:0:0:0:
266,68,166113,5,0,0:0:0:0:
