osu file format v14

[General]
AudioFilename: audio.mp3
AudioLeadIn: 0
PreviewTime: 12490
Countdown: 0
SampleSet: Soft
StackLeniency: 0.4
Mode: 0
LetterboxInBreaks: 0
WidescreenStoryboard: 0

[Editor]
DistanceSpacing: 2
BeatDivisor: 4
GridSize: 4
TimelineZoom: 2.6

[Metadata]
Title:Mohyeongtop
TitleUnicode:모형탑♪
Artist:dj TAKA & Ungman & ZEKNO
ArtistUnicode:dj TAKA & Ungman & ZEKNO
Creator:[ZETA]
Version:Ultimate Happil
Source:DCinside
Tags:synthetic essential gallery true blue risk junk beatmania iidx 19 lincle jubeat saucer jukebeat konami music happy hardcore quaver
BeatmapID:2121810
BeatmapSetID:1013763

[Difficulty]
HPDrainRate:5
CircleSize:4
OverallDifficulty:9
ApproachRate:9.5
SliderMultiplier:1.4
SliderTickRate:1

[Events]
//Background and Video events
0,0,"Wallpaper.png",0,0
//Break Periods
//Storyboard Layer 0 (Background)
//Storyboard Layer 1 (Fail)
//Storyboard Layer 2 (Pass)
//Storyboard Layer 3 (Foreground)
//Storyboard Sound Samples

[TimingPoints]
788,659.340659340659,4,2,1,20,1,0
788,-75.7575757575758,4,2,1,40,0,0
5403,329.67032967033,4,2,1,40,1,0
6062,329.67032967033,4,2,1,40,1,0
7380,-75.187969924812,4,2,1,40,0,0
12655,-75.187969924812,4,2,1,60,0,0
15292,-73.5294117647059,4,2,1,60,0,0
15952,-81.3008130081301,4,2,1,60,0,0
17270,-73.5294117647059,4,2,1,60,0,0
20567,-69.9300699300699,4,2,1,60,0,0
21226,-76.9230769230769,4,2,1,60,0,0
22545,-69.9300699300699,4,2,1,60,0,0
25842,-49.0196078431373,4,2,1,60,0,0
26501,-54.3478260869565,4,2,1,60,0,0
27820,-49.0196078431373,4,2,1,60,0,0
31116,-100,4,2,1,60,0,0
31776,-111.111111111111,4,2,1,60,0,0
33094,-100,4,2,1,60,0,0
35072,-100,4,2,1,40,0,0
39358,-117.647058823529,4,2,1,40,0,0
40018,-142.857142857143,4,2,1,40,0,0
44303,-66.6666666666667,4,2,1,40,0,0
57491,326.086956521739,4,2,1,60,1,0
60099,-52.6315789473684,4,2,1,60,0,0
60751,-58.4795321637427,4,2,1,60,0,0
62056,-52.6315789473684,4,2,1,60,0,0
65317,-41.6666666666667,4,2,1,60,0,0
65969,-46.2962962962963,4,2,1,60,0,0
67273,-41.6666666666667,4,2,1,60,0,0
70534,-50,4,2,1,60,0,0
71186,-55.5555555555556,4,2,1,60,0,0
72491,-50,4,2,1,60,0,0
75751,-57.1428571428571,4,2,1,60,0,0
76404,-63.6942675159236,4,2,1,60,0,0
77708,-57.1428571428571,4,2,1,60,0,0
78360,-100,4,2,1,60,0,0
82273,322.58064516129,4,2,1,80,1,1
84853,-50,4,2,1,80,0,1
85498,-55.5555555555556,4,2,1,80,0,1
86789,-50,4,2,1,80,0,1
90014,-41.6666666666667,4,2,1,80,0,1
90660,-46.2962962962963,4,2,1,80,0,1
91950,-41.6666666666667,4,2,1,80,0,1
95821,-46.2962962962963,4,2,1,80,0,1
97111,-41.6666666666667,4,2,1,80,0,1
97756,-100,4,2,1,80,0,1
102272,-25,4,2,1,80,0,1
102918,-25,4,2,1,80,0,1
104047,-25,4,2,1,80,0,0
104208,-25,4,2,1,60,0,0
105014,-25,4,2,1,49,0,0
105498,-25,4,2,1,38,0,0
105982,-25,4,2,1,27,0,0
106466,-25,4,2,1,16,0,0
106950,-25,4,2,1,5,0,0

[Colours]
Combo1 : 0,128,192
Combo2 : 255,127,127
Combo3 : 255,255,64
Combo4 : 200,117,255
Combo5 : 115,217,188

[HitObjects]
24,128,788,6,0,P|0:64|24:0,2,138.599999577026,0|0|0,2:0|2:0|2:0,2:0:0:0:
488,256,2106,2,0,P|512:192|488:128,2,138.599999577026,0|0|0,2:0|2:0|2:0,2:0:0:0:
23,383,3425,2,0,P|0:319|24:256,2,138.599999577026,0|0|0,2:0|2:0|2:0,2:0:0:0:
512,352,4744,1,0,2:0:0:0:
80,320,5073,1,0,2:0:0:0:
256,0,5403,5,8,2:0:0:0:
256,24,5485,1,8,2:0:0:0:
256,48,5568,1,8,2:0:0:0:
256,72,5650,1,8,2:0:0:0:
256,96,5732,5,0,2:0:0:0:
256,192,5897,1,2,2:0:0:0:
324,256,6062,6,0,P|359:265|398:255,1,70,4|0,2:0|2:0,2:0:0:0:
189,260,6391,2,0,P|180:296|189:334,1,70,0|0,2:0|2:0,2:0:0:0:
185,125,6721,2,0,P|149:116|111:125,1,70,0|0,2:0|2:0,2:0:0:0:
320,121,7050,2,0,P|329:86|320:47,1,70,0|0,2:0|2:0,2:0:0:0:
425,270,7380,6,0,P|380:282|335:271,1,93.0999961643983,0|0,2:0|2:0,2:0:0:0:
173,361,7710,2,0,P|162:316|173:271,1,93.0999961643983,0|0,2:0|2:0,2:0:0:0:
84,109,8039,2,0,P|129:98|173:109,1,93.0999961643983,0|0,2:0|2:0,2:0:0:0:
336,20,8369,2,0,P|347:64|336:109,1,93.0999961643983,0|0,2:0|2:0,2:0:0:0:
128,224,8699,1,6,2:0:0:0:
128,224,9029,6,0,L|128:320,1,93.0999961643983,0|2,2:0|2:0,2:0:0:0:
384,160,9358,1,6,2:0:0:0:
384,160,9688,6,0,L|384:64,1,93.0999961643983,0|2,2:0|2:0,2:0:0:0:
512,317,10018,1,6,2:0:0:0:
512,317,10347,6,0,L|512:224,1,93.0999961643983,6|2,2:0|2:0,2:0:0:0:
0,66,10677,2,0,L|0:113,1,46.5499980821992,6|2,2:0|2:0,2:0:0:0:
0,224,10924,6,0,L|0:270,1,46.5499980821992,2|6,2:0|2:0,2:0:0:0:
0,381,11171,1,2,2:0:0:0:
256,192,11336,12,0,12325,2:0:0:0:
256,328,12655,5,6,2:0:0:0:
256,55,12820,1,0,2:0:0:0:
256,341,12985,5,8,2:0:0:0:
256,41,13150,1,0,2:0:0:0:
256,355,13314,5,2,2:0:0:0:
256,27,13479,1,0,2:0:0:0:
256,369,13644,5,8,2:0:0:0:
256,13,13809,1,0,2:0:0:0:
256,382,13974,5,2,2:0:0:0:
256,0,14139,1,0,2:0:0:0:
390,326,14303,5,8,2:0:0:0:
120,56,14468,1,0,2:0:0:0:
446,192,14633,5,2,2:0:0:0:
64,192,14798,1,0,2:0:0:0:
390,56,14963,5,8,2:0:0:0:
120,326,15128,1,0,2:0:0:0:
49,99,15292,6,0,B|49:148|49:148|65:194,1,95.2000005810547,2|0,2:0|2:0,2:0:0:0:
256,0,15622,1,8,2:0:0:0:
256,382,15787,1,0,2:0:0:0:
69,127,15952,6,0,B|69:171|69:171|83:212,1,86.1000013137818,2|0,2:0|2:0,2:0:0:0:
256,37,16281,1,8,2:0:0:0:
256,382,16446,1,0,2:0:0:0:
440,127,16611,6,0,B|440:171|440:171|425:212,1,86.1000013137818,2|0,2:0|2:0,2:0:0:0:
256,37,16940,1,8,2:0:0:0:
256,382,17106,1,0,2:0:0:0:
461,99,17270,6,0,B|461:148|461:148|444:194,1,95.2000005810547,2|0,2:0|2:0,2:0:0:0:
256,0,17599,1,8,2:0:0:0:
256,382,17765,1,0,2:0:0:0:
89,285,17930,5,6,2:0:0:0:
420,285,18095,1,0,2:0:0:0:
256,0,18259,1,8,2:0:0:0:
160,356,18424,5,0,2:0:0:0:
445,192,18589,1,2,2:0:0:0:
160,25,18753,1,0,2:0:0:0:
256,381,18919,5,8,2:0:0:0:
420,96,19084,1,0,2:0:0:0:
89,96,19248,1,2,2:0:0:0:
349,356,19413,5,0,2:0:0:0:
349,25,19578,1,8,2:0:0:0:
64,192,19742,1,0,2:0:0:0:
420,285,19908,5,2,2:0:0:0:
256,0,20073,1,0,2:0:0:0:
89,285,20237,1,8,2:0:0:0:
420,285,20402,1,0,2:0:0:0:
31,99,20567,6,0,B|31:151|64:192,1,100.100001374664,2|0,2:0|2:0,2:0:0:0:
256,0,20897,1,8,2:0:0:0:
256,382,21062,1,0,2:0:0:0:
54,90,21226,6,0,B|54:136|83:173,1,90.9999958343508,2|0,2:0|2:0,2:0:0:0:
256,0,21556,1,8,2:0:0:0:
256,344,21721,1,0,2:0:0:0:
458,90,21886,6,0,B|458:136|428:173,1,90.9999958343508,2|0,2:0|2:0,2:0:0:0:
256,0,22216,1,8,2:0:0:0:
256,344,22381,1,0,2:0:0:0:
478,99,22545,6,0,B|478:151|445:192,1,100.100001374664,2|0,2:0|2:0,2:0:0:0:
256,0,22875,1,8,2:0:0:0:
256,382,23040,1,0,2:0:0:0:
64,192,23204,5,6,2:0:0:0:
446,192,23369,1,0,2:0:0:0:
83,174,23534,5,8,2:0:0:0:
426,211,23699,1,0,2:0:0:0:
106,161,23864,5,2,2:0:0:0:
403,224,24029,1,0,2:0:0:0:
127,152,24193,5,8,2:0:0:0:
382,233,24358,1,0,2:0:0:0:
151,147,24523,5,2,2:0:0:0:
358,238,24688,1,0,2:0:0:0:
138,125,24853,5,8,2:0:0:0:
371,260,25018,1,0,2:0:0:0:
130,103,25182,5,2,2:0:0:0:
379,282,25347,1,0,2:0:0:0:
127,77,25512,5,8,2:0:0:0:
382,308,25677,1,0,2:0:0:0:
126,51,25842,6,0,B|126:9|126:9|176:101,1,142.800000871582,2|0,2:0|2:0,2:0:0:0:
256,240,26171,1,8,2:0:0:0:
0,192,26336,1,0,2:0:0:0:
138,70,26501,6,0,B|138:33|138:33|183:115,1,128.79999567627,2|0,2:0|2:0,2:0:0:0:
256,240,26830,1,8,2:0:0:0:
25,197,26995,1,0,2:0:0:0:
371,70,27160,6,0,B|371:33|371:33|325:115,1,128.79999567627,2|0,2:0|2:0,2:0:0:0:
256,240,27489,1,8,2:0:0:0:
486,197,27654,1,0,2:0:0:0:
384,51,27820,6,0,B|384:9|384:9|334:101,1,142.800000871582,2|0,2:0|2:0,2:0:0:0:
256,240,28148,1,8,2:0:0:0:
512,192,28313,1,0,2:0:0:0:
256,0,28479,5,6,2:0:0:0:
120,327,28644,1,0,2:0:0:0:
447,192,28809,5,8,2:0:0:0:
120,56,28974,1,0,2:0:0:0:
256,383,29138,5,2,2:0:0:0:
391,56,29303,1,0,2:0:0:0:
64,191,29468,5,8,2:0:0:0:
391,327,29633,1,0,2:0:0:0:
256,31,29798,5,2,2:0:0:0:
142,305,29963,1,0,2:0:0:0:
416,192,30128,5,8,2:0:0:0:
142,78,30292,1,0,2:0:0:0:
256,352,30457,5,2,2:0:0:0:
369,78,30622,1,0,2:0:0:0:
95,191,30787,5,8,2:0:0:0:
369,305,30952,1,0,2:0:0:0:
370,78,31116,6,0,L|340:148,1,70,2|0,2:0|2:0,2:0:0:0:
256,352,31446,1,8,2:0:0:0:
490,178,31611,1,0,2:0:0:0:
359,106,31776,6,0,L|332:168,1,62.9999980773926,2|0,2:0|2:0,2:0:0:0:
256,352,32106,1,8,2:0:0:0:
466,195,32271,1,0,2:0:0:0:
153,106,32435,6,0,L|179:168,1,62.9999980773926,2|0,2:0|2:0,2:0:0:0:
256,352,32765,1,8,2:0:0:0:
46,195,32930,1,0,2:0:0:0:
142,78,33094,6,0,L|172:148,1,70,2|0,2:0|2:0,2:0:0:0:
256,352,33424,1,8,2:0:0:0:
22,178,33589,1,0,2:0:0:0:
256,192,33754,12,0,34743,2:0:0:0:
512,192,35072,6,0,P|512:228|496:260,1,70,6|0,2:0|2:0,2:0:0:0:
436,210,35402,2,0,P|410:235|376:246,1,70,8|0,2:0|2:0,2:0:0:0:
369,168,35732,2,0,P|332:167|301:151,1,70,2|0,2:0|2:0,2:0:0:0:
351,90,36062,2,0,P|326:64|314:30,1,70,8|0,2:0|2:0,2:0:0:0:
0,192,36391,6,0,P|0:156|16:124,1,70,2|0,2:0|2:0,2:0:0:0:
76,174,36721,2,0,P|102:149|136:138,1,70,8|0,2:0|2:0,2:0:0:0:
143,216,37051,2,0,P|179:216|210:232,1,70,2|0,2:0|2:0,2:0:0:0:
161,294,37381,2,0,P|186:319|197:354,1,70,8|0,2:0|2:0,2:0:0:0:
449,109,37710,5,2,2:0:0:0:
63,275,37875,1,0,2:0:0:0:
216,100,38040,2,0,L|264:40,1,70,8|0,2:0|2:0,2:0:0:0:
63,275,38369,5,2,2:0:0:0:
449,109,38534,1,0,2:0:0:0:
296,284,38699,2,0,L|248:344,1,70,8|0,2:0|2:0,2:0:0:0:
91,262,39029,5,2,2:0:0:0:
420,121,39194,1,0,2:0:0:0:
290,270,39359,2,0,L|249:321,1,59.5000011348725,8|0,2:0|2:0,2:0:0:0:
121,250,39688,5,2,2:0:0:0:
390,133,39853,1,0,2:0:0:0:
283,256,40018,2,0,L|250:298,1,48.9999985046387,8|0,2:0|2:0,2:0:0:0:
259,89,40347,6,0,L|229:128,1,48.9999985046387,6|0,2:0|2:0,2:0:0:0:
132,112,40677,2,0,L|163:74,1,48.9999985046387,8|0,2:0|2:0,2:0:0:0:
267,97,41007,6,0,L|237:136,1,48.9999985046387,2|0,2:0|2:0,2:0:0:0:
140,120,41337,2,0,L|171:82,1,48.9999985046387,8|0,2:0|2:0,2:0:0:0:
275,105,41666,6,0,L|245:144,1,48.9999985046387,2|0,2:0|2:0,2:0:0:0:
148,128,41996,2,0,L|179:90,1,48.9999985046387,8|0,2:0|2:0,2:0:0:0:
283,113,42326,6,0,L|253:152,1,48.9999985046387,2|0,2:0|2:0,2:0:0:0:
156,136,42656,2,0,L|187:98,1,48.9999985046387,8|0,2:0|2:0,2:0:0:0:
291,121,42985,6,0,L|261:160,1,48.9999985046387,2|0,2:0|2:0,2:0:0:0:
360,176,43314,2,0,L|329:214,1,48.9999985046387,8|0,2:0|2:0,2:0:0:0:
268,288,43644,6,0,L|298:326,1,48.9999985046387,2|0,2:0|2:0,2:0:0:0:
199,342,43974,2,0,L|229:380,1,48.9999985046387,8|0,2:0|2:0,2:0:0:0:
384,211,44303,5,8,2:0:0:0:
253,26,44468,1,8,2:0:0:0:
67,156,44633,1,8,2:0:0:0:
199,342,44798,1,8,2:0:0:0:
408,215,44963,5,8,2:0:0:0:
257,1,45127,1,8,2:0:0:0:
42,151,45293,1,8,2:0:0:0:
194,366,45457,1,8,2:0:0:0:
225,183,45622,5,6,2:0:0:0:
257,1,45952,6,0,P|268:52|256:104,1,105.000004005432,8|0,2:0|2:0,2:0:0:0:
367,302,46281,6,0,P|317:286|278:249,1,105.000004005432,2|0,2:0|2:0,2:0:0:0:
51,247,46611,6,0,P|89:211|140:196,1,105.000004005432,8|0,2:0|2:0,2:0:0:0:
279,250,46941,5,2,2:0:0:0:
223,269,47023,1,0,2:0:0:0:
167,247,47105,1,2,2:0:0:0:
139,196,47188,1,0,2:0:0:0:
150,137,47270,1,10,2:0:0:0:
196,100,47353,1,0,2:0:0:0:
256,102,47435,1,2,2:0:0:0:
300,141,47518,1,0,2:0:0:0:
309,199,47600,1,2,2:0:0:0:
225,183,47765,5,0,2:0:0:0:
363,266,47930,1,8,2:0:0:0:
375,99,48259,5,2,2:0:0:0:
75,267,48589,1,8,2:0:0:0:
141,33,48919,5,2,2:0:0:0:
309,333,49249,1,8,2:0:0:0:
271,17,49578,6,0,L|257:67,1,52.5000020027161,2|0,2:0|2:0,2:0:0:0:
178,348,49743,2,0,L|193:293,1,52.5000020027161,2|0,2:0|2:0,2:0:0:0:
59,136,49908,6,0,L|114:151,1,52.5000020027161,10|0,2:0|2:0,2:0:0:0:
390,229,50073,2,0,L|335:214,1,52.5000020027161,2|0,2:0|2:0,2:0:0:0:
257,67,50237,5,2,2:0:0:0:
339,215,50402,1,0,2:0:0:0:
109,149,50567,1,8,2:0:0:0:
191,297,50732,1,0,2:0:0:0:
271,17,50897,5,6,2:0:0:0:
178,348,51062,1,0,2:0:0:0:
338,55,51226,5,8,2:0:0:0:
254,353,51391,1,0,2:0:0:0:
405,94,51556,5,2,2:0:0:0:
331,358,51721,1,0,2:0:0:0:
473,132,51886,5,8,2:0:0:0:
407,364,52051,1,0,2:0:0:0:
256,251,52215,6,0,P|256:224|244:192,1,52.5000020027161,2|0,2:0|2:0,2:0:0:0:
191,19,52380,6,0,P|191:46|203:78,1,52.5000020027161,2|0,2:0|2:0,2:0:0:0:
328,194,52545,6,0,P|309:174|278:160,1,52.5000020027161,10|0,2:0|2:0,2:0:0:0:
118,75,52710,6,0,P|137:95|168:109,1,52.5000020027161,2|0,2:0|2:0,2:0:0:0:
339,102,52875,6,0,P|312:102|280:114,1,52.5000020027161,2|0,2:0|2:0,2:0:0:0:
107,167,53040,6,0,P|134:167|166:155,1,52.5000020027161,2|0,2:0|2:0,2:0:0:0:
282,29,53205,6,0,P|263:49|249:80,1,52.5000020027161,10|0,2:0|2:0,2:0:0:0:
164,240,53370,6,0,P|183:220|197:189,1,52.5000020027161,2|0,2:0|2:0,2:0:0:0:
190,18,53534,5,2,2:0:0:0:
255,250,53699,1,0,2:0:0:0:
166,42,53864,5,8,2:0:0:0:
231,274,54029,1,0,2:0:0:0:
142,66,54193,5,2,2:0:0:0:
207,298,54358,1,0,2:0:0:0:
118,90,54523,5,8,2:0:0:0:
183,322,54688,1,0,2:0:0:0:
224,0,54853,5,6,2:0:0:0:
158,232,55018,1,4,2:0:0:0:
232,244,55347,5,6,2:0:0:0:
292,36,55512,1,4,2:0:0:0:
360,72,55842,5,6,2:0:0:0:
306,256,56007,1,4,2:0:0:0:
380,268,56336,5,6,2:0:0:0:
428,108,56501,1,4,2:0:0:0:
288,384,56831,5,6,2:0:0:0:
354,152,56996,1,2,2:0:0:0:
120,210,57160,1,2,2:0:0:0:
368,347,57491,5,6,2:0:0:0:
256,0,57654,1,0,2:0:0:0:
143,347,57817,1,8,2:0:0:0:
438,132,57980,1,0,2:0:0:0:
73,132,58143,1,2,2:0:0:0:
315,374,58306,5,0,2:0:0:0:
315,9,58469,1,8,2:0:0:0:
100,304,58632,1,0,2:0:0:0:
447,192,58795,1,2,2:0:0:0:
100,79,58958,1,0,2:0:0:0:
255,383,59121,5,8,2:0:0:0:
368,36,59284,1,0,2:0:0:0:
73,251,59447,1,2,2:0:0:0:
438,251,59610,1,0,2:0:0:0:
143,36,59773,1,8,2:0:0:0:
255,383,59936,1,0,2:0:0:0:
442,5,60099,6,0,B|432:52|432:52|444:76|444:76|432:140,1,132.999996448517,2|0,2:0|2:0,2:0:0:0:
384,384,60425,1,8,2:0:0:0:
256,192,60588,1,0,2:0:0:0:
423,23,60751,6,0,B|414:66|414:66|425:87|425:87|414:145,1,119.700003744278,2|0,2:0|2:0,2:0:0:0:
371,364,61077,1,8,2:0:0:0:
256,192,61240,1,0,2:0:0:0:
88,23,61404,6,0,B|97:66|97:66|86:87|86:87|97:145,1,119.700003744278,2|0,2:0|2:0,2:0:0:0:
140,364,61730,1,8,2:0:0:0:
256,192,61893,1,0,2:0:0:0:
70,5,62056,6,0,B|80:52|80:52|68:76|68:76|80:140,1,132.999996448517,2|0,2:0|2:0,2:0:0:0:
128,384,62382,1,8,2:0:0:0:
256,192,62545,1,0,2:0:0:0:
384,384,62708,5,6,2:0:0:0:
256,168,62871,1,0,2:0:0:0:
128,384,63034,5,8,2:0:0:0:
256,144,63197,1,0,2:0:0:0:
384,384,63360,5,2,2:0:0:0:
256,120,63523,1,0,2:0:0:0:
128,384,63686,5,8,2:0:0:0:
256,96,63849,1,0,2:0:0:0:
384,384,64012,5,2,2:0:0:0:
256,72,64175,1,0,2:0:0:0:
128,384,64338,5,8,2:0:0:0:
256,48,64501,1,0,2:0:0:0:
384,384,64664,5,2,2:0:0:0:
256,24,64827,1,0,2:0:0:0:
128,384,64991,5,8,2:0:0:0:
256,0,65153,1,0,2:0:0:0:
407,81,65317,6,0,B|405:132|405:132|420:156|420:156|402:181|402:181|396:242,1,167.999994873047,2|0,2:0|2:0,2:0:0:0:
384,384,65643,1,8,2:0:0:0:
256,192,65806,1,0,2:0:0:0:
392,92,65969,6,0,B|390:138|390:138|403:159|403:159|387:182|387:182|382:236,1,151.200003691406,2|0,2:0|2:0,2:0:0:0:
371,364,66295,1,8,2:0:0:0:
256,192,66458,1,0,2:0:0:0:
119,92,66621,6,0,B|121:138|121:138|108:159|108:159|124:182|124:182|129:236,1,151.200003691406,2|0,2:0|2:0,2:0:0:0:
140,364,66947,1,8,2:0:0:0:
256,192,67110,1,0,2:0:0:0:
104,81,67273,6,0,B|106:132|106:132|92:156|92:156|109:181|109:181|115:242,1,167.999994873047,2|0,2:0|2:0,2:0:0:0:
128,384,67599,1,8,2:0:0:0:
256,192,67762,1,0,2:0:0:0:
64,192,67925,5,6,2:0:0:0:
256,384,68088,1,0,2:0:0:0:
448,192,68251,1,8,2:0:0:0:
256,0,68414,1,0,2:0:0:0:
79,116,68577,5,2,2:0:0:0:
180,368,68740,1,0,2:0:0:0:
432,267,68903,1,8,2:0:0:0:
331,15,69066,1,0,2:0:0:0:
120,56,69230,5,2,2:0:0:0:
120,327,69393,1,0,2:0:0:0:
391,327,69556,1,8,2:0:0:0:
391,56,69719,1,0,2:0:0:0:
184,13,69882,5,2,2:0:0:0:
77,263,70045,1,0,2:0:0:0:
327,370,70208,1,8,2:0:0:0:
434,120,70371,1,0,2:0:0:0:
184,13,70534,6,0,B|204:56|182:78|161:98|183:151,1,140,2|0,2:0|2:0,2:0:0:0:
256,384,70860,1,8,2:0:0:0:
77,263,71023,1,0,2:0:0:0:
192,51,71186,6,0,B|209:89|190:109|172:127|191:175,1,125.999996154785,2|0,2:0|2:0,2:0:0:0:
256,384,71512,1,8,2:0:0:0:
95,275,71675,1,0,2:0:0:0:
320,51,71838,6,0,B|302:89|321:109|339:127|320:175,1,125.999996154785,2|0,2:0|2:0,2:0:0:0:
256,384,72164,1,8,2:0:0:0:
417,275,72327,1,0,2:0:0:0:
328,13,72491,6,0,B|308:56|329:78|350:98|328:151,1,140,2|0,2:0|2:0,2:0:0:0:
256,384,72817,1,8,2:0:0:0:
435,263,72980,1,0,2:0:0:0:
49,384,73143,5,6,2:0:0:0:
256,323,73306,1,0,2:0:0:0:
463,320,73469,5,8,2:0:0:0:
256,259,73632,1,0,2:0:0:0:
49,252,73795,5,2,2:0:0:0:
256,191,73958,1,0,2:0:0:0:
463,188,74121,5,8,2:0:0:0:
256,127,74284,1,0,2:0:0:0:
49,120,74447,5,2,2:0:0:0:
256,59,74610,1,0,2:0:0:0:
49,120,74773,5,8,2:0:0:0:
258,170,74936,1,0,2:0:0:0:
49,120,75099,5,2,2:0:0:0:
205,268,75262,1,0,2:0:0:0:
49,120,75425,5,8,2:0:0:0:
110,325,75588,1,0,2:0:0:0:
120,56,75751,6,0,B|148:84|148:84|136:168,1,122.500001168251,2|0,2:0|2:0,2:0:0:0:
110,325,76077,1,8,2:0:0:0:
256,384,76241,1,0,2:0:0:0:
133,89,76404,6,0,B|158:114|158:114|148:190,1,109.900000419235,2|0,2:0|2:0,2:0:0:0:
124,331,76730,1,8,2:0:0:0:
256,384,76894,1,0,2:0:0:0:
378,89,77056,6,0,B|353:114|353:114|363:190,1,109.900000419235,2|0,2:0|2:0,2:0:0:0:
387,331,77382,1,8,2:0:0:0:
256,384,77546,1,0,2:0:0:0:
392,56,77708,6,0,B|364:84|364:84|376:168,1,122.500001168251,2|0,2:0|2:0,2:0:0:0:
402,325,78034,1,8,2:0:0:0:
256,384,78198,1,0,2:0:0:0:
110,325,78360,6,0,L|60:304,7,35,2|0|0|0|2|0|0|0,2:0|2:0|2:0|2:0|2:0|2:0|2:0|2:0,2:0:0:0:
80,282,79012,2,0,L|37:249,7,35,2|0|0|0|2|0|0|0,2:0|2:0|2:0|2:0|2:0|2:0|2:0|2:0,2:0:0:0:
63,234,79664,2,0,L|53:221,14,17.5,2|0|0|0|0|0|0|0|2|0|0|0|0|0|0,2:0|2:0|2:0|2:0|2:0|2:0|2:0|2:0|2:0|2:0|2:0|2:0|2:0|2:0|2:0,2:0:0:0:
58,182,80317,6,0,L|53:170,28,8.75,2|0|0|0|0|0|0|0|0|0|0|0|0|0|0|0|2|0|0|0|0|0|0|0|0|0|0|0|0,2:0|2:0|2:0|2:0|2:0|2:0|2:0|2:0|2:0|2:0|2:0|2:0|2:0|2:0|2:0|2:0|2:0|2:0|2:0|2:0|2:0|2:0|2:0|2:0|2:0|2:0|2:0|2:0|2:0,2:0:0:0:
256,192,80969,12,0,81947,2:0:0:0:
25,19,82273,5,6,2:0:0:0:
119,364,82434,1,0,2:0:0:0:
241,19,82595,5,8,2:0:0:0:
148,364,82756,1,0,2:0:0:0:
270,19,82918,5,2,2:0:0:0:
363,364,83079,1,0,2:0:0:0:
486,19,83241,5,8,2:0:0:0:
392,364,83402,1,0,2:0:0:0:
512,0,83563,5,2,2:0:0:0:
408,384,83724,1,0,2:0:0:0:
272,0,83885,5,8,2:0:0:0:
376,384,84046,1,0,2:0:0:0:
240,0,84208,5,2,2:0:0:0:
136,384,84369,1,0,2:0:0:0:
0,0,84531,5,8,2:0:0:0:
104,384,84692,1,0,2:0:0:0:
458,76,84853,6,0,B|430:89|418:120|418:120|417:163|388:194,1,140,2|0,2:0|2:0,2:0:0:0:
256,326,85176,1,8,2:0:0:0:
256,57,85337,1,0,2:0:0:0:
438,75,85498,6,0,B|412:86|402:114|402:114|401:153|375:181,1,125.999996154785,2|0,2:0|2:0,2:0:0:0:
256,299,85821,1,8,2:0:0:0:
256,57,85982,1,0,2:0:0:0:
74,75,86143,6,0,B|99:86|109:114|109:114|110:153|136:181,1,125.999996154785,2|0,2:0|2:0,2:0:0:0:
256,299,86466,1,8,2:0:0:0:
256,57,86627,1,0,2:0:0:0:
54,76,86789,6,0,B|82:89|94:120|94:120|95:163|124:194,1,140,2|0,2:0|2:0,2:0:0:0:
256,326,87112,1,8,2:0:0:0:
256,57,87273,1,0,2:0:0:0:
256,326,87434,5,6,2:0:0:0:
390,192,87595,1,0,2:0:0:0:
256,57,87756,1,8,2:0:0:0:
121,192,87917,1,0,2:0:0:0:
256,345,88079,5,2,2:0:0:0:
409,192,88240,1,0,2:0:0:0:
256,38,88401,1,8,2:0:0:0:
102,192,88562,1,0,2:0:0:0:
256,364,88724,5,2,2:0:0:0:
428,192,88885,1,0,2:0:0:0:
256,19,89046,1,8,2:0:0:0:
83,192,89207,1,0,2:0:0:0:
256,383,89369,5,2,2:0:0:0:
447,192,89530,1,0,2:0:0:0:
256,0,89691,1,8,2:0:0:0:
64,191,89853,1,0,2:0:0:0:
447,38,90014,6,0,B|439:82|471:112|471:112|439:146|447:198,1,167.999994873047,2|0,2:0|2:0,2:0:0:0:
447,384,90337,1,8,2:0:0:0:
256,192,90498,1,0,2:0:0:0:
427,54,90660,6,0,B|419:93|448:120|448:120|419:151|427:197,1,151.200003691406,2|0,2:0|2:0,2:0:0:0:
427,365,90983,1,8,2:0:0:0:
256,192,91144,1,0,2:0:0:0:
85,54,91305,6,0,B|92:93|63:120|63:120|92:151|85:197,1,151.200003691406,2|0,2:0|2:0,2:0:0:0:
85,365,91628,1,8,2:0:0:0:
256,192,91789,1,0,2:0:0:0:
65,38,91950,6,0,B|73:82|41:112|41:112|73:146|65:198,1,167.999994873047,2|0,2:0|2:0,2:0:0:0:
65,384,92273,1,8,2:0:0:0:
256,192,92434,1,0,2:0:0:0:
255,345,92595,5,6,2:0:0:0:
346,67,92756,1,0,2:0:0:0:
110,239,92918,1,8,2:0:0:0:
401,239,93079,1,0,2:0:0:0:
165,67,93240,1,2,2:0:0:0:
255,364,93402,5,0,2:0:0:0:
357,52,93563,1,8,2:0:0:0:
91,245,93724,1,0,2:0:0:0:
420,245,93885,1,2,2:0:0:0:
154,52,94047,1,0,2:0:0:0:
255,383,94208,5,8,2:0:0:0:
368,36,94369,1,0,2:0:0:0:
73,251,94531,1,2,2:0:0:0:
438,251,94692,1,0,2:0:0:0:
143,36,94853,1,8,2:0:0:0:
255,383,95014,1,0,2:0:0:0:
368,36,95176,6,0,B|356:60|364:88|364:88|348:104|348:104|364:152|340:192,1,167.999994873047,2|0,2:0|2:0,2:0:0:0:
255,383,95498,1,8,2:0:0:0:
512,192,95660,1,0,2:0:0:0:
357,72,95821,6,0,B|346:93|353:118|353:118|339:133|339:133|353:176|331:212,1,151.200003691406,2|0,2:0|2:0,2:0:0:0:
255,383,96143,1,8,2:0:0:0:
486,212,96305,1,0,2:0:0:0:
155,72,96466,6,0,B|165:93|158:118|158:118|172:133|172:133|158:176|180:212,1,151.200003691406,2|0,2:0|2:0,2:0:0:0:
257,383,96788,1,8,2:0:0:0:
26,212,96950,1,0,2:0:0:0:
144,36,97111,6,0,B|156:60|148:88|148:88|164:104|164:104|148:152|172:192,1,167.999994873047,2|0,2:0|2:0,2:0:0:0:
257,383,97433,1,8,2:0:0:0:
0,192,97595,1,0,2:0:0:0:
293,65,97756,6,0,L|326:49,7,35,4|0|0|0|0|0|0|0,2:0|2:0|2:0|2:0|2:0|2:0|2:0|2:0,2:0:0:0:
334,85,98402,2,0,L|371:82,7,35,0|0|0|0|0|0|0|0,2:0|2:0|2:0|2:0|2:0|2:0|2:0|2:0,2:0:0:0:
365,118,99047,2,0,L|401:128,7,35,0|0|0|0|0|0|0|0,2:0|2:0|2:0|2:0|2:0|2:0|2:0|2:0,2:0:0:0:
384,160,99693,2,0,L|414:181,7,35,0|0|0|0|0|0|0|0,2:0|2:0|2:0|2:0|2:0|2:0|2:0|2:0,2:0:0:0:
145,383,100337,5,6,2:0:0:0:
366,0,100499,1,0,2:0:0:0:
145,383,100660,5,0,2:0:0:0:
366,0,100821,1,2,2:0:0:0:
366,383,100982,5,6,2:0:0:0:
145,0,101143,1,0,2:0:0:0:
366,383,101304,5,0,2:0:0:0:
145,0,101466,1,2,2:0:0:0:
477,192,101627,5,6,2:0:0:0:
34,192,101789,1,2,2:0:0:0:
477,192,101949,5,6,2:0:0:0:
34,192,102111,1,2,2:0:0:0:
256,108,102272,6,0,B|256:52|256:52|244:64,1,70,6|0,2:0|2:0,2:0:0:0:
196,132,102353,6,0,B|157:93|157:93|157:109,1,70,2|0,2:0|2:0,2:0:0:0:
172,192,102434,6,0,B|116:192|116:192|128:204,1,70,0|0,2:0|2:0,2:0:0:0:
196,251,102514,6,0,B|157:290|157:290|173:290,1,70,2|0,2:0|2:0,2:0:0:0:
256,276,102595,6,0,B|256:332|256:332|268:320,1,70,6|0,2:0|2:0,2:0:0:0:
315,251,102676,6,0,B|354:290|354:290|354:274,1,70,0|0,2:0|2:0,2:0:0:0:
340,191,102756,6,0,B|396:192|396:192|384:180,1,70,2|0,2:0|2:0,2:0:0:0:
464,17,102918,5,6,2:0:0:0:
47,366,103079,1,2,2:0:0:0:
479,11,103240,5,2,2:0:0:0:
32,372,103403,1,2,2:0:0:0:
495,5,103563,5,2,2:0:0:0:
16,378,103724,1,2,2:0:0:0:
512,0,103885,5,2,2:0:0:0:
0,384,104047,1,6,2:0:0:0:
256,192,104208,12,0,106950,2:0:0:0:
