osu file format v14

[General]
AudioFilename: audio.mp3
AudioLeadIn: 0
PreviewTime: 40783
Countdown: 0
SampleSet: Normal
StackLeniency: 0.7
Mode: 1
LetterboxInBreaks: 0
WidescreenStoryboard: 0

[Editor]
DistanceSpacing: 1.8
BeatDivisor: 4
GridSize: 32
TimelineZoom: 2.799999

[Metadata]
Title:Kodak Yak
TitleUnicode:Kodak Yak
Artist:dive to the heart
ArtistUnicode:ང།སཇ ཎ༳ ཎལཇ ལཇཅཁ༒
Creator:Boaz
Version:Whiplash
Source:
Tags:ler1211 rinze dtth divetotheart hyperflip english japanese electronic
BeatmapID:4052818
BeatmapSetID:1956417

[Difficulty]
HPDrainRate:6.8
CircleSize:5
OverallDifficulty:6.2
ApproachRate:5
SliderMultiplier:1.4
SliderTickRate:1

[Events]
//Background and Video events
0,0,"bg.jpg",0,100
//Break Periods
//Storyboard Layer 0 (Background)
//Storyboard Layer 1 (Fail)
//Storyboard Layer 2 (Pass)
//Storyboard Layer 3 (Foreground)
//Storyboard Layer 4 (Overlay)
//Storyboard Sound Samples

[TimingPoints]
2983,300,4,1,0,100,1,0
2983,-80,4,1,0,85,0,0
22182,-80,4,1,0,75,0,0
22332,-80.37277,4,1,0,75,0,0
22482,-80.74728,4,1,0,75,0,0
22632,-81.123535,4,1,0,75,0,0
22707,-81.31232,4,1,0,75,0,0
22857,-81.6912,4,1,0,75,0,0
22932,-81.88131,4,1,0,75,0,0
23007,-82.07185,4,1,0,75,0,0
23082,-82.262856,4,1,0,75,0,0
23232,-82.646164,4,1,0,75,0,0
23307,-82.838486,4,1,0,75,0,0
23382,-83.03127,4,1,0,75,0,0
23532,-83.41816,4,1,0,75,0,0
23682,-83.806854,4,1,0,75,0,0
23832,-84.19737,4,1,0,75,0,0
23907,-84.39331,4,1,0,75,0,0
24057,-84.786545,4,1,0,75,0,0
24132,-84.98386,4,1,0,75,0,0
24207,-85.18163,4,1,0,75,0,0
24282,-85.37985,4,1,0,75,0,0
24432,-85.777695,4,1,0,75,0,0
24507,-85.97732,4,1,0,75,0,0
24582,-86.17738,4,1,0,75,0,0
24732,-86.57894,4,1,0,75,0,0
24882,-86.98237,4,1,0,75,0,0
25032,-87.38768,4,1,0,75,0,0
25107,-87.59104,4,1,0,75,0,0
25182,-87.794876,4,1,0,75,0,0
25257,-87.999176,4,1,0,75,0,0
25332,-88.203964,4,1,0,75,0,0
25482,-88.61497,4,1,0,75,0,0
25632,-89.02788,4,1,0,75,0,0
25782,-89.44272,4,1,0,75,0,0
25857,-89.65087,4,1,0,75,0,0
25932,-89.85949,4,1,0,75,0,0
26007,-90.0686,4,1,0,75,0,0
26082,-90.2782,4,1,0,75,0,0
26232,-90.69887,4,1,0,75,0,0
26382,-91.12149,4,1,0,75,0,0
26457,-91.33354,4,1,0,75,0,0
26532,-91.54609,4,1,0,75,0,0
26682,-91.972664,4,1,0,75,0,0
26832,-92.40122,4,1,0,75,0,0
26982,-92.83178,4,1,0,75,0,0
27132,-93.26434,4,1,0,75,0,0
27282,-93.69892,4,1,0,75,0,0
27432,-94.13553,4,1,0,75,0,0
27507,-94.354576,4,1,0,75,0,0
27582,-94.57416,4,1,0,75,0,0
27657,-94.79425,4,1,0,75,0,0
27732,-95.01485,4,1,0,75,0,0
27807,-95.23596,4,1,0,75,0,0
27882,-95.45758,4,1,0,75,0,0
28032,-95.90238,4,1,0,75,0,0
28107,-96.12556,4,1,0,75,0,0
28182,-96.34924,4,1,0,75,0,0
28332,-96.7982,4,1,0,75,0,0
28482,-97.249245,4,1,0,75,0,0
28632,-97.70239,4,1,0,75,0,0
28707,-97.929756,4,1,0,75,0,0
28782,-98.15765,4,1,0,75,0,0
28857,-98.386086,4,1,0,75,0,0
28932,-98.615036,4,1,0,75,0,0
29007,-98.84453,4,1,0,75,0,0
29082,-99.07455,4,1,0,75,0,0
29232,-99.53621,4,1,0,75,0,0
29307,-99.76783,4,1,0,75,0,0
29382,-100,4,1,0,75,0,0
29532,-100.465965,4,1,0,75,0,0
29682,-100.934105,4,1,0,75,0,0
29832,-101.40443,4,1,0,75,0,0
29907,-101.640396,4,1,0,75,0,0
29982,-101.87692,4,1,0,75,0,0
30057,-102.114,4,1,0,75,0,0
30132,-102.35164,4,1,0,75,0,0
30207,-102.58983,4,1,0,75,0,0
30282,-102.82856,4,1,0,75,0,0
30432,-103.3077,4,1,0,75,0,0
30582,-103.789085,4,1,0,75,0,0
30657,-104.03062,4,1,0,75,0,0
30732,-104.272705,4,1,0,75,0,0
30807,-104.51536,4,1,0,75,0,0
30882,-104.75858,4,1,0,75,0,0
31032,-105.24672,4,1,0,75,0,0
31107,-105.49164,4,1,0,75,0,0
31182,-105.73713,4,1,0,75,0,0
31257,-105.98319,4,1,0,75,0,0
31332,-106.22982,4,1,0,75,0,0
31482,-106.724815,4,1,0,75,0,0
31632,-107.22212,4,1,0,75,0,0
31782,-107.72174,4,1,0,75,0,0
31857,-107.97242,4,1,0,75,0,0
31932,-108.22367,4,1,0,75,0,0
32082,-108.72797,4,1,0,75,0,0
32232,-109.2346,4,1,0,75,0,0
32307,-109.48879,4,1,0,75,0,0
32382,-109.7436,4,1,0,75,0,0
32457,-109.99898,4,1,0,75,0,0
32532,-110.25496,4,1,0,75,0,0
32607,-110.511536,4,1,0,75,0,0
32682,-110.768715,4,1,0,75,0,0
32832,-111.28487,4,1,0,75,0,0
32907,-111.54382,4,1,0,75,0,0
32982,-111.8034,4,1,0,75,0,0
33132,-112.32437,4,1,0,75,0,0
33282,-112.84776,4,1,0,75,0,0
33432,-113.37359,4,1,0,75,0,0
33507,-113.63742,4,1,0,75,0,0
33582,-113.90187,4,1,0,75,0,0
33657,-114.16694,4,1,0,75,0,0
33732,-114.4326,4,1,0,75,0,0
33807,-114.69891,4,1,0,75,0,0
33882,-114.96583,4,1,0,75,0,0
34032,-115.501526,4,1,0,75,0,0
34107,-115.77031,4,1,0,75,0,0
34182,-116.03973,4,1,0,75,0,0
34332,-116.58042,4,1,0,75,0,0
34482,-117.12365,4,1,0,75,0,0
34632,-117.66941,4,1,0,75,0,0
34707,-117.94323,4,1,0,75,0,0
34782,-118.217705,4,1,0,75,0,0
34857,-118.492805,4,1,0,75,0,0
34932,-118.768555,4,1,0,75,0,0
35007,-119.044945,4,1,0,75,0,0
35082,-119.32198,4,1,0,75,0,0
35232,-119.877975,4,1,0,75,0,0
35382,-120.43658,4,1,0,75,0,0
35457,-120.71683,4,1,0,75,0,0
35532,-120.99776,4,1,0,75,0,0
35607,-121.279335,4,1,0,75,0,0
35682,-121.56158,4,1,0,75,0,0
35832,-122.12799,4,1,0,75,0,0
35982,-122.69706,4,1,0,75,0,0
36132,-123.26881,4,1,0,75,0,0
36282,-123.843185,4,1,0,75,0,0
36357,-124.13138,4,1,0,75,0,0
36432,-124.42024,4,1,0,75,0,0
36582,-124.99191,4,1,0,75,0,0
36732,-123.785484,4,1,0,75,0,0
36882,-122.590675,4,1,0,75,0,0
37032,-121.407394,4,1,0,75,0,0
37182,-120.23554,4,1,0,75,0,0
37332,-119.07501,4,1,0,75,0,0
37482,-117.925674,4,1,0,75,0,0
37632,-116.78744,4,1,0,75,0,0
37782,-115.66017,4,1,0,75,0,0
37932,-114.54379,4,1,0,75,0,0
38082,-113.4382,4,1,0,75,0,0
38232,-112.34328,4,1,0,75,0,0
38382,-111.25891,4,1,0,75,0,0
38532,-110.18502,4,1,0,75,0,0
38682,-109.121506,4,1,0,75,0,0
38832,-108.06823,4,1,0,75,0,0
38982,-107.02514,4,1,0,75,0,0
39132,-105.9921,4,1,0,75,0,0
39282,-104.96905,4,1,0,75,0,0
39432,-103.95588,4,1,0,75,0,0
39582,-102.95248,4,1,0,75,0,0
39732,-101.95875,4,1,0,75,0,0
39882,-100.97463,4,1,0,75,0,0
40032,-100,4,1,0,75,0,0
40783,-66.6666666666667,4,1,0,80,0,0
41376,600,4,1,0,100,1,0
41376,-100,4,1,0,90,0,1
41377,-33.3333333333333,4,1,0,90,0,1
41526,-100,4,1,0,90,0,1
41826,-100,4,1,0,90,0,1
41976,-50,4,1,0,90,0,1
42126,-100,4,1,0,90,0,1
42276,-100,4,1,0,90,0,1
43176,-50,4,1,0,90,0,1
43326,-100,4,1,0,90,0,1
43776,-100,4,1,0,90,0,1
43777,-33.3333333333333,4,1,0,90,0,1
44076,-100,4,1,0,90,0,1
44226,-100,4,1,0,90,0,1
44376,-50,4,1,0,90,0,1
44676,-100,4,1,0,90,0,1
45576,-50,4,1,0,90,0,1
45876,-100,4,1,0,90,0,1
46176,-100,4,1,0,90,0,1
46177,-33.3333333333333,4,1,0,90,0,1
46476,-100,4,1,0,90,0,1
46626,-100,4,1,0,90,0,1
46776,-50,4,1,0,90,0,1
47076,-100,4,1,0,90,0,1
47976,-50,4,1,0,90,0,1
48126,-100,4,1,0,90,0,1
48576,-100,4,1,0,90,0,1
48577,-33.3333333333333,4,1,0,90,0,1
48726,-100,4,1,0,90,0,1
49026,-100,4,1,0,90,0,1
49176,-50,4,1,0,90,0,1
49326,-100,4,1,0,90,0,1
49476,-100,4,1,0,90,0,1
50376,-50,4,1,0,90,0,1
50526,-100,4,1,0,90,0,1
50976,-100,4,1,0,90,0,1
50977,-33.3333333333333,4,1,0,90,0,1
51126,-100,4,1,0,90,0,1
51426,-100,4,1,0,90,0,1
51576,-50,4,1,0,90,0,1
51876,-100,4,1,0,90,0,1
52026,-100,4,1,0,90,0,1
52776,-50,4,1,0,90,0,1
53076,-100,4,1,0,90,0,1
53376,-100,4,1,0,90,0,1
53377,-33.3333333333333,4,1,0,90,0,1
53676,-100,4,1,0,90,0,1
53826,-100,4,1,0,90,0,1
53976,-50,4,1,0,90,0,1
54276,-100,4,1,0,90,0,1
54426,-100,4,1,0,90,0,1
55176,-50,4,1,0,90,0,1
55476,-100,4,1,0,90,0,1
55776,-100,4,1,0,90,0,1
55777,-33.3333333333333,4,1,0,90,0,1
56076,-100,4,1,0,90,0,1
56226,-100,4,1,0,90,0,1
56376,-50,4,1,0,90,0,1
56676,-100,4,1,0,90,0,1
57576,-50,4,1,0,90,0,1
57726,-100,4,1,0,90,0,1
58176,-100,4,1,0,90,0,1
58177,-33.3333333333333,4,1,0,90,0,1
58326,-100,4,1,0,90,0,1
58626,-100,4,1,0,90,0,1
58776,-50,4,1,0,90,0,1
58926,-100,4,1,0,90,0,1
59076,-100,4,1,0,90,0,1
59376,-100,4,1,0,90,0,1
59976,-50,4,1,0,90,0,1
60126,-100,4,1,0,90,0,1
60576,-100,4,1,0,75,0,0
62761,272.727272727273,4,1,0,100,1,0
62761,-222.222222222222,4,1,0,75,0,0
79669,-192.307692307692,4,1,0,75,0,0
79941,-172.21329,4,1,0,75,0,0
80078,-151.46043,4,1,0,75,0,0
80214,-133.33333,4,1,0,75,0,0
91123,-133.33333,4,1,0,75,0,0
91396,-132.12227,4,1,0,75,0,0
91668,-130.9266,4,1,0,75,0,0
91941,-129.73741,4,1,0,75,0,0
92077,-129.149,4,1,0,75,0,0
92146,-128.85153,4,1,0,75,0,0
92214,-128.559,4,1,0,75,0,0
92350,-127.97596,4,1,0,75,0,0
92487,-127.391304,4,1,0,75,0,0
92623,-126.81357,4,1,0,75,0,0
92759,-126.23845,4,1,0,75,0,0
93032,-125.09183,4,1,0,75,0,0
93168,-124.52451,4,1,0,75,0,0
93305,-123.95562,4,1,0,75,0,0
93577,-122.83385,4,1,0,75,0,0
93850,-121.71816,4,1,0,75,0,0
94123,-120.61261,4,1,0,75,0,0
94259,-120.0656,4,1,0,75,0,0
94327,-119.79303,4,1,0,75,0,0
94396,-119.51708,4,1,0,75,0,0
94532,-118.97505,4,1,0,75,0,0
94668,-118.43547,4,1,0,75,0,0
94805,-117.89441,4,1,0,75,0,0
94941,-117.35973,4,1,0,75,0,0
95214,-116.29376,4,1,0,75,0,0
95350,-115.76634,4,1,0,75,0,0
95487,-115.23747,4,1,0,75,0,0
95759,-114.1946,4,1,0,75,0,0
95896,-113.6729,4,1,0,75,0,0
96032,-113.157364,4,1,0,75,0,0
96305,-112.12958,4,1,0,75,0,0
96441,-111.62105,4,1,0,75,0,0
96509,-111.367645,4,1,0,75,0,0
96577,-111.114815,4,1,0,60,0,0
97669,-83.33333,4,1,0,80,0,0
98078,-84.04845,4,1,0,80,0,0
98214,-84.28758,4,1,0,80,0,0
98487,-84.769684,4,1,0,80,0,0
98623,-85.01088,4,1,0,80,0,0
98760,-85.25454,4,1,0,80,0,0
99032,-85.74039,4,1,0,80,0,0
99305,-86.2308,4,1,0,80,0,0
99578,-86.724014,4,1,0,80,0,0
99714,-86.97078,4,1,0,80,0,0
99850,-87.21822,4,1,0,80,0,0
100260,-87.96851,4,1,0,80,0,0
100396,-88.21881,4,1,0,80,0,0
100669,-88.7234,4,1,0,80,0,0
100805,-88.97584,4,1,0,80,0,0
100941,-89.229004,4,1,0,80,0,0
101214,-89.739365,4,1,0,80,0,0
101487,-90.252655,4,1,0,80,0,0
101760,-90.768875,4,1,0,80,0,0
101896,-91.02714,4,1,0,80,0,0
102032,-91.28613,4,1,0,80,0,0
102441,-92.069496,4,1,0,80,0,0
102578,-92.33338,4,1,0,80,0,0
102850,-92.85957,4,1,0,80,0,0
103123,-93.3907,4,1,0,80,0,0
103396,-93.924866,4,1,0,80,0,0
103532,-94.19211,4,1,0,80,0,0
103669,-94.4621,4,1,0,80,0,0
103805,-94.73087,4,1,0,80,0,0
103941,-95.000404,4,1,0,80,0,0
104214,-95.543785,4,1,0,80,0,0
104623,-96.36367,4,1,0,80,0,0
104760,-96.63988,4,1,0,80,0,0
105032,-97.1906,4,1,0,80,0,0
105305,-97.746506,4,1,0,80,0,0
105578,-98.30558,4,1,0,80,0,0
105714,-98.5853,4,1,0,80,0,0
105850,-98.8658,4,1,0,80,0,0
106123,-99.43129,4,1,0,80,0,0
106396,-83.33533,4,1,0,80,0,0
106805,-84.153015,4,1,0,80,0,0
106941,-84.42669,4,1,0,80,0,0
107214,-84.97873,4,1,0,80,0,0
107487,-85.53438,4,1,0,80,0,0
107760,-86.093666,4,1,0,80,0,0
107896,-86.37366,4,1,0,80,0,0
108032,-86.65455,4,1,0,80,0,0
108305,-87.22115,4,1,0,80,0,0
108578,-87.79147,4,1,0,80,0,0
108987,-88.65289,4,1,0,80,0,0
109123,-88.94119,4,1,0,80,0,0
109396,-89.52276,4,1,0,80,0,0
109669,-90.10812,4,1,0,80,0,0
109941,-90.69515,4,1,0,80,0,0
110078,-90.99226,4,1,0,80,0,0
110214,-91.288185,4,1,0,80,0,0
110487,-91.88509,4,1,0,80,0,0
110760,-92.48591,4,1,0,80,0,0
111169,-93.39339,4,1,0,80,0,0
111305,-93.697105,4,1,0,80,0,0
111578,-94.30976,4,1,0,80,0,0
111850,-94.924164,4,1,0,80,0,0
112123,-95.54485,4,1,0,80,0,0
112260,-95.85786,4,1,0,80,0,0
112396,-96.16959,4,1,0,80,0,0
112669,-96.79843,4,1,0,80,0,0
112941,-97.42904,4,1,0,80,0,0
113350,-98.385025,4,1,0,80,0,0
113487,-98.70733,4,1,0,80,0,0
113760,-99.35275,4,1,0,80,0,0
114032,-100,4,1,0,80,0,0
115123,-80,4,1,0,80,0,0
115396,-80.29836,4,1,0,80,0,0
115532,-80.447426,4,1,0,80,0,0
115669,-80.597855,4,1,0,80,0,0
115941,-80.89736,4,1,0,80,0,0
116078,-81.04862,4,1,0,80,0,0
116214,-81.19907,4,1,0,80,0,0
116487,-81.501915,4,1,0,80,0,0
116760,-81.80588,4,1,0,80,0,0
117032,-82.10987,4,1,0,80,0,0
117305,-82.41611,4,1,0,80,0,0
117578,-82.723495,4,1,0,80,0,0
117714,-82.87705,4,1,0,80,0,0
117850,-83.03088,4,1,0,80,0,0
118123,-83.34057,4,1,0,80,0,0
118260,-83.4964,4,1,0,80,0,0
118396,-83.6514,4,1,0,80,0,0
118669,-83.96339,4,1,0,80,0,0
118941,-84.27538,4,1,0,80,0,0
119214,-84.5897,4,1,0,80,0,0
119487,-84.90519,4,1,0,80,0,0
119760,-85.221855,4,1,0,80,0,0
119896,-85.38004,4,1,0,80,0,0
120032,-85.53853,4,1,0,80,0,0
120305,-85.85757,4,1,0,80,0,0
120441,-86.01694,4,1,0,80,0,0
120578,-86.17778,4,1,0,80,0,0
120850,-86.49801,4,1,0,80,0,0
120987,-86.65975,4,1,0,80,0,0
121123,-86.82062,4,1,0,80,0,0
121260,-86.98296,4,1,0,80,0,0
121396,-87.144424,4,1,0,80,0,0
121669,-87.469444,4,1,0,80,0,0
121941,-87.79448,4,1,0,80,0,0
122078,-87.95864,4,1,0,80,0,0
122214,-88.12192,4,1,0,80,0,0
122487,-88.450584,4,1,0,80,0,0
122760,-88.780464,4,1,0,80,0,0
123032,-89.110374,4,1,0,80,0,0
123305,-89.44272,4,1,0,80,0,0
123578,-89.77631,4,1,0,80,0,0
123850,-90.10991,4,1,0,80,0,0
124123,-90.44599,4,1,0,80,0,0
124260,-90.61511,4,1,0,80,0,0
124396,-90.78332,4,1,0,80,0,0
124669,-91.12191,4,1,0,80,0,0
124805,-91.29105,4,1,0,80,0,0
124941,-91.46052,4,1,0,80,0,0
125214,-91.80163,4,1,0,80,0,0
125487,-92.144005,4,1,0,80,0,0
125623,-92.315056,4,1,0,80,0,0
125760,-92.48767,4,1,0,80,0,0
126032,-92.83135,4,1,0,80,0,0
126305,-93.17758,4,1,0,80,0,0
126441,-93.35053,4,1,0,80,0,0
126578,-93.52509,4,1,0,80,0,0
126850,-93.872635,4,1,0,80,0,0
127123,-94.22275,4,1,0,80,0,0
127396,-94.57416,4,1,0,80,0,0
127669,-94.92688,4,1,0,80,0,0
127941,-95.279625,4,1,0,80,0,0
128214,-95.63498,4,1,0,80,0,0
128487,-95.99168,4,1,0,80,0,0
128623,-96.16985,4,1,0,80,0,0
128760,-96.349686,4,1,0,80,0,0
129032,-96.70772,4,1,0,80,0,0
129305,-97.068405,4,1,0,80,0,0
129578,-97.43043,4,1,0,80,0,0
129714,-97.61128,4,1,0,80,0,0
129850,-97.79247,4,1,0,80,0,0
130123,-98.1572,4,1,0,80,0,0
130396,-98.5233,4,1,0,80,0,0
130669,-98.89074,4,1,0,80,0,0
130805,-99.07431,4,1,0,80,0,0
130941,-99.25822,4,1,0,80,0,0
131214,-99.628426,4,1,0,80,0,0
131488,-100,4,1,0,80,0,0
131489,-66.6666666666667,4,1,0,80,0,0
131556,-66.6666666666667,4,1,0,50,0,0
132579,-142.857142857143,4,1,0,30,0,0

[HitObjects]
239,176,2983,5,0,0:0:0:0:
217,170,3133,1,8,0:0:0:0:
217,170,3208,1,8,0:0:0:0:
239,176,3283,1,0,0:0:0:0:
216,170,3433,1,8,0:0:0:0:
239,176,3583,1,0,0:0:0:0:
216,170,3658,1,0,0:0:0:0:
216,170,3733,1,8,0:0:0:0:
216,170,3808,1,0,0:0:0:0:
216,170,3883,1,8,0:0:0:0:
217,170,4033,1,8,0:0:0:0:
239,176,4183,1,0,0:0:0:0:
216,170,4333,1,8,0:0:0:0:
216,170,4408,1,0,0:0:0:0:
239,176,4483,1,8,0:0:0:0:
216,170,4633,1,0,0:0:0:0:
239,176,4783,1,0,0:0:0:0:
216,170,4858,1,8,0:0:0:0:
216,170,4933,1,0,0:0:0:0:
212,168,5008,1,8,0:0:0:0:
212,168,5158,1,0,0:0:0:0:
216,170,5233,1,8,0:0:0:0:
199,164,5308,1,8,0:0:0:0:
239,176,5383,1,0,0:0:0:0:
216,170,5533,1,0,0:0:0:0:
196,146,5608,1,0,0:0:0:0:
239,176,5683,1,8,0:0:0:0:
216,170,5833,1,0,0:0:0:0:
239,176,5983,1,8,0:0:0:0:
212,168,6058,1,8,0:0:0:0:
216,170,6133,1,0,0:0:0:0:
216,170,6208,1,0,0:0:0:0:
216,170,6283,1,8,0:0:0:0:
216,170,6433,1,8,0:0:0:0:
239,176,6583,1,0,0:0:0:0:
216,170,6733,1,8,0:0:0:0:
216,170,6808,1,8,0:0:0:0:
212,168,6883,1,0,0:0:0:0:
212,168,7033,1,8,0:0:0:0:
239,176,7183,1,0,0:0:0:0:
216,170,7258,1,0,0:0:0:0:
216,170,7333,1,8,0:0:0:0:
216,170,7408,1,0,0:0:0:0:
239,176,7558,1,8,0:0:0:0:
218,137,7633,1,8,0:0:0:0:
218,137,7708,1,0,0:0:0:0:
239,176,7783,1,0,0:0:0:0:
212,168,7933,1,8,0:0:0:0:
212,168,8008,1,0,0:0:0:0:
239,176,8083,1,8,0:0:0:0:
216,170,8233,1,0,0:0:0:0:
239,176,8383,1,8,0:0:0:0:
216,170,8458,1,0,0:0:0:0:
216,170,8533,1,0,0:0:0:0:
216,170,8608,1,0,0:0:0:0:
239,176,8683,1,8,0:0:0:0:
212,168,8833,1,8,0:0:0:0:
239,176,8983,1,0,0:0:0:0:
216,170,9133,1,8,0:0:0:0:
216,170,9208,1,0,0:0:0:0:
239,176,9283,1,8,0:0:0:0:
216,170,9433,1,0,0:0:0:0:
239,176,9583,1,8,0:0:0:0:
216,170,9658,1,0,0:0:0:0:
212,168,9733,1,8,0:0:0:0:
212,168,9808,1,0,0:0:0:0:
212,168,9958,1,8,0:0:0:0:
216,170,10033,1,8,0:0:0:0:
253,182,10108,1,8,0:0:0:0:
239,176,10183,1,0,0:0:0:0:
216,170,10333,1,0,0:0:0:0:
216,170,10408,1,0,0:0:0:0:
239,176,10483,1,8,0:0:0:0:
216,170,10633,1,0,0:0:0:0:
212,168,10783,1,8,0:0:0:0:
212,168,10858,1,8,0:0:0:0:
216,170,10933,1,0,0:0:0:0:
216,170,11008,1,0,0:0:0:0:
239,176,11083,1,8,0:0:0:0:
216,170,11233,1,8,0:0:0:0:
239,176,11383,1,0,0:0:0:0:
216,170,11533,1,0,0:0:0:0:
216,170,11608,1,0,0:0:0:0:
237,158,11683,1,8,0:0:0:0:
212,168,11833,1,0,0:0:0:0:
216,170,11983,1,8,0:0:0:0:
216,170,12058,1,8,0:0:0:0:
216,170,12133,1,0,0:0:0:0:
216,170,12208,1,0,0:0:0:0:
216,170,12358,1,0,0:0:0:0:
220,151,12433,1,0,0:0:0:0:
182,166,12508,1,8,0:0:0:0:
239,176,12583,1,0,0:0:0:0:
223,144,12733,1,8,0:0:0:0:
223,144,12808,1,0,0:0:0:0:
234,156,12883,1,8,0:0:0:0:
222,143,13033,1,0,0:0:0:0:
234,156,13183,1,0,0:0:0:0:
222,143,13258,1,8,0:0:0:0:
222,143,13333,1,0,0:0:0:0:
222,143,13408,1,0,0:0:0:0:
234,156,13483,1,8,0:0:0:0:
223,144,13633,1,8,0:0:0:0:
234,156,13783,1,0,0:0:0:0:
222,143,13933,1,0,0:0:0:0:
222,143,14008,1,0,0:0:0:0:
234,156,14083,1,8,0:0:0:0:
222,143,14233,1,8,0:0:0:0:
234,156,14383,1,0,0:0:0:0:
222,143,14458,1,0,0:0:0:0:
222,143,14533,1,8,0:0:0:0:
223,144,14608,1,0,0:0:0:0:
234,156,14758,1,8,0:0:0:0:
301,193,14833,1,8,0:0:0:0:
223,183,14908,1,8,0:0:0:0:
239,176,14983,1,0,0:0:0:0:
216,170,15133,1,0,0:0:0:0:
196,146,15208,1,0,0:0:0:0:
239,176,15283,1,8,0:0:0:0:
216,170,15433,1,0,0:0:0:0:
239,176,15583,1,8,0:0:0:0:
212,168,15658,1,8,0:0:0:0:
216,170,15733,1,0,0:0:0:0:
216,170,15808,1,0,0:0:0:0:
216,170,15883,1,8,0:0:0:0:
216,170,16033,1,8,0:0:0:0:
239,176,16183,1,0,0:0:0:0:
216,170,16333,1,8,0:0:0:0:
216,170,16408,1,8,0:0:0:0:
212,168,16483,1,0,0:0:0:0:
212,168,16633,1,8,0:0:0:0:
239,176,16783,1,0,0:0:0:0:
216,170,16858,1,0,0:0:0:0:
216,170,16933,1,8,0:0:0:0:
216,170,17008,1,0,0:0:0:0:
239,176,17158,1,8,0:0:0:0:
218,137,17233,1,8,0:0:0:0:
218,137,17308,1,0,0:0:0:0:
239,176,17383,1,0,0:0:0:0:
212,168,17533,1,8,0:0:0:0:
212,168,17608,1,0,0:0:0:0:
239,176,17683,1,8,0:0:0:0:
216,170,17833,1,0,0:0:0:0:
239,176,17983,1,8,0:0:0:0:
216,170,18058,1,0,0:0:0:0:
216,170,18133,1,0,0:0:0:0:
216,170,18208,1,0,0:0:0:0:
239,176,18283,1,8,0:0:0:0:
212,168,18433,1,8,0:0:0:0:
239,176,18583,1,0,0:0:0:0:
216,170,18733,1,8,0:0:0:0:
216,170,18808,1,0,0:0:0:0:
239,176,18883,1,8,0:0:0:0:
216,170,19033,1,0,0:0:0:0:
239,176,19183,1,8,0:0:0:0:
216,170,19258,1,0,0:0:0:0:
212,168,19333,1,8,0:0:0:0:
212,168,19408,1,0,0:0:0:0:
212,168,19558,1,8,0:0:0:0:
216,170,19633,1,8,0:0:0:0:
253,182,19708,1,8,0:0:0:0:
239,176,19783,1,0,0:0:0:0:
216,170,19933,1,0,0:0:0:0:
216,170,20008,1,0,0:0:0:0:
239,176,20083,1,8,0:0:0:0:
216,170,20233,1,0,0:0:0:0:
212,168,20383,1,8,0:0:0:0:
212,168,20458,1,8,0:0:0:0:
216,170,20533,1,0,0:0:0:0:
216,170,20608,1,0,0:0:0:0:
239,176,20683,1,8,0:0:0:0:
216,170,20833,1,8,0:0:0:0:
223,144,20983,1,0,0:0:0:0:
234,156,21133,1,0,0:0:0:0:
222,143,21208,1,0,0:0:0:0:
222,143,21283,1,8,0:0:0:0:
234,156,21433,1,0,0:0:0:0:
222,143,21583,1,8,0:0:0:0:
226,137,21658,1,8,0:0:0:0:
234,156,21733,1,8,0:0:0:0:
222,143,21808,1,0,0:0:0:0:
223,144,21958,1,0,0:0:0:0:
222,143,22033,1,8,0:0:0:0:
234,156,22108,1,8,0:0:0:0:
301,193,22183,1,0,0:0:0:0:
268,168,22333,1,0,0:0:0:0:
268,168,22483,1,8,0:0:0:0:
257,163,22633,1,0,0:0:0:0:
257,163,22708,1,8,0:0:0:0:
257,163,22858,1,0,0:0:0:0:
257,163,22933,1,0,0:0:0:0:
255,162,23008,1,0,0:0:0:0:
256,163,23083,1,8,0:0:0:0:
213,145,23233,1,0,0:0:0:0:
213,145,23308,1,8,0:0:0:0:
228,149,23383,1,0,0:0:0:0:
228,149,23533,1,0,0:0:0:0:
228,149,23683,1,8,0:0:0:0:
213,145,23833,1,8,0:0:0:0:
213,145,23908,1,0,0:0:0:0:
213,145,24058,1,8,0:0:0:0:
213,145,24133,1,0,0:0:0:0:
213,145,24208,1,0,0:0:0:0:
213,145,24283,1,8,0:0:0:0:
213,145,24433,1,8,0:0:0:0:
213,145,24508,1,8,0:0:0:0:
213,145,24583,1,0,0:0:0:0:
213,145,24733,1,0,0:0:0:0:
213,145,24883,1,8,0:0:0:0:
213,145,25033,1,0,0:0:0:0:
213,145,25108,1,0,0:0:0:0:
213,145,25183,1,8,0:0:0:0:
213,145,25258,1,8,0:0:0:0:
213,145,25333,1,0,0:0:0:0:
213,145,25483,1,8,0:0:0:0:
213,145,25633,1,0,0:0:0:0:
213,145,25783,1,8,0:0:0:0:
213,145,25858,1,8,0:0:0:0:
213,145,25933,1,0,0:0:0:0:
213,145,26008,1,0,0:0:0:0:
213,145,26083,1,8,0:0:0:0:
213,145,26233,1,0,0:0:0:0:
213,145,26383,1,0,0:0:0:0:
190,147,26458,1,0,0:0:0:0:
206,137,26533,1,8,0:0:0:0:
199,136,26683,1,0,0:0:0:0:
199,136,26833,1,8,0:0:0:0:
199,136,26983,1,0,0:0:0:0:
183,139,27133,1,0,0:0:0:0:
183,139,27283,1,8,0:0:0:0:
183,139,27433,1,0,0:0:0:0:
183,139,27508,1,0,0:0:0:0:
183,139,27583,1,8,0:0:0:0:
183,138,27658,1,0,0:0:0:0:
183,138,27733,1,0,0:0:0:0:
182,138,27808,1,0,0:0:0:0:
182,138,27883,1,8,0:0:0:0:
182,138,28033,1,8,0:0:0:0:
183,139,28108,1,8,0:0:0:0:
183,139,28183,1,0,0:0:0:0:
183,139,28333,1,0,0:0:0:0:
183,139,28483,1,8,0:0:0:0:
183,139,28633,1,0,0:0:0:0:
183,138,28708,1,0,0:0:0:0:
182,138,28783,1,8,0:0:0:0:
182,138,28858,1,8,0:0:0:0:
182,138,28933,1,0,0:0:0:0:
182,138,29008,1,0,0:0:0:0:
183,139,29083,1,8,0:0:0:0:
183,139,29233,1,0,0:0:0:0:
183,139,29308,1,8,0:0:0:0:
183,139,29383,1,0,0:0:0:0:
183,139,29533,1,0,0:0:0:0:
183,138,29683,1,8,0:0:0:0:
182,138,29833,1,0,0:0:0:0:
182,138,29908,1,0,0:0:0:0:
182,138,29983,1,8,0:0:0:0:
183,139,30058,1,0,0:0:0:0:
183,139,30133,1,8,0:0:0:0:
183,139,30208,1,8,0:0:0:0:
183,139,30283,1,0,0:0:0:0:
183,139,30433,1,8,0:0:0:0:
184,142,30583,1,0,0:0:0:0:
184,142,30658,1,8,0:0:0:0:
184,142,30733,1,0,0:0:0:0:
184,142,30808,1,0,0:0:0:0:
184,142,30883,1,8,0:0:0:0:
183,139,31033,1,8,0:0:0:0:
183,139,31108,1,8,0:0:0:0:
183,139,31183,1,0,0:0:0:0:
183,139,31258,1,0,0:0:0:0:
183,139,31333,1,8,0:0:0:0:
184,142,31483,1,0,0:0:0:0:
190,140,31633,1,8,0:0:0:0:
190,140,31783,1,0,0:0:0:0:
190,140,31858,1,8,0:0:0:0:
190,140,31933,1,0,0:0:0:0:
190,140,32083,1,8,0:0:0:0:
190,140,32233,1,0,0:0:0:0:
190,140,32308,1,0,0:0:0:0:
190,140,32383,1,8,0:0:0:0:
190,140,32458,1,8,0:0:0:0:
190,140,32533,1,0,0:0:0:0:
190,140,32608,1,0,0:0:0:0:
190,140,32683,1,8,0:0:0:0:
190,140,32833,1,8,0:0:0:0:
190,140,32908,1,8,0:0:0:0:
190,140,32983,1,0,0:0:0:0:
190,140,33133,1,0,0:0:0:0:
190,140,33283,1,8,0:0:0:0:
190,140,33433,1,0,0:0:0:0:
190,140,33508,1,8,0:0:0:0:
190,140,33583,1,8,0:0:0:0:
190,140,33658,1,0,0:0:0:0:
190,140,33733,1,0,0:0:0:0:
190,140,33808,1,0,0:0:0:0:
190,140,33883,1,8,0:0:0:0:
190,140,34033,1,0,0:0:0:0:
190,140,34108,1,8,0:0:0:0:
190,140,34183,1,0,0:0:0:0:
190,140,34333,1,0,0:0:0:0:
190,140,34483,1,8,0:0:0:0:
190,140,34633,1,0,0:0:0:0:
190,140,34708,1,0,0:0:0:0:
190,140,34783,1,8,0:0:0:0:
190,140,34858,1,0,0:0:0:0:
190,140,34933,1,8,0:0:0:0:
190,140,35008,1,8,0:0:0:0:
190,140,35083,1,0,0:0:0:0:
190,140,35233,1,8,0:0:0:0:
190,140,35383,1,0,0:0:0:0:
190,140,35458,5,8,0:0:0:0:
190,140,35533,1,0,0:0:0:0:
190,140,35608,1,0,0:0:0:0:
190,140,35683,1,8,0:0:0:0:
190,140,35833,1,8,0:0:0:0:
190,140,35983,1,0,0:0:0:0:
190,140,36133,1,8,0:0:0:0:
190,140,36283,1,0,0:0:0:0:
190,140,36358,1,0,0:0:0:0:
190,140,36433,1,8,0:0:0:0:
190,165,36583,5,8,0:0:0:0:
190,165,36733,1,0,0:0:0:0:
190,165,36883,1,0,0:0:0:0:
190,165,37033,1,8,0:0:0:0:
190,165,37183,1,0,0:0:0:0:
190,165,37333,1,0,0:0:0:0:
190,165,37483,1,8,0:0:0:0:
190,165,37633,1,8,0:0:0:0:
190,165,37783,1,0,0:0:0:0:
190,165,37933,1,0,0:0:0:0:
190,165,38083,1,8,0:0:0:0:
190,165,38233,1,0,0:0:0:0:
190,165,38383,1,8,0:0:0:0:
190,165,38533,1,8,0:0:0:0:
190,165,38683,1,0,0:0:0:0:
190,165,38833,1,0,0:0:0:0:
190,165,38983,1,8,0:0:0:0:
190,165,39133,1,0,0:0:0:0:
190,165,39283,1,8,0:0:0:0:
190,165,39433,1,0,0:0:0:0:
190,165,39583,1,0,0:0:0:0:
190,165,39733,1,8,0:0:0:0:
190,165,39883,1,8,0:0:0:0:
190,165,40033,1,0,0:0:0:0:
106,121,40183,2,0,L|330:124,1,210
234,157,40783,5,8,0:0:0:0:
234,157,41377,1,4,0:0:0:0:
219,109,41676,1,8,0:0:0:0:
229,129,41826,1,0,0:0:0:0:
229,129,41976,1,12,0:0:0:0:
229,129,42276,1,0,0:0:0:0:
231,119,42426,1,8,0:0:0:0:
231,119,42576,1,0,0:0:0:0:
229,129,42876,1,0,0:0:0:0:
211,105,43026,1,0,0:0:0:0:
229,129,43176,1,12,0:0:0:0:
202,107,43476,1,0,0:0:0:0:
229,129,43777,1,4,0:0:0:0:
201,107,44076,1,0,0:0:0:0:
229,129,44226,1,0,0:0:0:0:
229,129,44376,1,12,0:0:0:0:
229,129,44676,1,0,0:0:0:0:
225,138,44826,1,8,0:0:0:0:
225,138,44976,1,0,0:0:0:0:
229,129,45276,1,0,0:0:0:0:
229,129,45576,1,12,0:0:0:0:
234,123,45876,1,0,0:0:0:0:
229,129,46177,1,4,0:0:0:0:
192,123,46476,1,8,0:0:0:0:
229,129,46626,1,0,0:0:0:0:
229,129,46776,1,12,0:0:0:0:
229,129,47076,1,0,0:0:0:0:
200,141,47226,1,0,0:0:0:0:
200,141,47376,1,8,0:0:0:0:
229,129,47676,1,0,0:0:0:0:
229,129,47976,1,12,0:0:0:0:
215,123,48126,1,0,0:0:0:0:
215,123,48276,1,0,0:0:0:0:
229,129,48577,1,4,0:0:0:0:
215,123,48726,1,8,0:0:0:0:
215,122,48876,1,8,0:0:0:0:
229,129,49026,1,0,0:0:0:0:
229,129,49176,1,12,0:0:0:0:
215,122,49326,1,0,0:0:0:0:
229,129,49476,1,0,0:0:0:0:
205,124,49776,1,8,0:0:0:0:
205,124,49926,1,8,0:0:0:0:
229,129,50076,1,0,0:0:0:0:
161,112,50226,1,0,0:0:0:0:
229,129,50376,1,12,0:0:0:0:
161,112,50526,1,0,0:0:0:0:
161,112,50676,1,8,0:0:0:0:
229,129,50977,1,4,0:0:0:0:
200,107,51126,1,8,0:0:0:0:
200,107,51276,1,8,0:0:0:0:
219,122,51426,1,0,0:0:0:0:
218,152,51576,1,12,0:0:0:0:
219,122,51876,1,0,0:0:0:0:
207,127,52026,1,0,0:0:0:0:
207,127,52176,1,8,0:0:0:0:
219,122,52476,1,8,0:0:0:0:
207,109,52626,1,0,0:0:0:0:
219,122,52776,1,12,0:0:0:0:
193,102,53076,1,8,0:0:0:0:
193,102,53226,1,8,0:0:0:0:
219,122,53377,1,4,0:0:0:0:
214,103,53676,1,0,0:0:0:0:
219,122,53826,1,0,0:0:0:0:
219,122,53976,1,12,0:0:0:0:
219,122,54276,1,0,0:0:0:0:
194,121,54426,1,8,0:0:0:0:
194,121,54576,1,0,0:0:0:0:
219,122,54876,1,0,0:0:0:0:
219,122,55176,1,12,0:0:0:0:
190,103,55476,1,0,0:0:0:0:
219,122,55777,1,4,0:0:0:0:
209,102,56076,1,8,0:0:0:0:
219,122,56226,1,0,0:0:0:0:
219,122,56376,1,12,0:0:0:0:
219,122,56676,1,0,0:0:0:0:
223,119,56826,1,0,0:0:0:0:
219,122,56976,1,8,0:0:0:0:
219,122,57276,1,0,0:0:0:0:
219,122,57576,1,12,0:0:0:0:
206,117,57726,1,0,0:0:0:0:
206,116,57876,1,8,0:0:0:0:
219,122,58177,1,4,0:0:0:0:
229,94,58326,1,8,0:0:0:0:
229,94,58476,1,8,0:0:0:0:
219,122,58626,1,0,0:0:0:0:
219,122,58776,1,12,0:0:0:0:
200,117,58926,1,0,0:0:0:0:
219,122,59076,1,0,0:0:0:0:
228,125,59376,1,8,0:0:0:0:
228,125,59526,1,8,0:0:0:0:
219,122,59676,1,0,0:0:0:0:
216,97,59826,1,0,0:0:0:0:
219,122,59976,1,12,0:0:0:0:
216,97,60126,1,0,0:0:0:0:
216,97,60276,1,8,0:0:0:0:
219,122,60576,1,0,0:0:0:0:
228,141,62761,1,0,0:0:0:0:
228,141,63033,1,0,0:0:0:0:
247,169,63170,1,0,0:0:0:0:
228,141,63306,1,8,0:0:0:0:
236,156,63579,1,8,0:0:0:0:
247,169,63715,1,0,0:0:0:0:
235,155,63851,1,8,0:0:0:0:
235,155,64124,1,8,0:0:0:0:
236,156,64397,1,0,0:0:0:0:
235,155,64670,1,8,0:0:0:0:
240,165,64806,1,0,0:0:0:0:
235,155,64942,1,0,0:0:0:0:
222,162,65215,1,8,0:0:0:0:
222,162,65351,1,0,0:0:0:0:
239,157,65488,1,8,0:0:0:0:
239,157,65761,1,0,0:0:0:0:
239,157,66033,1,8,0:0:0:0:
239,157,66306,1,8,0:0:0:0:
239,157,66579,1,0,0:0:0:0:
239,157,66851,1,8,0:0:0:0:
221,162,66988,1,8,0:0:0:0:
239,157,67124,1,0,0:0:0:0:
239,157,67397,1,8,0:0:0:0:
239,157,67670,1,8,0:0:0:0:
239,157,67942,1,8,0:0:0:0:
221,162,68079,1,0,0:0:0:0:
239,157,68215,1,8,0:0:0:0:
239,157,68488,1,0,0:0:0:0:
158,140,68624,1,0,0:0:0:0:
239,157,68761,1,8,0:0:0:0:
239,157,69033,1,8,0:0:0:0:
217,160,69170,1,0,0:0:0:0:
239,157,69306,1,0,0:0:0:0:
221,162,69579,1,8,0:0:0:0:
239,126,69715,1,8,0:0:0:0:
239,157,69851,1,0,0:0:0:0:
239,157,70124,1,0,0:0:0:0:
215,159,70261,1,8,0:0:0:0:
239,157,70397,1,0,0:0:0:0:
239,157,70670,1,8,0:0:0:0:
239,157,70942,1,0,0:0:0:0:
239,157,71215,1,8,0:0:0:0:
215,159,71351,1,0,0:0:0:0:
239,157,71488,1,8,0:0:0:0:
227,155,71761,1,8,0:0:0:0:
229,128,71897,1,0,0:0:0:0:
227,138,72033,1,0,0:0:0:0:
227,138,72306,1,0,0:0:0:0:
227,155,72442,1,8,0:0:0:0:
227,138,72579,1,0,0:0:0:0:
227,138,72851,1,8,0:0:0:0:
227,138,73124,1,0,0:0:0:0:
227,138,73397,1,8,0:0:0:0:
225,154,73533,1,0,0:0:0:0:
227,138,73670,1,8,0:0:0:0:
227,138,73942,1,0,0:0:0:0:
227,138,74215,1,8,0:0:0:0:
227,138,74351,1,8,0:0:0:0:
227,138,74488,1,0,0:0:0:0:
223,144,74624,1,8,0:0:0:0:
227,138,74761,1,0,0:0:0:0:
231,140,75033,1,8,0:0:0:0:
231,140,75306,1,0,0:0:0:0:
231,140,75579,1,0,0:0:0:0:
231,140,75851,1,8,0:0:0:0:
231,140,76124,1,8,0:0:0:0:
231,140,76397,1,0,0:0:0:0:
231,140,76670,1,8,0:0:0:0:
224,153,76806,1,8,0:0:0:0:
231,140,76942,1,0,0:0:0:0:
231,140,77215,1,0,0:0:0:0:
224,152,77351,1,0,0:0:0:0:
231,140,77488,1,8,0:0:0:0:
223,152,77624,1,0,0:0:0:0:
231,140,77761,1,8,0:0:0:0:
222,152,77897,1,8,0:0:0:0:
231,140,78033,1,0,0:0:0:0:
231,140,78306,1,8,0:0:0:0:
218,150,78442,1,0,0:0:0:0:
231,140,78579,1,8,0:0:0:0:
231,140,78851,1,8,0:0:0:0:
216,149,78988,1,8,0:0:0:0:
231,140,79124,1,0,0:0:0:0:
262,145,79533,1,8,0:0:0:0:
231,140,79670,1,0,0:0:0:0:
231,140,79942,1,0,0:0:0:0:
213,147,80079,1,0,0:0:0:0:
231,140,80215,1,12,0:0:0:0:
231,149,80488,1,8,0:0:0:0:
231,149,80624,1,0,0:0:0:0:
231,149,80761,1,8,0:0:0:0:
231,149,81033,1,0,0:0:0:0:
231,149,81170,1,8,0:0:0:0:
231,149,81238,1,8,0:0:0:0:
231,149,81306,1,0,0:0:0:0:
231,149,81442,1,8,0:0:0:0:
231,149,81579,1,0,0:0:0:0:
230,131,81715,1,0,0:0:0:0:
231,149,81851,1,8,0:0:0:0:
269,174,82124,1,8,0:0:0:0:
269,174,82261,1,8,0:0:0:0:
269,174,82397,1,0,0:0:0:0:
269,174,82670,1,0,0:0:0:0:
269,174,82942,1,8,0:0:0:0:
269,174,83215,1,8,0:0:0:0:
269,174,83351,1,0,0:0:0:0:
269,174,83420,1,0,0:0:0:0:
269,174,83488,1,8,0:0:0:0:
269,174,83624,1,8,0:0:0:0:
269,174,83761,1,0,0:0:0:0:
269,174,83897,1,0,0:0:0:0:
269,174,84033,1,8,0:0:0:0:
269,174,84306,1,0,0:0:0:0:
269,174,84442,1,8,0:0:0:0:
269,174,84579,1,0,0:0:0:0:
269,174,84851,1,0,0:0:0:0:
269,174,85124,1,8,0:0:0:0:
269,174,85397,1,0,0:0:0:0:
269,174,85533,1,8,0:0:0:0:
269,174,85601,1,8,0:0:0:0:
269,174,85670,1,0,0:0:0:0:
269,174,85806,1,0,0:0:0:0:
269,174,85942,1,8,0:0:0:0:
269,174,86079,1,0,0:0:0:0:
269,174,86215,1,8,0:0:0:0:
247,141,86351,1,8,0:0:0:0:
269,174,86488,1,0,0:0:0:0:
257,189,86624,1,0,0:0:0:0:
269,174,86761,1,8,0:0:0:0:
153,176,87033,1,0,0:0:0:0:
237,180,87306,1,8,0:0:0:0:
211,172,87579,1,0,0:0:0:0:
211,172,87715,1,8,0:0:0:0:
211,172,87783,1,0,0:0:0:0:
211,172,87851,1,8,0:0:0:0:
211,172,87988,1,0,0:0:0:0:
211,172,88124,1,8,0:0:0:0:
211,172,88397,1,0,0:0:0:0:
211,172,88670,1,8,0:0:0:0:
231,140,88942,1,0,0:0:0:0:
231,149,89215,1,8,0:0:0:0:
231,149,89351,1,0,0:0:0:0:
231,149,89488,1,8,0:0:0:0:
231,149,89760,1,0,0:0:0:0:
231,149,89897,1,8,0:0:0:0:
231,149,89965,1,8,0:0:0:0:
231,149,90033,1,0,0:0:0:0:
231,149,90169,1,8,0:0:0:0:
231,149,90306,1,0,0:0:0:0:
230,131,90442,1,0,0:0:0:0:
231,149,90578,1,8,0:0:0:0:
269,174,90851,1,8,0:0:0:0:
269,174,90988,1,8,0:0:0:0:
269,174,91124,1,0,0:0:0:0:
269,174,91397,1,0,0:0:0:0:
269,174,91669,1,8,0:0:0:0:
269,174,91942,1,8,0:0:0:0:
269,174,92078,1,0,0:0:0:0:
269,174,92147,1,0,0:0:0:0:
269,174,92215,1,8,0:0:0:0:
269,174,92351,1,8,0:0:0:0:
269,174,92488,1,0,0:0:0:0:
269,174,92624,1,0,0:0:0:0:
269,174,92760,1,8,0:0:0:0:
269,174,93033,1,0,0:0:0:0:
269,174,93169,1,8,0:0:0:0:
269,174,93306,1,0,0:0:0:0:
269,174,93578,1,0,0:0:0:0:
269,174,93851,1,8,0:0:0:0:
269,174,94124,1,0,0:0:0:0:
269,174,94260,1,8,0:0:0:0:
269,174,94328,1,8,0:0:0:0:
269,174,94397,1,0,0:0:0:0:
269,174,94533,1,0,0:0:0:0:
269,174,94669,1,8,0:0:0:0:
269,174,94806,1,0,0:0:0:0:
269,174,94942,1,8,0:0:0:0:
269,174,95215,1,0,0:0:0:0:
257,189,95351,1,0,0:0:0:0:
269,174,95488,1,8,0:0:0:0:
153,176,95760,1,8,0:0:0:0:
242,144,95897,1,0,0:0:0:0:
237,180,96033,1,8,0:0:0:0:
211,172,96306,1,0,0:0:0:0:
211,172,96442,1,8,0:0:0:0:
211,172,96510,1,8,0:0:0:0:
211,172,96578,1,0,0:0:0:0:
238,131,96851,1,8,0:0:0:0:
211,172,96988,1,0,0:0:0:0:
211,172,97261,1,0,0:0:0:0:
211,172,97397,1,8,0:0:0:0:
211,172,97670,1,4,0:0:0:0:
226,188,98079,1,0,0:0:0:0:
225,187,98215,1,8,0:0:0:0:
225,183,98488,1,0,0:0:0:0:
223,182,98624,1,8,0:0:0:0:
222,182,98761,1,0,0:0:0:0:
220,179,99033,1,0,0:0:0:0:
218,178,99306,1,8,0:0:0:0:
218,178,99579,1,8,0:0:0:0:
216,177,99715,1,8,0:0:0:0:
214,176,99851,1,0,0:0:0:0:
210,124,100261,1,0,0:0:0:0:
210,124,100397,1,8,0:0:0:0:
210,124,100670,1,8,0:0:0:0:
210,124,100806,1,0,0:0:0:0:
210,124,100942,1,8,0:0:0:0:
210,124,101215,1,0,0:0:0:0:
210,124,101488,1,8,0:0:0:0:
210,124,101761,1,8,0:0:0:0:
206,120,101897,1,8,0:0:0:0:
202,119,102033,1,0,0:0:0:0:
200,118,102442,1,0,0:0:0:0:
200,118,102579,1,8,0:0:0:0:
200,118,102851,1,0,0:0:0:0:
200,118,103124,1,8,0:0:0:0:
200,118,103397,1,0,0:0:0:0:
205,100,103533,1,0,0:0:0:0:
200,118,103670,1,8,0:0:0:0:
211,125,103806,1,8,0:0:0:0:
200,118,103942,1,0,0:0:0:0:
256,102,104215,1,0,0:0:0:0:
207,123,104624,1,0,0:0:0:0:
205,123,104761,1,8,0:0:0:0:
219,98,105033,1,8,0:0:0:0:
219,98,105306,1,0,0:0:0:0:
219,98,105579,1,0,0:0:0:0:
212,95,105715,1,0,0:0:0:0:
245,94,105851,1,8,0:0:0:0:
245,94,106124,1,8,0:0:0:0:
245,94,106397,1,4,0:0:0:0:
245,94,106806,1,0,0:0:0:0:
245,94,106942,1,8,0:0:0:0:
245,94,107215,1,0,0:0:0:0:
260,97,107488,1,0,0:0:0:0:
245,94,107761,1,8,0:0:0:0:
258,96,107897,1,0,0:0:0:0:
245,94,108033,1,8,0:0:0:0:
260,97,108306,1,8,0:0:0:0:
256,96,108579,1,0,0:0:0:0:
256,96,108988,1,0,0:0:0:0:
253,95,109124,1,8,0:0:0:0:
256,96,109397,1,0,0:0:0:0:
247,93,109670,1,0,0:0:0:0:
245,93,109942,1,8,0:0:0:0:
242,92,110079,1,0,0:0:0:0:
242,92,110215,1,8,0:0:0:0:
241,92,110488,1,0,0:0:0:0:
254,90,110761,1,0,0:0:0:0:
253,90,111170,1,0,0:0:0:0:
252,89,111306,1,8,0:0:0:0:
254,90,111579,1,0,0:0:0:0:
253,90,111851,1,8,0:0:0:0:
253,90,112124,1,0,0:0:0:0:
247,88,112261,1,0,0:0:0:0:
254,90,112397,1,8,0:0:0:0:
248,88,112670,1,8,0:0:0:0:
245,86,112942,1,0,0:0:0:0:
269,100,113351,1,0,0:0:0:0:
269,100,113488,1,8,0:0:0:0:
266,98,113761,1,0,0:0:0:0:
269,100,114033,1,8,0:0:0:0:
262,96,115124,1,4,0:0:0:0:
212,79,115397,1,8,0:0:0:0:
255,113,115533,1,0,0:0:0:0:
255,113,115670,1,8,0:0:0:0:
255,113,115942,1,8,0:0:0:0:
255,113,116079,1,8,0:0:0:0:
255,113,116215,1,0,0:0:0:0:
255,113,116488,1,0,0:0:0:0:
255,113,116761,1,8,0:0:0:0:
255,113,117033,1,8,0:0:0:0:
255,113,117306,1,0,0:0:0:0:
212,79,117579,1,0,0:0:0:0:
255,113,117715,1,0,0:0:0:0:
255,113,117851,1,8,0:0:0:0:
245,108,118124,1,8,0:0:0:0:
245,108,118261,1,0,0:0:0:0:
245,108,118397,1,8,0:0:0:0:
245,108,118670,1,0,0:0:0:0:
245,108,118942,1,8,0:0:0:0:
240,105,119215,1,8,0:0:0:0:
239,104,119488,1,0,0:0:0:0:
208,79,119761,1,8,0:0:0:0:
234,103,119897,1,0,0:0:0:0:
234,103,120033,1,8,0:0:0:0:
239,104,120306,1,8,0:0:0:0:
193,119,120442,1,8,0:0:0:0:
236,107,120579,1,0,0:0:0:0:
235,107,120851,1,8,0:0:0:0:
235,107,120988,1,0,0:0:0:0:
235,107,121124,1,8,0:0:0:0:
193,119,121261,1,8,0:0:0:0:
234,114,121397,1,0,0:0:0:0:
233,114,121670,1,0,0:0:0:0:
193,119,121942,1,8,0:0:0:0:
233,114,122079,1,0,0:0:0:0:
234,114,122215,1,8,0:0:0:0:
233,114,122488,1,0,0:0:0:0:
233,114,122761,1,8,0:0:0:0:
233,114,123033,1,0,0:0:0:0:
233,114,123306,1,8,0:0:0:0:
233,114,123579,1,8,0:0:0:0:
233,114,123851,1,0,0:0:0:0:
190,118,124124,1,0,0:0:0:0:
233,114,124261,1,0,0:0:0:0:
233,114,124397,1,8,0:0:0:0:
233,114,124670,1,8,0:0:0:0:
233,114,124806,1,8,0:0:0:0:
233,114,124942,1,0,0:0:0:0:
189,118,125215,1,0,0:0:0:0:
189,118,125488,1,8,0:0:0:0:
189,118,125624,1,0,0:0:0:0:
189,118,125761,1,8,0:0:0:0:
183,117,126033,1,0,0:0:0:0:
176,114,126306,1,0,0:0:0:0:
174,114,126442,1,0,0:0:0:0:
174,113,126579,1,8,0:0:0:0:
172,113,126851,1,8,0:0:0:0:
176,114,127124,1,0,0:0:0:0:
174,114,127397,1,0,0:0:0:0:
172,113,127670,1,8,0:0:0:0:
169,112,127942,1,8,0:0:0:0:
165,111,128215,1,0,0:0:0:0:
165,111,128488,1,0,0:0:0:0:
165,111,128624,1,0,0:0:0:0:
169,112,128761,1,8,0:0:0:0:
165,111,129033,1,8,0:0:0:0:
165,111,129306,1,0,0:0:0:0:
222,107,129579,1,8,0:0:0:0:
222,107,129715,1,0,0:0:0:0:
222,107,129851,1,8,0:0:0:0:
207,104,130124,1,8,0:0:0:0:
207,104,130397,1,0,0:0:0:0:
207,104,130670,1,0,0:0:0:0:
206,103,130806,1,0,0:0:0:0:
207,104,130942,1,8,0:0:0:0:
207,104,131215,1,8,0:0:0:0:
207,104,131489,1,4,0:0:0:0:
274,171,132579,1,8,0:0:0:0:
