osu file format v14

[General]
AudioFilename: audio.mp3
AudioLeadIn: 0
PreviewTime: 40783
Countdown: 0
SampleSet: Normal
StackLeniency: 0.7
Mode: 1
LetterboxInBreaks: 0
WidescreenStoryboard: 1

[Editor]
DistanceSpacing: 1.8
BeatDivisor: 4
GridSize: 32
TimelineZoom: 2.799999

[Metadata]
Title:Kodak Yak
TitleUnicode:Kodak Yak
Artist:dive to the heart
ArtistUnicode:ང།སཇ ཎ༳ ཎལཇ ལཇཅཁ༒
Creator:Boaz
Version:Oni
Source:
Tags:ler1211 rinze dtth divetotheart hyperflip english japanese electronic
BeatmapID:4084022
BeatmapSetID:1956417

[Difficulty]
HPDrainRate:6.2
CircleSize:5
OverallDifficulty:5.8
ApproachRate:5
SliderMultiplier:1.4
SliderTickRate:1

[Events]
//Background and Video events
0,0,"bg.jpg",0,100
//Break Periods
//Storyboard Layer 0 (Background)
//Storyboard Layer 1 (Fail)
//Storyboard Layer 2 (Pass)
//Storyboard Layer 3 (Foreground)
//Storyboard Layer 4 (Overlay)
//Storyboard Sound Samples

[TimingPoints]
2983,300,4,1,0,100,1,0
2983,-83.3333333333333,4,1,0,85,0,0
22182,-83.33567,4,1,0,75,0,0
22482,-84.04186,4,1,0,75,0,0
22707,-84.57541,4,1,0,75,0,0
22857,-84.93301,4,1,0,75,0,0
22932,-85.11236,4,1,0,75,0,0
23007,-85.292114,4,1,0,75,0,0
23082,-85.47222,4,1,0,75,0,0
23232,-85.8336,4,1,0,75,0,0
23307,-86.01487,4,1,0,75,0,0
23382,-86.19652,4,1,0,75,0,0
23532,-86.56095,4,1,0,75,0,0
23682,-86.92693,4,1,0,75,0,0
23907,-87.47882,4,1,0,75,0,0
24057,-87.84868,4,1,0,75,0,0
24132,-88.034195,4,1,0,75,0,0
24207,-88.22011,4,1,0,75,0,0
24282,-88.4064,4,1,0,75,0,0
24582,-89.155556,4,1,0,75,0,0
24732,-89.53251,4,1,0,75,0,0
24882,-89.91106,4,1,0,75,0,0
25107,-90.48187,4,1,0,75,0,0
25332,-91.05632,4,1,0,75,0,0
25482,-91.44131,4,1,0,75,0,0
25632,-91.82793,4,1,0,75,0,0
25782,-92.21618,4,1,0,75,0,0
25932,-92.60607,4,1,0,75,0,0
26007,-92.80164,4,1,0,75,0,0
26082,-92.99761,4,1,0,75,0,0
26382,-93.785675,4,1,0,75,0,0
26532,-94.1822,4,1,0,75,0,0
26682,-94.5804,4,1,0,75,0,0
26832,-94.98029,4,1,0,75,0,0
26982,-95.381874,4,1,0,75,0,0
27132,-95.78516,4,1,0,75,0,0
27282,-96.19013,4,1,0,75,0,0
27582,-97.00524,4,1,0,75,0,0
27732,-97.41538,4,1,0,75,0,0
27807,-97.62111,4,1,0,75,0,0
27882,-97.82727,4,1,0,75,0,0
28032,-98.24087,4,1,0,75,0,0
28182,-98.65624,4,1,0,75,0,0
28332,-99.073364,4,1,0,75,0,0
28482,-99.492256,4,1,0,75,0,0
28782,-100.33534,4,1,0,75,0,0
28932,-100.75957,4,1,0,75,0,0
29007,-100.97235,4,1,0,75,0,0
29082,-101.18558,4,1,0,75,0,0
29232,-101.613396,4,1,0,75,0,0
29382,-102.04302,4,1,0,75,0,0
29532,-102.47446,4,1,0,75,0,0
29682,-102.90772,4,1,0,75,0,0
29982,-103.77976,4,1,0,75,0,0
30057,-103.99892,4,1,0,75,0,0
30132,-104.21854,4,1,0,75,0,0
30282,-104.65917,4,1,0,75,0,0
30432,-105.10168,4,1,0,75,0,0
30582,-105.54606,4,1,0,75,0,0
30732,-105.99232,4,1,0,75,0,0
30807,-106.21614,4,1,0,75,0,0
30882,-106.44045,4,1,0,75,0,0
31182,-107.34242,4,1,0,75,0,0
31332,-107.79626,4,1,0,75,0,0
31482,-108.25204,4,1,0,75,0,0
31632,-108.709724,4,1,0,75,0,0
31782,-109.16935,4,1,0,75,0,0
31857,-109.39989,4,1,0,75,0,0
31932,-109.63092,4,1,0,75,0,0
32082,-110.094444,4,1,0,75,0,0
32382,-111.02738,4,1,0,75,0,0
32532,-111.49682,4,1,0,75,0,0
32607,-111.73226,4,1,0,75,0,0
32682,-111.968216,4,1,0,75,0,0
32832,-112.44162,4,1,0,75,0,0
32982,-112.91703,4,1,0,75,0,0
33132,-113.394455,4,1,0,75,0,0
33282,-113.87388,4,1,0,75,0,0
33582,-114.83884,4,1,0,75,0,0
33732,-115.32439,4,1,0,75,0,0
33807,-115.56793,4,1,0,75,0,0
33882,-115.81198,4,1,0,75,0,0
34032,-116.30164,4,1,0,75,0,0
34182,-116.79336,4,1,0,75,0,0
34332,-117.28716,4,1,0,75,0,0
34482,-117.78308,4,1,0,75,0,0
34782,-118.78116,4,1,0,75,0,0
34857,-119.032,4,1,0,75,0,0
34932,-119.28336,4,1,0,75,0,0
35082,-119.7877,4,1,0,75,0,0
35232,-120.29416,4,1,0,75,0,0
35382,-120.80277,4,1,0,75,0,0
35532,-121.31353,4,1,0,75,0,0
35607,-121.56972,4,1,0,75,0,0
35682,-121.82645,4,1,0,75,0,0
35982,-122.858795,4,1,0,75,0,0
36132,-123.37825,4,1,0,75,0,0
36282,-123.89991,4,1,0,75,0,0
36357,-124.16154,4,1,0,75,0,0
36432,-124.42374,4,1,0,75,0,0
36582,-124.99191,4,1,0,75,0,0
36732,-123.785484,4,1,0,75,0,0
36882,-122.590675,4,1,0,75,0,0
37032,-121.407394,4,1,0,75,0,0
37182,-120.23554,4,1,0,75,0,0
37332,-119.07501,4,1,0,75,0,0
37482,-117.925674,4,1,0,75,0,0
37632,-116.78744,4,1,0,75,0,0
37782,-115.66017,4,1,0,75,0,0
37932,-114.54379,4,1,0,75,0,0
38082,-113.4382,4,1,0,75,0,0
38232,-112.34328,4,1,0,75,0,0
38382,-111.25891,4,1,0,75,0,0
38532,-110.18502,4,1,0,75,0,0
38682,-109.121506,4,1,0,75,0,0
38832,-108.06823,4,1,0,75,0,0
38982,-107.02514,4,1,0,75,0,0
39132,-105.9921,4,1,0,75,0,0
39282,-104.96905,4,1,0,75,0,0
39432,-103.95588,4,1,0,75,0,0
39582,-102.95248,4,1,0,75,0,0
39732,-101.95875,4,1,0,75,0,0
39882,-100.97463,4,1,0,75,0,0
40032,-100,4,1,0,75,0,0
40783,-80,4,1,0,80,0,0
41376,600,4,1,0,100,1,0
41376,-100,4,1,0,90,0,1
41377,-100,4,1,0,90,0,1
41526,-100,4,1,0,90,0,1
41826,-100,4,1,0,90,0,1
41976,-100,4,1,0,90,0,1
42126,-100,4,1,0,90,0,1
42276,-100,4,1,0,90,0,1
43176,-100,4,1,0,90,0,1
43326,-100,4,1,0,90,0,1
43776,-100,4,1,0,90,0,1
43777,-100,4,1,0,90,0,1
44076,-100,4,1,0,90,0,1
44226,-100,4,1,0,90,0,1
44376,-100,4,1,0,90,0,1
44676,-100,4,1,0,90,0,1
45576,-100,4,1,0,90,0,1
45876,-100,4,1,0,90,0,1
46176,-100,4,1,0,90,0,1
46177,-100,4,1,0,90,0,1
46476,-100,4,1,0,90,0,1
46626,-100,4,1,0,90,0,1
46776,-100,4,1,0,90,0,1
47076,-100,4,1,0,90,0,1
47976,-100,4,1,0,90,0,1
48126,-100,4,1,0,90,0,1
48576,-100,4,1,0,90,0,1
48577,-100,4,1,0,90,0,1
48726,-100,4,1,0,90,0,1
49026,-100,4,1,0,90,0,1
49176,-100,4,1,0,90,0,1
49326,-100,4,1,0,90,0,1
49476,-100,4,1,0,90,0,1
50376,-100,4,1,0,90,0,1
50526,-100,4,1,0,90,0,1
50976,-100,4,1,0,90,0,1
50977,-100,4,1,0,90,0,1
51126,-100,4,1,0,90,0,1
51426,-100,4,1,0,90,0,1
51576,-100,4,1,0,90,0,1
51876,-100,4,1,0,90,0,1
52026,-100,4,1,0,90,0,1
52776,-100,4,1,0,90,0,1
53076,-100,4,1,0,90,0,1
53376,-100,4,1,0,90,0,1
53377,-100,4,1,0,90,0,1
53676,-100,4,1,0,90,0,1
53826,-100,4,1,0,90,0,1
53976,-100,4,1,0,90,0,1
54276,-100,4,1,0,90,0,1
54426,-100,4,1,0,90,0,1
55176,-100,4,1,0,90,0,1
55476,-100,4,1,0,90,0,1
55776,-100,4,1,0,90,0,1
55777,-100,4,1,0,90,0,1
56076,-100,4,1,0,90,0,1
56226,-100,4,1,0,90,0,1
56376,-100,4,1,0,90,0,1
56676,-100,4,1,0,90,0,1
57576,-100,4,1,0,90,0,1
57726,-100,4,1,0,90,0,1
58176,-100,4,1,0,90,0,1
58177,-100,4,1,0,90,0,1
58326,-100,4,1,0,90,0,1
58626,-100,4,1,0,90,0,1
58776,-100,4,1,0,90,0,1
58926,-100,4,1,0,90,0,1
59076,-100,4,1,0,90,0,1
59376,-100,4,1,0,90,0,1
59976,-100,4,1,0,90,0,1
60126,-100,4,1,0,90,0,1
60576,-100,4,1,0,75,0,0
62761,272.727272727273,4,1,0,100,1,0
62761,-222.222222222222,4,1,0,75,0,0
79669,-222.22223,4,1,0,75,0,0
79941,-172.21329,4,1,0,75,0,0
80078,-151.46043,4,1,0,75,0,0
80214,-133.33333,4,1,0,75,0,0
91123,-133.33333,4,1,0,75,0,0
91396,-132.12227,4,1,0,75,0,0
91668,-130.9266,4,1,0,75,0,0
91941,-129.73741,4,1,0,75,0,0
92077,-129.149,4,1,0,75,0,0
92146,-128.85153,4,1,0,75,0,0
92214,-128.559,4,1,0,75,0,0
92350,-127.97596,4,1,0,75,0,0
92487,-127.391304,4,1,0,75,0,0
92623,-126.81357,4,1,0,75,0,0
92759,-126.23845,4,1,0,75,0,0
93032,-125.09183,4,1,0,75,0,0
93168,-124.52451,4,1,0,75,0,0
93305,-123.95562,4,1,0,75,0,0
93577,-122.83385,4,1,0,75,0,0
93850,-121.71816,4,1,0,75,0,0
94123,-120.61261,4,1,0,75,0,0
94259,-120.0656,4,1,0,75,0,0
94327,-119.79303,4,1,0,75,0,0
94396,-119.51708,4,1,0,75,0,0
94532,-118.97505,4,1,0,75,0,0
94668,-118.43547,4,1,0,75,0,0
94805,-117.89441,4,1,0,75,0,0
94941,-117.35973,4,1,0,75,0,0
95214,-116.29376,4,1,0,75,0,0
95350,-115.76634,4,1,0,75,0,0
95487,-115.23747,4,1,0,75,0,0
95759,-114.1946,4,1,0,75,0,0
95896,-113.6729,4,1,0,75,0,0
96032,-113.157364,4,1,0,75,0,0
96305,-112.12958,4,1,0,75,0,0
96441,-111.62105,4,1,0,75,0,0
96509,-111.367645,4,1,0,75,0,0
96577,-111.114815,4,1,0,75,0,0
97669,-90.91011,4,1,0,75,0,0
98078,-91.33028,4,1,0,75,0,0
98214,-91.47041,4,1,0,75,0,0
98487,-91.752365,4,1,0,75,0,0
98623,-91.893166,4,1,0,75,0,0
98760,-92.03521,4,1,0,75,0,0
99032,-92.31787,4,1,0,75,0,0
99305,-92.60244,4,1,0,75,0,0
99578,-92.88789,4,1,0,75,0,0
99714,-93.03042,4,1,0,75,0,0
99850,-93.17317,4,1,0,75,0,0
100260,-93.60484,4,1,0,75,0,0
100396,-93.748474,4,1,0,75,0,0
100669,-94.03746,4,1,0,75,0,0
100805,-94.181755,4,1,0,75,0,0
100941,-94.32627,4,1,0,75,0,0
101214,-94.617035,4,1,0,75,0,0
101487,-94.90869,4,1,0,75,0,0
101760,-95.201256,4,1,0,75,0,0
102032,-95.49364,4,1,0,75,0,0
102441,-95.934975,4,1,0,75,0,0
102578,-96.08327,4,1,0,75,0,0
102850,-96.378365,4,1,0,75,0,0
103123,-96.675446,4,1,0,75,0,0
103396,-96.973465,4,1,0,75,0,0
103532,-97.12226,4,1,0,75,0,0
103669,-97.27238,4,1,0,75,0,0
103805,-97.42164,4,1,0,75,0,0
103941,-97.57114,4,1,0,75,0,0
104214,-97.871895,4,1,0,75,0,0
104623,-98.32423,4,1,0,75,0,0
104760,-98.47622,4,1,0,75,0,0
105032,-98.77865,4,1,0,75,0,0
105305,-99.083145,4,1,0,75,0,0
105578,-99.38857,4,1,0,75,0,0
105714,-99.54108,4,1,0,75,0,0
105850,-99.693825,4,1,0,75,0,0
106123,-100.00113,4,1,0,75,0,0
106396,-90.910225,4,1,0,75,0,0
106805,-91.37551,4,1,0,75,0,0
106941,-91.53075,4,1,0,75,0,0
107214,-91.84317,4,1,0,75,0,0
107487,-92.15666,4,1,0,75,0,0
107760,-92.47123,4,1,0,75,0,0
107896,-92.628334,4,1,0,75,0,0
108032,-92.78569,4,1,0,75,0,0
108305,-93.1024,4,1,0,75,0,0
108578,-93.4202,4,1,0,75,0,0
108987,-93.898315,4,1,0,75,0,0
109123,-94.05785,4,1,0,75,0,0
109396,-94.3789,4,1,0,75,0,0
109669,-94.70104,4,1,0,75,0,0
109941,-95.0231,4,1,0,75,0,0
110214,-95.34746,4,1,0,75,0,0
110487,-95.6729,4,1,0,75,0,0
110760,-95.99945,4,1,0,75,0,0
111169,-96.49078,4,1,0,75,0,0
111305,-96.65472,4,1,0,75,0,0
111578,-96.98463,4,1,0,75,0,0
111850,-97.31446,4,1,0,75,0,0
112123,-97.64663,4,1,0,75,0,0
112260,-97.813736,4,1,0,75,0,0
112396,-97.97993,4,1,0,75,0,0
112669,-98.31435,4,1,0,75,0,0
112941,-98.64871,4,1,0,75,0,0
113350,-99.1536,4,1,0,75,0,0
113487,-99.323296,4,1,0,75,0,0
113760,-99.662315,4,1,0,75,0,0
114032,-100.00124,4,1,0,75,0,0
115123,-86.95728,4,1,0,75,0,0
115532,-87.26674,4,1,0,75,0,0
115669,-87.370636,4,1,0,75,0,0
115941,-87.57729,4,1,0,75,0,0
116078,-87.68158,4,1,0,75,0,0
116214,-87.78521,4,1,0,75,0,0
116487,-87.993614,4,1,0,75,0,0
116760,-88.202515,4,1,0,75,0,0
117032,-88.41114,4,1,0,75,0,0
117305,-88.62103,4,1,0,75,0,0
117714,-88.93642,4,1,0,75,0,0
117850,-89.041534,4,1,0,75,0,0
118123,-89.252914,4,1,0,75,0,0
118260,-89.359184,4,1,0,75,0,0
118396,-89.46481,4,1,0,75,0,0
118669,-89.67719,4,1,0,75,0,0
118941,-89.88931,4,1,0,75,0,0
119214,-90.10271,4,1,0,75,0,0
119487,-90.31661,4,1,0,75,0,0
119896,-90.63803,4,1,0,75,0,0
120032,-90.74516,4,1,0,75,0,0
120305,-90.96059,4,1,0,75,0,0
120441,-91.0681,4,1,0,75,0,0
120578,-91.17653,4,1,0,75,0,0
120850,-91.3922,4,1,0,75,0,0
120987,-91.50101,4,1,0,75,0,0
121123,-91.60916,4,1,0,75,0,0
121396,-91.826645,4,1,0,75,0,0
121669,-92.04464,4,1,0,75,0,0
122078,-92.3722,4,1,0,75,0,0
122214,-92.48139,4,1,0,75,0,0
122487,-92.700935,4,1,0,75,0,0
122760,-92.92101,4,1,0,75,0,0
123032,-93.1408,4,1,0,75,0,0
123305,-93.361916,4,1,0,75,0,0
123578,-93.58356,4,1,0,75,0,0
123850,-93.80491,4,1,0,75,0,0
124260,-94.139565,4,1,0,75,0,0
124396,-94.25083,4,1,0,75,0,0
124669,-94.47459,4,1,0,75,0,0
124805,-94.58625,4,1,0,75,0,0
124941,-94.69804,4,1,0,75,0,0
125214,-94.92287,4,1,0,75,0,0
125487,-95.1482,4,1,0,75,0,0
125623,-95.26067,4,1,0,75,0,0
125760,-95.37409,4,1,0,75,0,0
126032,-95.59969,4,1,0,75,0,0
126441,-95.9399,4,1,0,75,0,0
126578,-96.05413,4,1,0,75,0,0
126850,-96.28133,4,1,0,75,0,0
127123,-96.5099,4,1,0,75,0,0
127396,-96.73902,4,1,0,75,0,0
127669,-96.96867,4,1,0,75,0,0
127941,-97.198044,4,1,0,75,0,0
128214,-97.42879,4,1,0,75,0,0
128623,-97.77551,4,1,0,75,0,0
128760,-97.89193,4,1,0,75,0,0
129032,-98.123474,4,1,0,75,0,0
129305,-98.35642,4,1,0,75,0,0
129578,-98.58993,4,1,0,75,0,0
129714,-98.70645,4,1,0,75,0,0
129850,-98.82311,4,1,0,75,0,0
130123,-99.05773,4,1,0,75,0,0
130396,-99.29289,4,1,0,75,0,0
130805,-99.64625,4,1,0,75,0,0
130941,-99.76404,4,1,0,75,0,0
131214,-100.00088,4,1,0,75,0,0
131488,-80,4,1,0,80,0,0
131556,-66.6666666666667,4,1,0,50,0,0
132579,-142.857142857143,4,1,0,30,0,0

[HitObjects]
239,176,2983,5,0,0:0:0:0:
217,170,3133,1,8,0:0:0:0:
217,170,3208,1,8,0:0:0:0:
239,176,3283,1,0,0:0:0:0:
216,170,3433,1,8,0:0:0:0:
239,176,3583,1,0,0:0:0:0:
216,170,3658,1,0,0:0:0:0:
216,170,3733,1,8,0:0:0:0:
216,170,3883,1,8,0:0:0:0:
217,170,4033,1,8,0:0:0:0:
239,176,4183,1,0,0:0:0:0:
239,176,4483,1,8,0:0:0:0:
216,170,4633,1,0,0:0:0:0:
239,176,4783,1,0,0:0:0:0:
216,170,4858,1,8,0:0:0:0:
216,170,4933,1,0,0:0:0:0:
212,168,5008,1,8,0:0:0:0:
212,168,5158,1,0,0:0:0:0:
216,170,5233,1,8,0:0:0:0:
199,164,5308,1,8,0:0:0:0:
239,176,5383,1,0,0:0:0:0:
239,176,5683,1,8,0:0:0:0:
216,170,5833,1,0,0:0:0:0:
239,176,5983,1,8,0:0:0:0:
212,168,6058,1,8,0:0:0:0:
216,170,6133,1,0,0:0:0:0:
216,170,6283,1,8,0:0:0:0:
216,170,6433,1,8,0:0:0:0:
239,176,6583,1,0,0:0:0:0:
212,168,6883,1,0,0:0:0:0:
212,168,7033,1,8,0:0:0:0:
239,176,7183,1,0,0:0:0:0:
216,170,7258,1,0,0:0:0:0:
216,170,7333,1,8,0:0:0:0:
216,170,7408,1,0,0:0:0:0:
239,176,7558,1,8,0:0:0:0:
218,137,7633,1,8,0:0:0:0:
218,137,7708,1,0,0:0:0:0:
239,176,7783,1,0,0:0:0:0:
239,176,8083,1,8,0:0:0:0:
216,170,8233,1,0,0:0:0:0:
239,176,8383,1,8,0:0:0:0:
216,170,8458,1,0,0:0:0:0:
216,170,8533,1,8,0:0:0:0:
239,176,8683,1,0,0:0:0:0:
212,168,8833,1,8,0:0:0:0:
239,176,8983,1,0,0:0:0:0:
239,176,9283,1,8,0:0:0:0:
216,170,9433,1,0,0:0:0:0:
239,176,9583,1,8,0:0:0:0:
216,170,9658,1,0,0:0:0:0:
212,168,9733,1,8,0:0:0:0:
212,168,9808,1,0,0:0:0:0:
212,168,9958,1,8,0:0:0:0:
216,170,10033,1,8,0:0:0:0:
253,182,10108,1,8,0:0:0:0:
239,176,10183,1,0,0:0:0:0:
239,176,10483,1,8,0:0:0:0:
216,170,10633,1,0,0:0:0:0:
212,168,10783,1,8,0:0:0:0:
212,168,10858,1,8,0:0:0:0:
216,170,10933,1,0,0:0:0:0:
239,176,11083,1,8,0:0:0:0:
216,170,11233,1,8,0:0:0:0:
239,176,11383,1,0,0:0:0:0:
237,158,11683,1,8,0:0:0:0:
212,168,11833,1,0,0:0:0:0:
216,170,11983,1,8,0:0:0:0:
216,170,12058,1,8,0:0:0:0:
216,170,12133,1,0,0:0:0:0:
216,170,12208,1,0,0:0:0:0:
216,170,12358,1,0,0:0:0:0:
220,151,12433,1,0,0:0:0:0:
182,166,12508,1,8,0:0:0:0:
239,176,12583,1,0,0:0:0:0:
234,156,12883,1,8,0:0:0:0:
222,143,13033,1,0,0:0:0:0:
234,156,13183,1,0,0:0:0:0:
222,143,13258,1,8,0:0:0:0:
222,143,13333,1,0,0:0:0:0:
234,156,13483,1,8,0:0:0:0:
223,144,13633,1,8,0:0:0:0:
234,156,13783,1,0,0:0:0:0:
234,156,14083,1,8,0:0:0:0:
222,143,14233,1,8,0:0:0:0:
234,156,14383,1,0,0:0:0:0:
222,143,14458,1,0,0:0:0:0:
222,143,14533,1,8,0:0:0:0:
223,144,14608,1,0,0:0:0:0:
234,156,14758,1,8,0:0:0:0:
301,193,14833,1,8,0:0:0:0:
223,183,14908,1,8,0:0:0:0:
239,176,14983,1,0,0:0:0:0:
239,176,15283,1,8,0:0:0:0:
216,170,15433,1,0,0:0:0:0:
239,176,15583,1,8,0:0:0:0:
212,168,15658,1,8,0:0:0:0:
216,170,15733,1,0,0:0:0:0:
216,170,15883,1,8,0:0:0:0:
216,170,16033,1,8,0:0:0:0:
239,176,16183,1,0,0:0:0:0:
212,168,16483,1,0,0:0:0:0:
212,168,16633,1,8,0:0:0:0:
239,176,16783,1,0,0:0:0:0:
216,170,16858,1,0,0:0:0:0:
216,170,16933,1,8,0:0:0:0:
216,170,17008,1,0,0:0:0:0:
239,176,17158,1,8,0:0:0:0:
218,137,17233,1,8,0:0:0:0:
218,137,17308,1,0,0:0:0:0:
239,176,17383,1,0,0:0:0:0:
239,176,17683,1,8,0:0:0:0:
216,170,17833,1,0,0:0:0:0:
239,176,17983,1,8,0:0:0:0:
216,170,18058,1,0,0:0:0:0:
216,170,18133,1,0,0:0:0:0:
239,176,18283,1,8,0:0:0:0:
212,168,18433,1,8,0:0:0:0:
239,176,18583,1,0,0:0:0:0:
239,176,18883,1,8,0:0:0:0:
216,170,19033,1,0,0:0:0:0:
239,176,19183,1,8,0:0:0:0:
216,170,19258,1,0,0:0:0:0:
212,168,19333,1,8,0:0:0:0:
212,168,19408,1,0,0:0:0:0:
212,168,19558,1,8,0:0:0:0:
216,170,19633,1,8,0:0:0:0:
253,182,19708,1,8,0:0:0:0:
239,176,19783,1,0,0:0:0:0:
239,176,20083,1,8,0:0:0:0:
216,170,20233,1,0,0:0:0:0:
212,168,20383,1,8,0:0:0:0:
212,168,20458,1,8,0:0:0:0:
216,170,20533,1,0,0:0:0:0:
239,176,20683,1,8,0:0:0:0:
216,170,20833,1,8,0:0:0:0:
223,144,20983,1,0,0:0:0:0:
222,143,21283,1,8,0:0:0:0:
234,156,21433,1,0,0:0:0:0:
222,143,21583,1,8,0:0:0:0:
226,137,21658,1,8,0:0:0:0:
234,156,21733,1,8,0:0:0:0:
222,143,21808,1,0,0:0:0:0:
223,144,21958,1,0,0:0:0:0:
222,143,22033,1,8,0:0:0:0:
234,156,22108,1,8,0:0:0:0:
301,193,22183,1,0,0:0:0:0:
268,168,22483,1,8,0:0:0:0:
257,163,22708,1,0,0:0:0:0:
257,163,22858,1,8,0:0:0:0:
257,163,22933,1,0,0:0:0:0:
255,162,23008,1,0,0:0:0:0:
256,163,23083,1,8,0:0:0:0:
213,145,23233,1,0,0:0:0:0:
213,145,23308,1,8,0:0:0:0:
228,149,23383,1,0,0:0:0:0:
228,149,23533,1,0,0:0:0:0:
228,149,23683,1,8,0:0:0:0:
213,145,23908,1,0,0:0:0:0:
213,145,24058,1,8,0:0:0:0:
213,145,24133,1,0,0:0:0:0:
213,145,24208,1,0,0:0:0:0:
213,145,24283,1,8,0:0:0:0:
213,145,24583,1,0,0:0:0:0:
213,145,24733,1,0,0:0:0:0:
213,145,24883,1,8,0:0:0:0:
213,145,25108,1,0,0:0:0:0:
213,145,25333,1,0,0:0:0:0:
213,145,25483,1,8,0:0:0:0:
213,145,25633,1,0,0:0:0:0:
213,145,25783,1,8,0:0:0:0:
213,145,25933,1,0,0:0:0:0:
213,145,26008,1,0,0:0:0:0:
213,145,26083,1,8,0:0:0:0:
213,145,26383,1,0,0:0:0:0:
206,137,26533,1,8,0:0:0:0:
199,136,26683,1,0,0:0:0:0:
199,136,26833,1,8,0:0:0:0:
199,136,26983,1,0,0:0:0:0:
183,139,27133,1,0,0:0:0:0:
183,139,27283,1,8,0:0:0:0:
183,139,27583,5,8,0:0:0:0:
183,139,27733,1,0,0:0:0:0:
183,139,27808,1,0,0:0:0:0:
182,138,27883,1,8,0:0:0:0:
182,138,28033,1,8,0:0:0:0:
183,139,28183,1,0,0:0:0:0:
183,139,28333,1,0,0:0:0:0:
183,139,28483,1,8,0:0:0:0:
182,138,28783,5,0,0:0:0:0:
183,139,28933,1,8,0:0:0:0:
183,138,29008,1,0,0:0:0:0:
183,139,29083,1,8,0:0:0:0:
183,139,29233,1,8,0:0:0:0:
183,139,29383,1,0,0:0:0:0:
183,139,29533,1,0,0:0:0:0:
183,138,29683,1,8,0:0:0:0:
182,138,29983,1,8,0:0:0:0:
183,139,30058,1,8,0:0:0:0:
183,139,30133,1,0,0:0:0:0:
183,139,30283,1,0,0:0:0:0:
183,139,30433,1,8,0:0:0:0:
184,142,30583,1,0,0:0:0:0:
184,142,30733,1,0,0:0:0:0:
184,142,30808,1,0,0:0:0:0:
184,142,30883,1,8,0:0:0:0:
183,139,31183,1,0,0:0:0:0:
183,139,31333,1,8,0:0:0:0:
184,142,31483,1,0,0:0:0:0:
190,140,31633,1,8,0:0:0:0:
190,140,31783,1,0,0:0:0:0:
190,140,31858,1,8,0:0:0:0:
190,140,31933,1,0,0:0:0:0:
190,140,32083,1,8,0:0:0:0:
190,140,32383,1,8,0:0:0:0:
190,140,32533,1,0,0:0:0:0:
190,140,32608,1,0,0:0:0:0:
190,140,32683,1,8,0:0:0:0:
190,140,32833,1,8,0:0:0:0:
190,140,32983,1,0,0:0:0:0:
190,140,33133,1,0,0:0:0:0:
190,140,33283,1,8,0:0:0:0:
190,140,33583,1,0,0:0:0:0:
190,140,33733,1,8,0:0:0:0:
190,140,33808,1,0,0:0:0:0:
190,140,33883,1,8,0:0:0:0:
190,140,34033,1,8,0:0:0:0:
190,140,34183,1,0,0:0:0:0:
190,140,34333,1,0,0:0:0:0:
190,140,34483,1,8,0:0:0:0:
190,140,34783,1,8,0:0:0:0:
190,140,34858,1,8,0:0:0:0:
190,140,34933,1,8,0:0:0:0:
190,140,35083,1,0,0:0:0:0:
190,140,35233,1,8,0:0:0:0:
190,140,35383,1,0,0:0:0:0:
190,140,35533,1,0,0:0:0:0:
190,140,35608,1,0,0:0:0:0:
190,140,35683,1,8,0:0:0:0:
190,140,35983,1,0,0:0:0:0:
190,140,36133,1,8,0:0:0:0:
190,140,36283,1,0,0:0:0:0:
190,140,36358,1,0,0:0:0:0:
190,140,36433,1,8,0:0:0:0:
190,165,36583,5,8,0:0:0:0:
190,165,36733,1,0,0:0:0:0:
190,165,36883,1,0,0:0:0:0:
190,165,37033,1,8,0:0:0:0:
190,165,37183,1,0,0:0:0:0:
214,163,37333,1,0,0:0:0:0:
190,165,37483,1,8,0:0:0:0:
214,163,37633,1,8,0:0:0:0:
190,165,37783,1,0,0:0:0:0:
190,165,37933,1,0,0:0:0:0:
190,165,38083,1,8,0:0:0:0:
200,121,38233,1,0,0:0:0:0:
190,165,38383,1,8,0:0:0:0:
259,171,38533,1,8,0:0:0:0:
190,165,38683,1,0,0:0:0:0:
259,171,38833,1,0,0:0:0:0:
190,165,38983,1,8,0:0:0:0:
190,165,39133,1,0,0:0:0:0:
190,165,39283,1,8,0:0:0:0:
190,165,39433,1,0,0:0:0:0:
190,165,39583,1,0,0:0:0:0:
190,165,39733,1,8,0:0:0:0:
190,165,39883,1,8,0:0:0:0:
190,165,40033,1,0,0:0:0:0:
106,121,40183,2,0,L|330:124,1,210
234,157,40783,5,8,0:0:0:0:
234,157,41376,1,4,0:0:0:0:
219,109,41676,1,8,0:0:0:0:
229,129,41826,1,0,0:0:0:0:
229,129,41976,1,12,0:0:0:0:
229,129,42276,1,0,0:0:0:0:
231,119,42426,1,8,0:0:0:0:
231,119,42576,1,0,0:0:0:0:
229,129,42876,1,0,0:0:0:0:
211,105,43026,1,0,0:0:0:0:
229,129,43176,1,12,0:0:0:0:
202,107,43476,1,0,0:0:0:0:
229,129,43776,1,4,0:0:0:0:
201,107,44076,1,0,0:0:0:0:
229,129,44226,1,0,0:0:0:0:
229,129,44376,1,12,0:0:0:0:
229,129,44676,1,0,0:0:0:0:
225,138,44826,1,8,0:0:0:0:
225,138,44976,1,0,0:0:0:0:
229,129,45276,1,0,0:0:0:0:
229,129,45576,1,12,0:0:0:0:
234,123,45876,1,0,0:0:0:0:
229,129,46176,1,4,0:0:0:0:
192,123,46476,1,8,0:0:0:0:
229,129,46626,1,0,0:0:0:0:
229,129,46776,1,12,0:0:0:0:
229,129,47076,1,0,0:0:0:0:
200,141,47226,1,0,0:0:0:0:
200,141,47376,1,8,0:0:0:0:
229,129,47676,1,0,0:0:0:0:
229,129,47976,1,12,0:0:0:0:
215,123,48126,1,0,0:0:0:0:
215,123,48276,1,0,0:0:0:0:
229,129,48576,1,4,0:0:0:0:
215,123,48726,1,8,0:0:0:0:
215,122,48876,1,8,0:0:0:0:
229,129,49026,1,0,0:0:0:0:
229,129,49176,1,12,0:0:0:0:
215,122,49326,1,0,0:0:0:0:
229,129,49476,1,0,0:0:0:0:
205,124,49776,1,8,0:0:0:0:
205,124,49926,1,8,0:0:0:0:
229,129,50076,1,0,0:0:0:0:
161,112,50226,1,0,0:0:0:0:
229,129,50376,1,12,0:0:0:0:
161,112,50526,1,0,0:0:0:0:
161,112,50676,1,8,0:0:0:0:
229,129,50976,1,4,0:0:0:0:
200,107,51126,1,8,0:0:0:0:
200,107,51276,1,8,0:0:0:0:
219,122,51426,1,0,0:0:0:0:
218,152,51576,1,12,0:0:0:0:
219,122,51876,1,0,0:0:0:0:
207,127,52026,1,0,0:0:0:0:
207,127,52176,1,8,0:0:0:0:
219,122,52476,1,8,0:0:0:0:
207,109,52626,1,0,0:0:0:0:
219,122,52776,1,12,0:0:0:0:
193,102,53076,1,8,0:0:0:0:
193,102,53226,1,8,0:0:0:0:
219,122,53376,1,4,0:0:0:0:
214,103,53676,1,0,0:0:0:0:
219,122,53826,1,0,0:0:0:0:
219,122,53976,1,12,0:0:0:0:
219,122,54276,1,0,0:0:0:0:
194,121,54426,1,8,0:0:0:0:
194,121,54576,1,0,0:0:0:0:
219,122,54876,1,0,0:0:0:0:
219,122,55176,1,12,0:0:0:0:
190,103,55476,1,0,0:0:0:0:
219,122,55776,1,4,0:0:0:0:
209,102,56076,1,8,0:0:0:0:
219,122,56226,1,0,0:0:0:0:
219,122,56376,1,12,0:0:0:0:
219,122,56676,1,0,0:0:0:0:
223,119,56826,1,0,0:0:0:0:
219,122,56976,1,8,0:0:0:0:
219,122,57276,1,0,0:0:0:0:
219,122,57576,1,12,0:0:0:0:
206,117,57726,1,0,0:0:0:0:
206,116,57876,1,8,0:0:0:0:
219,122,58176,1,4,0:0:0:0:
229,94,58326,1,8,0:0:0:0:
229,94,58476,1,8,0:0:0:0:
219,122,58626,1,0,0:0:0:0:
219,122,58776,1,12,0:0:0:0:
200,117,58926,1,0,0:0:0:0:
219,122,59076,1,0,0:0:0:0:
228,125,59376,1,8,0:0:0:0:
228,125,59526,1,8,0:0:0:0:
219,122,59676,1,0,0:0:0:0:
216,97,59826,1,0,0:0:0:0:
219,122,59976,1,12,0:0:0:0:
216,97,60126,1,0,0:0:0:0:
216,97,60276,1,8,0:0:0:0:
219,122,60576,1,0,0:0:0:0:
228,141,62761,1,0,0:0:0:0:
228,141,63033,1,0,0:0:0:0:
247,169,63170,1,0,0:0:0:0:
228,141,63306,1,8,0:0:0:0:
236,156,63579,1,8,0:0:0:0:
247,169,63715,1,0,0:0:0:0:
235,155,63851,1,8,0:0:0:0:
235,155,64124,1,8,0:0:0:0:
236,156,64397,1,0,0:0:0:0:
235,155,64670,1,8,0:0:0:0:
240,165,64806,1,0,0:0:0:0:
235,155,64942,1,0,0:0:0:0:
222,162,65215,1,8,0:0:0:0:
222,162,65351,1,0,0:0:0:0:
239,157,65488,1,8,0:0:0:0:
239,157,65761,1,0,0:0:0:0:
239,157,66033,1,8,0:0:0:0:
239,157,66306,1,8,0:0:0:0:
239,157,66579,1,0,0:0:0:0:
239,157,66851,1,8,0:0:0:0:
221,162,66988,1,8,0:0:0:0:
239,157,67124,1,0,0:0:0:0:
239,157,67397,1,8,0:0:0:0:
239,157,67670,1,8,0:0:0:0:
239,157,67942,1,8,0:0:0:0:
221,162,68079,1,0,0:0:0:0:
239,157,68215,1,8,0:0:0:0:
239,157,68488,1,0,0:0:0:0:
158,140,68624,1,0,0:0:0:0:
239,157,68761,1,8,0:0:0:0:
239,157,69033,1,8,0:0:0:0:
217,160,69170,1,0,0:0:0:0:
239,157,69306,1,0,0:0:0:0:
221,162,69579,1,8,0:0:0:0:
239,126,69715,1,8,0:0:0:0:
239,157,69851,1,0,0:0:0:0:
239,157,70124,1,0,0:0:0:0:
215,159,70261,1,8,0:0:0:0:
239,157,70397,1,0,0:0:0:0:
239,157,70670,1,8,0:0:0:0:
239,157,70942,1,0,0:0:0:0:
239,157,71215,1,8,0:0:0:0:
215,159,71351,1,0,0:0:0:0:
239,157,71488,1,8,0:0:0:0:
227,155,71761,1,8,0:0:0:0:
229,128,71897,1,0,0:0:0:0:
227,138,72033,1,0,0:0:0:0:
227,138,72306,1,0,0:0:0:0:
227,155,72442,1,8,0:0:0:0:
227,138,72579,1,0,0:0:0:0:
227,138,72851,1,8,0:0:0:0:
227,138,73124,1,0,0:0:0:0:
227,138,73397,1,8,0:0:0:0:
225,154,73533,1,0,0:0:0:0:
227,138,73670,1,8,0:0:0:0:
227,138,73942,1,0,0:0:0:0:
227,138,74215,1,8,0:0:0:0:
227,138,74351,1,8,0:0:0:0:
227,138,74488,1,0,0:0:0:0:
223,144,74624,1,8,0:0:0:0:
227,138,74761,1,0,0:0:0:0:
231,140,75033,1,8,0:0:0:0:
231,140,75306,1,0,0:0:0:0:
231,140,75579,1,0,0:0:0:0:
231,140,75851,1,8,0:0:0:0:
231,140,76124,1,8,0:0:0:0:
231,140,76397,1,0,0:0:0:0:
231,140,76670,1,8,0:0:0:0:
224,153,76806,1,8,0:0:0:0:
231,140,76942,1,0,0:0:0:0:
231,140,77215,1,0,0:0:0:0:
231,140,77488,1,8,0:0:0:0:
223,152,77624,1,0,0:0:0:0:
231,140,77761,1,8,0:0:0:0:
222,152,77897,1,8,0:0:0:0:
231,140,78033,1,0,0:0:0:0:
231,140,78306,1,8,0:0:0:0:
218,150,78442,1,0,0:0:0:0:
231,140,78579,1,8,0:0:0:0:
231,140,78851,1,8,0:0:0:0:
216,149,78988,1,8,0:0:0:0:
231,140,79124,1,0,0:0:0:0:
231,140,79670,1,0,0:0:0:0:
231,140,79942,1,0,0:0:0:0:
213,147,80079,1,0,0:0:0:0:
231,140,80215,1,12,0:0:0:0:
231,149,80488,1,8,0:0:0:0:
231,149,80624,1,0,0:0:0:0:
231,149,80761,1,8,0:0:0:0:
231,149,81033,1,0,0:0:0:0:
231,149,81170,1,8,0:0:0:0:
231,149,81238,1,8,0:0:0:0:
231,149,81306,1,0,0:0:0:0:
231,149,81442,1,8,0:0:0:0:
231,149,81579,1,0,0:0:0:0:
230,131,81715,1,0,0:0:0:0:
231,149,81851,1,8,0:0:0:0:
269,174,82124,1,8,0:0:0:0:
269,174,82261,1,8,0:0:0:0:
269,174,82397,1,0,0:0:0:0:
269,174,82670,1,0,0:0:0:0:
269,174,82942,1,8,0:0:0:0:
269,174,83215,1,8,0:0:0:0:
269,174,83351,1,0,0:0:0:0:
269,174,83420,1,0,0:0:0:0:
269,174,83488,1,8,0:0:0:0:
269,174,83624,1,8,0:0:0:0:
269,174,83761,1,0,0:0:0:0:
269,174,83897,1,0,0:0:0:0:
269,174,84033,1,8,0:0:0:0:
269,174,84306,1,0,0:0:0:0:
269,174,84442,1,8,0:0:0:0:
269,174,84579,1,0,0:0:0:0:
269,174,84851,1,0,0:0:0:0:
269,174,85124,1,8,0:0:0:0:
269,174,85397,1,0,0:0:0:0:
269,174,85533,1,8,0:0:0:0:
269,174,85601,1,8,0:0:0:0:
269,174,85670,1,0,0:0:0:0:
269,174,85806,1,0,0:0:0:0:
269,174,85942,1,8,0:0:0:0:
269,174,86079,1,0,0:0:0:0:
269,174,86215,1,8,0:0:0:0:
269,174,86488,1,0,0:0:0:0:
257,189,86624,1,0,0:0:0:0:
269,174,86761,1,8,0:0:0:0:
153,176,87033,1,0,0:0:0:0:
237,180,87306,1,8,0:0:0:0:
211,172,87579,1,0,0:0:0:0:
211,172,87715,1,8,0:0:0:0:
211,172,87783,1,0,0:0:0:0:
211,172,87851,1,8,0:0:0:0:
211,172,87988,1,0,0:0:0:0:
211,172,88124,1,8,0:0:0:0:
211,172,88397,1,0,0:0:0:0:
211,172,88670,1,8,0:0:0:0:
231,140,88942,1,0,0:0:0:0:
231,149,89215,1,8,0:0:0:0:
231,149,89351,1,0,0:0:0:0:
231,149,89488,1,8,0:0:0:0:
231,149,89760,1,0,0:0:0:0:
231,149,89897,1,8,0:0:0:0:
231,149,89965,1,8,0:0:0:0:
231,149,90033,1,0,0:0:0:0:
231,149,90169,1,8,0:0:0:0:
231,149,90306,1,0,0:0:0:0:
230,131,90442,1,0,0:0:0:0:
231,149,90578,1,8,0:0:0:0:
269,174,90851,1,8,0:0:0:0:
269,174,90988,1,8,0:0:0:0:
269,174,91124,1,0,0:0:0:0:
269,174,91397,1,0,0:0:0:0:
269,174,91669,1,8,0:0:0:0:
269,174,91942,1,8,0:0:0:0:
269,174,92078,1,0,0:0:0:0:
269,174,92147,1,0,0:0:0:0:
269,174,92215,1,8,0:0:0:0:
269,174,92351,1,8,0:0:0:0:
269,174,92488,1,0,0:0:0:0:
269,174,92624,1,0,0:0:0:0:
269,174,92760,1,8,0:0:0:0:
269,174,93033,1,0,0:0:0:0:
269,174,93169,1,8,0:0:0:0:
269,174,93306,1,0,0:0:0:0:
269,174,93578,1,0,0:0:0:0:
269,174,93851,1,8,0:0:0:0:
269,174,94124,1,0,0:0:0:0:
269,174,94260,1,8,0:0:0:0:
269,174,94328,1,8,0:0:0:0:
269,174,94397,1,0,0:0:0:0:
269,174,94533,1,0,0:0:0:0:
269,174,94669,1,8,0:0:0:0:
269,174,94806,1,0,0:0:0:0:
269,174,94942,1,8,0:0:0:0:
269,174,95215,1,0,0:0:0:0:
257,189,95351,1,0,0:0:0:0:
269,174,95488,1,8,0:0:0:0:
153,176,95760,1,8,0:0:0:0:
242,144,95897,1,0,0:0:0:0:
237,180,96033,1,8,0:0:0:0:
211,172,96306,1,0,0:0:0:0:
211,172,96442,1,8,0:0:0:0:
211,172,96510,1,8,0:0:0:0:
211,172,96578,1,0,0:0:0:0:
238,131,96851,1,8,0:0:0:0:
211,172,96988,1,0,0:0:0:0:
211,172,97261,1,0,0:0:0:0:
211,172,97397,1,8,0:0:0:0:
211,172,97670,1,4,0:0:0:0:
226,188,98079,1,0,0:0:0:0:
225,187,98215,1,8,0:0:0:0:
225,183,98488,1,0,0:0:0:0:
223,182,98624,1,8,0:0:0:0:
222,182,98761,1,0,0:0:0:0:
220,179,99033,1,0,0:0:0:0:
218,178,99306,1,8,0:0:0:0:
218,178,99579,1,8,0:0:0:0:
216,177,99715,1,8,0:0:0:0:
214,176,99851,1,0,0:0:0:0:
210,124,100261,1,0,0:0:0:0:
210,124,100397,1,8,0:0:0:0:
210,124,100670,1,8,0:0:0:0:
210,124,100806,1,0,0:0:0:0:
210,124,100942,1,8,0:0:0:0:
210,124,101215,1,0,0:0:0:0:
210,124,101488,1,8,0:0:0:0:
210,124,101761,1,8,0:0:0:0:
202,119,102033,1,0,0:0:0:0:
200,118,102442,1,0,0:0:0:0:
200,118,102579,1,8,0:0:0:0:
200,118,102851,1,0,0:0:0:0:
200,118,103124,1,8,0:0:0:0:
200,118,103397,1,0,0:0:0:0:
205,100,103533,1,0,0:0:0:0:
200,118,103670,1,8,0:0:0:0:
211,125,103806,1,8,0:0:0:0:
200,118,103942,1,0,0:0:0:0:
256,102,104215,1,0,0:0:0:0:
207,123,104624,1,0,0:0:0:0:
205,123,104761,1,8,0:0:0:0:
219,98,105033,1,8,0:0:0:0:
219,98,105306,1,0,0:0:0:0:
219,98,105579,1,0,0:0:0:0:
212,95,105715,1,0,0:0:0:0:
245,94,105851,1,8,0:0:0:0:
245,94,106124,1,8,0:0:0:0:
245,94,106397,1,4,0:0:0:0:
245,94,106806,1,0,0:0:0:0:
245,94,106942,1,8,0:0:0:0:
245,94,107215,1,0,0:0:0:0:
260,97,107488,1,0,0:0:0:0:
245,94,107761,1,8,0:0:0:0:
258,96,107897,1,0,0:0:0:0:
245,94,108033,1,8,0:0:0:0:
260,97,108306,1,8,0:0:0:0:
256,96,108579,1,0,0:0:0:0:
256,96,108988,1,0,0:0:0:0:
253,95,109124,1,8,0:0:0:0:
256,96,109397,1,0,0:0:0:0:
247,93,109670,1,0,0:0:0:0:
245,93,109942,1,8,0:0:0:0:
242,92,110215,1,8,0:0:0:0:
241,92,110488,1,0,0:0:0:0:
254,90,110761,1,0,0:0:0:0:
253,90,111170,1,0,0:0:0:0:
252,89,111306,1,8,0:0:0:0:
254,90,111579,1,0,0:0:0:0:
253,90,111851,1,8,0:0:0:0:
253,90,112124,1,0,0:0:0:0:
247,88,112261,1,0,0:0:0:0:
254,90,112397,1,8,0:0:0:0:
248,88,112670,1,8,0:0:0:0:
245,86,112942,1,0,0:0:0:0:
269,100,113351,1,0,0:0:0:0:
269,100,113488,1,8,0:0:0:0:
266,98,113761,1,0,0:0:0:0:
269,100,114033,1,8,0:0:0:0:
262,96,115124,1,4,0:0:0:0:
255,113,115533,1,0,0:0:0:0:
255,113,115670,1,8,0:0:0:0:
255,113,115942,1,8,0:0:0:0:
255,113,116079,1,8,0:0:0:0:
255,113,116215,1,0,0:0:0:0:
255,113,116488,1,0,0:0:0:0:
255,113,116761,1,8,0:0:0:0:
255,113,117033,1,8,0:0:0:0:
255,113,117306,1,0,0:0:0:0:
255,113,117715,1,0,0:0:0:0:
255,113,117851,1,8,0:0:0:0:
245,108,118124,1,8,0:0:0:0:
245,108,118261,1,0,0:0:0:0:
245,108,118397,1,8,0:0:0:0:
245,108,118670,1,0,0:0:0:0:
245,108,118942,1,8,0:0:0:0:
240,105,119215,1,8,0:0:0:0:
239,104,119488,1,0,0:0:0:0:
234,103,119897,1,0,0:0:0:0:
234,103,120033,1,8,0:0:0:0:
239,104,120306,1,8,0:0:0:0:
193,119,120442,1,8,0:0:0:0:
236,107,120579,1,0,0:0:0:0:
235,107,120851,1,8,0:0:0:0:
235,107,120988,1,0,0:0:0:0:
235,107,121124,1,8,0:0:0:0:
234,114,121397,1,0,0:0:0:0:
233,114,121670,1,0,0:0:0:0:
233,114,122079,1,0,0:0:0:0:
234,114,122215,1,8,0:0:0:0:
233,114,122488,1,0,0:0:0:0:
233,114,122761,1,8,0:0:0:0:
233,114,123033,1,0,0:0:0:0:
233,114,123306,1,8,0:0:0:0:
233,114,123579,1,8,0:0:0:0:
233,114,123851,1,0,0:0:0:0:
233,114,124261,1,0,0:0:0:0:
233,114,124397,1,8,0:0:0:0:
233,114,124670,1,8,0:0:0:0:
233,114,124806,1,8,0:0:0:0:
233,114,124942,1,0,0:0:0:0:
189,118,125215,1,0,0:0:0:0:
189,118,125488,1,8,0:0:0:0:
189,118,125624,1,0,0:0:0:0:
189,118,125761,1,8,0:0:0:0:
183,117,126033,1,0,0:0:0:0:
174,114,126442,1,0,0:0:0:0:
174,113,126579,1,8,0:0:0:0:
172,113,126851,1,8,0:0:0:0:
176,114,127124,1,0,0:0:0:0:
174,114,127397,1,0,0:0:0:0:
172,113,127670,1,8,0:0:0:0:
169,112,127942,1,8,0:0:0:0:
165,111,128215,1,0,0:0:0:0:
165,111,128624,1,0,0:0:0:0:
169,112,128761,1,8,0:0:0:0:
165,111,129033,1,8,0:0:0:0:
165,111,129306,1,0,0:0:0:0:
222,107,129579,1,8,0:0:0:0:
222,107,129715,1,0,0:0:0:0:
222,107,129851,1,8,0:0:0:0:
207,104,130124,1,8,0:0:0:0:
207,104,130397,1,0,0:0:0:0:
206,103,130806,1,0,0:0:0:0:
207,104,130942,1,8,0:0:0:0:
207,104,131215,1,8,0:0:0:0:
207,104,131488,1,4,0:0:0:0:
251,170,132579,1,8,0:0:0:0:
