osu file format v14

[General]
AudioFilename: audio.mp3
AudioLeadIn: 0
PreviewTime: 40783
Countdown: 0
SampleSet: Normal
StackLeniency: 0.7
Mode: 1
LetterboxInBreaks: 0
WidescreenStoryboard: 1

[Editor]
DistanceSpacing: 1.8
BeatDivisor: 4
GridSize: 32
TimelineZoom: 2.799999

[Metadata]
Title:Kodak Yak
TitleUnicode:Kodak Yak
Artist:dive to the heart
ArtistUnicode:ང།སཇ ཎ༳ ཎལཇ ལཇཅཁ༒
Creator:Boaz
Version:Muzukashii
Source:
Tags:ler1211 rinze dtth divetotheart hyperflip english japanese electronic
BeatmapID:4131139
BeatmapSetID:1956417

[Difficulty]
HPDrainRate:6.6
CircleSize:5
OverallDifficulty:5.2
ApproachRate:5
SliderMultiplier:1.4
SliderTickRate:1

[Events]
//Background and Video events
0,0,"bg.jpg",0,100
//Break Periods
//Storyboard Layer 0 (Background)
//Storyboard Layer 1 (Fail)
//Storyboard Layer 2 (Pass)
//Storyboard Layer 3 (Foreground)
//Storyboard Layer 4 (Overlay)
//Storyboard Sound Samples

[TimingPoints]
2983,300,4,1,0,100,1,0
2983,-100,4,1,0,85,0,0
22182,-100,4,1,0,75,0,0
22482,-100,4,1,0,75,0,0
22707,-100,4,1,0,75,0,0
22857,-100,4,1,0,75,0,0
22932,-100,4,1,0,75,0,0
23007,-100,4,1,0,75,0,0
23082,-100,4,1,0,75,0,0
23232,-100,4,1,0,75,0,0
23307,-100,4,1,0,75,0,0
23382,-100,4,1,0,75,0,0
23532,-100,4,1,0,75,0,0
23682,-100,4,1,0,75,0,0
23907,-100,4,1,0,75,0,0
24057,-100,4,1,0,75,0,0
24132,-100,4,1,0,75,0,0
24207,-100,4,1,0,75,0,0
24282,-100,4,1,0,75,0,0
24582,-100,4,1,0,75,0,0
24732,-100,4,1,0,75,0,0
24882,-100,4,1,0,75,0,0
25107,-100,4,1,0,75,0,0
25332,-100,4,1,0,75,0,0
25482,-100,4,1,0,75,0,0
25632,-100,4,1,0,75,0,0
25782,-100,4,1,0,75,0,0
25932,-100,4,1,0,75,0,0
26007,-100,4,1,0,75,0,0
26082,-100,4,1,0,75,0,0
26382,-100,4,1,0,75,0,0
26532,-100,4,1,0,75,0,0
26682,-100,4,1,0,75,0,0
26832,-100,4,1,0,75,0,0
26982,-100,4,1,0,75,0,0
27132,-100,4,1,0,75,0,0
27282,-100,4,1,0,75,0,0
27582,-100,4,1,0,75,0,0
27732,-100,4,1,0,75,0,0
27807,-100,4,1,0,75,0,0
27882,-100,4,1,0,75,0,0
28032,-100,4,1,0,75,0,0
28182,-100,4,1,0,75,0,0
28332,-100,4,1,0,75,0,0
28482,-100,4,1,0,75,0,0
28782,-100,4,1,0,75,0,0
28932,-100,4,1,0,75,0,0
29007,-100,4,1,0,75,0,0
29082,-100,4,1,0,75,0,0
29232,-100,4,1,0,75,0,0
29382,-100,4,1,0,75,0,0
29532,-100,4,1,0,75,0,0
29682,-100,4,1,0,75,0,0
29982,-100,4,1,0,75,0,0
30057,-100,4,1,0,75,0,0
30132,-100,4,1,0,75,0,0
30282,-100,4,1,0,75,0,0
30432,-100,4,1,0,75,0,0
30582,-100,4,1,0,75,0,0
30732,-100,4,1,0,75,0,0
30807,-100,4,1,0,75,0,0
30882,-100,4,1,0,75,0,0
31182,-100,4,1,0,75,0,0
31332,-100,4,1,0,75,0,0
31482,-100,4,1,0,75,0,0
31632,-100,4,1,0,75,0,0
31782,-100,4,1,0,75,0,0
31857,-100,4,1,0,75,0,0
31932,-100,4,1,0,75,0,0
32082,-100,4,1,0,75,0,0
32382,-100,4,1,0,75,0,0
32532,-100,4,1,0,75,0,0
32607,-100,4,1,0,75,0,0
32682,-100,4,1,0,75,0,0
32832,-100,4,1,0,75,0,0
32982,-100,4,1,0,75,0,0
33132,-100,4,1,0,75,0,0
33282,-100,4,1,0,75,0,0
33582,-100,4,1,0,75,0,0
33732,-100,4,1,0,75,0,0
33807,-100,4,1,0,75,0,0
33882,-100,4,1,0,75,0,0
34032,-100,4,1,0,75,0,0
34182,-100,4,1,0,75,0,0
34332,-100,4,1,0,75,0,0
34482,-100,4,1,0,75,0,0
34782,-100,4,1,0,75,0,0
34857,-100,4,1,0,75,0,0
34932,-100,4,1,0,75,0,0
35082,-100,4,1,0,75,0,0
35232,-100,4,1,0,75,0,0
35382,-100,4,1,0,75,0,0
35532,-100,4,1,0,75,0,0
35607,-100,4,1,0,75,0,0
35682,-100,4,1,0,75,0,0
35982,-100,4,1,0,75,0,0
36132,-100,4,1,0,75,0,0
36282,-100,4,1,0,75,0,0
36357,-100,4,1,0,75,0,0
36432,-100,4,1,0,75,0,0
36582,-100,4,1,0,75,0,0
36732,-100,4,1,0,75,0,0
36882,-100,4,1,0,75,0,0
37032,-100,4,1,0,75,0,0
37182,-100,4,1,0,75,0,0
37332,-100,4,1,0,75,0,0
37482,-100,4,1,0,75,0,0
37632,-100,4,1,0,75,0,0
37782,-100,4,1,0,75,0,0
37932,-100,4,1,0,75,0,0
38082,-100,4,1,0,75,0,0
38232,-100,4,1,0,75,0,0
38382,-100,4,1,0,75,0,0
38532,-100,4,1,0,75,0,0
38682,-100,4,1,0,75,0,0
38832,-100,4,1,0,75,0,0
38982,-100,4,1,0,75,0,0
39132,-100,4,1,0,75,0,0
39282,-100,4,1,0,75,0,0
39432,-100,4,1,0,75,0,0
39582,-100,4,1,0,75,0,0
39732,-100,4,1,0,75,0,0
39882,-100,4,1,0,75,0,0
40032,-100,4,1,0,75,0,0
40783,-100,4,1,0,80,0,0
41376,600,4,1,0,100,1,0
41376,-50,4,1,0,90,0,1
41377,-50,4,1,0,90,0,1
41526,-50,4,1,0,90,0,1
41826,-50,4,1,0,90,0,1
41976,-50,4,1,0,90,0,1
42126,-50,4,1,0,90,0,1
42276,-50,4,1,0,90,0,1
43176,-50,4,1,0,90,0,1
43326,-50,4,1,0,90,0,1
43776,-50,4,1,0,90,0,1
43777,-50,4,1,0,90,0,1
44076,-50,4,1,0,90,0,1
44226,-50,4,1,0,90,0,1
44376,-50,4,1,0,90,0,1
44676,-50,4,1,0,90,0,1
45576,-50,4,1,0,90,0,1
45876,-50,4,1,0,90,0,1
46176,-50,4,1,0,90,0,1
46177,-50,4,1,0,90,0,1
46476,-50,4,1,0,90,0,1
46626,-50,4,1,0,90,0,1
46776,-50,4,1,0,90,0,1
47076,-50,4,1,0,90,0,1
47976,-50,4,1,0,90,0,1
48126,-50,4,1,0,90,0,1
48576,-50,4,1,0,90,0,1
48577,-50,4,1,0,90,0,1
48726,-50,4,1,0,90,0,1
49026,-50,4,1,0,90,0,1
49176,-50,4,1,0,90,0,1
49326,-50,4,1,0,90,0,1
49476,-50,4,1,0,90,0,1
50376,-50,4,1,0,90,0,1
50526,-50,4,1,0,90,0,1
50976,-50,4,1,0,90,0,1
50977,-50,4,1,0,90,0,1
51126,-50,4,1,0,90,0,1
51426,-50,4,1,0,90,0,1
51576,-50,4,1,0,90,0,1
51876,-50,4,1,0,90,0,1
52026,-50,4,1,0,90,0,1
52776,-50,4,1,0,90,0,1
53076,-50,4,1,0,90,0,1
53376,-50,4,1,0,90,0,1
53377,-50,4,1,0,90,0,1
53676,-50,4,1,0,90,0,1
53826,-50,4,1,0,90,0,1
53976,-50,4,1,0,90,0,1
54276,-50,4,1,0,90,0,1
54426,-50,4,1,0,90,0,1
55176,-50,4,1,0,90,0,1
55476,-50,4,1,0,90,0,1
55776,-50,4,1,0,90,0,1
55777,-50,4,1,0,90,0,1
56076,-50,4,1,0,90,0,1
56226,-50,4,1,0,90,0,1
56376,-50,4,1,0,90,0,1
56676,-50,4,1,0,90,0,1
57576,-50,4,1,0,90,0,1
57726,-50,4,1,0,90,0,1
58176,-50,4,1,0,90,0,1
58177,-50,4,1,0,90,0,1
58326,-50,4,1,0,90,0,1
58626,-50,4,1,0,90,0,1
58776,-50,4,1,0,90,0,1
58926,-50,4,1,0,90,0,1
59076,-50,4,1,0,90,0,1
59376,-50,4,1,0,90,0,1
59976,-50,4,1,0,90,0,1
60126,-50,4,1,0,90,0,1
60576,-50,4,1,0,75,0,0
62761,272.727272727273,4,1,0,100,1,0
62761,-100,4,1,0,75,0,0
79669,-100,4,1,0,75,0,0
79941,-100,4,1,0,75,0,0
80078,-100,4,1,0,75,0,0
80214,-100,4,1,0,75,0,0
91123,-100,4,1,0,75,0,0
91396,-100,4,1,0,75,0,0
91668,-100,4,1,0,75,0,0
91941,-100,4,1,0,75,0,0
92077,-100,4,1,0,75,0,0
92146,-100,4,1,0,75,0,0
92214,-100,4,1,0,75,0,0
92350,-100,4,1,0,75,0,0
92487,-100,4,1,0,75,0,0
92623,-100,4,1,0,75,0,0
92759,-100,4,1,0,75,0,0
93032,-100,4,1,0,75,0,0
93168,-100,4,1,0,75,0,0
93305,-100,4,1,0,75,0,0
93577,-100,4,1,0,75,0,0
93850,-100,4,1,0,75,0,0
94123,-100,4,1,0,75,0,0
94259,-100,4,1,0,75,0,0
94327,-100,4,1,0,75,0,0
94396,-100,4,1,0,75,0,0
94532,-100,4,1,0,75,0,0
94668,-100,4,1,0,75,0,0
94805,-100,4,1,0,75,0,0
94941,-100,4,1,0,75,0,0
95214,-100,4,1,0,75,0,0
95350,-100,4,1,0,75,0,0
95487,-100,4,1,0,75,0,0
95759,-100,4,1,0,75,0,0
95896,-100,4,1,0,75,0,0
96032,-100,4,1,0,75,0,0
96305,-100,4,1,0,75,0,0
96441,-100,4,1,0,75,0,0
96509,-100,4,1,0,75,0,0
96577,-100,4,1,0,75,0,0
97669,-100,4,1,0,75,0,0
98078,-100,4,1,0,75,0,0
98214,-100,4,1,0,75,0,0
98487,-100,4,1,0,75,0,0
98623,-100,4,1,0,75,0,0
98760,-100,4,1,0,75,0,0
99032,-100,4,1,0,75,0,0
99305,-100,4,1,0,75,0,0
99578,-100,4,1,0,75,0,0
99714,-100,4,1,0,75,0,0
99850,-100,4,1,0,75,0,0
100260,-100,4,1,0,75,0,0
100396,-100,4,1,0,75,0,0
100669,-100,4,1,0,75,0,0
100805,-100,4,1,0,75,0,0
100941,-100,4,1,0,75,0,0
101214,-100,4,1,0,75,0,0
101487,-100,4,1,0,75,0,0
101760,-100,4,1,0,75,0,0
102032,-100,4,1,0,75,0,0
102441,-100,4,1,0,75,0,0
102578,-100,4,1,0,75,0,0
102850,-100,4,1,0,75,0,0
103123,-100,4,1,0,75,0,0
103396,-100,4,1,0,75,0,0
103532,-100,4,1,0,75,0,0
103669,-100,4,1,0,75,0,0
103805,-100,4,1,0,75,0,0
103941,-100,4,1,0,75,0,0
104214,-100,4,1,0,75,0,0
104623,-100,4,1,0,75,0,0
104760,-100,4,1,0,75,0,0
105032,-100,4,1,0,75,0,0
105305,-100,4,1,0,75,0,0
105578,-100,4,1,0,75,0,0
105714,-100,4,1,0,75,0,0
105850,-100,4,1,0,75,0,0
106123,-100,4,1,0,75,0,0
106396,-100,4,1,0,75,0,0
106805,-100,4,1,0,75,0,0
106941,-100,4,1,0,75,0,0
107214,-100,4,1,0,75,0,0
107487,-100,4,1,0,75,0,0
107760,-100,4,1,0,75,0,0
107896,-100,4,1,0,75,0,0
108032,-100,4,1,0,75,0,0
108305,-100,4,1,0,75,0,0
108578,-100,4,1,0,75,0,0
108987,-100,4,1,0,75,0,0
109123,-100,4,1,0,75,0,0
109396,-100,4,1,0,75,0,0
109669,-100,4,1,0,75,0,0
109941,-100,4,1,0,75,0,0
110214,-100,4,1,0,75,0,0
110487,-100,4,1,0,75,0,0
110760,-100,4,1,0,75,0,0
111169,-100,4,1,0,75,0,0
111305,-100,4,1,0,75,0,0
111578,-100,4,1,0,75,0,0
111850,-100,4,1,0,75,0,0
112123,-100,4,1,0,75,0,0
112260,-100,4,1,0,75,0,0
112396,-100,4,1,0,75,0,0
112669,-100,4,1,0,75,0,0
112941,-100,4,1,0,75,0,0
113350,-100,4,1,0,75,0,0
113487,-100,4,1,0,75,0,0
113760,-100,4,1,0,75,0,0
114032,-100,4,1,0,75,0,0
115123,-100,4,1,0,75,0,0
115532,-100,4,1,0,75,0,0
115669,-100,4,1,0,75,0,0
115941,-100,4,1,0,75,0,0
116078,-100,4,1,0,75,0,0
116214,-100,4,1,0,75,0,0
116487,-100,4,1,0,75,0,0
116760,-100,4,1,0,75,0,0
117032,-100,4,1,0,75,0,0
117305,-100,4,1,0,75,0,0
117714,-100,4,1,0,75,0,0
117850,-100,4,1,0,75,0,0
118123,-100,4,1,0,75,0,0
118260,-100,4,1,0,75,0,0
118396,-100,4,1,0,75,0,0
118669,-100,4,1,0,75,0,0
118941,-100,4,1,0,75,0,0
119214,-100,4,1,0,75,0,0
119487,-100,4,1,0,75,0,0
119896,-100,4,1,0,75,0,0
120032,-100,4,1,0,75,0,0
120305,-100,4,1,0,75,0,0
120441,-100,4,1,0,75,0,0
120578,-100,4,1,0,75,0,0
120850,-100,4,1,0,75,0,0
120987,-100,4,1,0,75,0,0
121123,-100,4,1,0,75,0,0
121396,-100,4,1,0,75,0,0
121669,-100,4,1,0,75,0,0
122078,-100,4,1,0,75,0,0
122214,-100,4,1,0,75,0,0
122487,-100,4,1,0,75,0,0
122760,-100,4,1,0,75,0,0
123032,-100,4,1,0,75,0,0
123305,-100,4,1,0,75,0,0
123578,-100,4,1,0,75,0,0
123850,-100,4,1,0,75,0,0
124260,-100,4,1,0,75,0,0
124396,-100,4,1,0,75,0,0
124669,-100,4,1,0,75,0,0
124805,-100,4,1,0,75,0,0
124941,-100,4,1,0,75,0,0
125214,-100,4,1,0,75,0,0
125487,-100,4,1,0,75,0,0
125623,-100,4,1,0,75,0,0
125760,-100,4,1,0,75,0,0
126032,-100,4,1,0,75,0,0
126441,-100,4,1,0,75,0,0
126578,-100,4,1,0,75,0,0
126850,-100,4,1,0,75,0,0
127123,-100,4,1,0,75,0,0
127396,-100,4,1,0,75,0,0
127669,-100,4,1,0,75,0,0
127941,-100,4,1,0,75,0,0
128214,-100,4,1,0,75,0,0
128623,-100,4,1,0,75,0,0
128760,-100,4,1,0,75,0,0
129032,-100,4,1,0,75,0,0
129305,-100,4,1,0,75,0,0
129578,-100,4,1,0,75,0,0
129714,-100,4,1,0,75,0,0
129850,-100,4,1,0,75,0,0
130123,-100,4,1,0,75,0,0
130396,-100,4,1,0,75,0,0
130805,-100,4,1,0,75,0,0
130941,-100,4,1,0,75,0,0
131214,-100,4,1,0,75,0,0
131488,-100,4,1,0,75,0,0
131556,-100,4,1,0,50,0,0
132579,-100,4,1,0,30,0,0

[HitObjects]
239,176,2983,5,0,0:0:0:0:
217,170,3133,1,8,0:0:0:0:
217,170,3208,1,8,0:0:0:0:
239,176,3283,1,8,0:0:0:0:
216,170,3433,1,0,0:0:0:0:
239,176,3583,1,8,0:0:0:0:
216,170,3883,1,8,0:0:0:0:
239,176,4183,1,0,0:0:0:0:
239,176,4483,1,8,0:0:0:0:
216,170,4633,1,0,0:0:0:0:
239,176,4783,1,0,0:0:0:0:
216,170,4933,1,8,0:0:0:0:
212,168,5008,1,8,0:0:0:0:
212,168,5158,1,0,0:0:0:0:
216,170,5233,1,0,0:0:0:0:
239,176,5383,1,8,0:0:0:0:
239,176,5683,1,8,0:0:0:0:
216,170,5833,1,0,0:0:0:0:
239,176,5983,1,8,0:0:0:0:
216,170,6283,1,8,0:0:0:0:
239,176,6583,1,0,0:0:0:0:
212,168,6883,1,0,0:0:0:0:
212,168,7033,1,8,0:0:0:0:
239,176,7183,1,0,0:0:0:0:
216,170,7333,1,0,0:0:0:0:
216,170,7408,1,0,0:0:0:0:
239,176,7558,1,8,0:0:0:0:
218,137,7633,1,8,0:0:0:0:
239,176,7783,1,0,0:0:0:0:
239,176,8083,1,8,0:0:0:0:
216,170,8233,1,0,0:0:0:0:
216,170,8533,1,0,0:0:0:0:
212,168,8833,1,8,0:0:0:0:
239,176,9133,1,0,0:0:0:0:
216,170,9433,1,0,0:0:0:0:
239,176,9583,1,8,0:0:0:0:
212,168,9733,1,0,0:0:0:0:
212,168,9808,1,0,0:0:0:0:
212,168,9958,1,8,0:0:0:0:
216,170,10033,1,8,0:0:0:0:
239,176,10183,1,0,0:0:0:0:
239,176,10483,1,8,0:0:0:0:
216,170,10633,1,0,0:0:0:0:
212,168,10783,1,8,0:0:0:0:
239,176,11083,1,8,0:0:0:0:
239,176,11383,1,0,0:0:0:0:
237,158,11683,1,8,0:0:0:0:
212,168,11833,1,0,0:0:0:0:
216,170,11983,1,8,0:0:0:0:
216,170,12133,1,0,0:0:0:0:
216,170,12208,1,0,0:0:0:0:
216,170,12358,1,8,0:0:0:0:
220,151,12433,1,8,0:0:0:0:
239,176,12583,1,0,0:0:0:0:
234,156,12883,1,8,0:0:0:0:
234,156,13183,1,0,0:0:0:0:
234,156,13483,1,8,0:0:0:0:
223,144,13633,1,8,0:0:0:0:
234,156,13783,1,0,0:0:0:0:
234,156,14083,1,8,0:0:0:0:
222,143,14233,1,8,0:0:0:0:
234,156,14383,1,0,0:0:0:0:
222,143,14533,1,8,0:0:0:0:
223,144,14608,1,8,0:0:0:0:
234,156,14758,1,0,0:0:0:0:
301,193,14833,1,0,0:0:0:0:
239,176,14983,1,8,0:0:0:0:
239,176,15283,1,8,0:0:0:0:
216,170,15433,1,0,0:0:0:0:
216,170,15733,1,0,0:0:0:0:
216,170,15883,1,8,0:0:0:0:
239,176,16183,1,0,0:0:0:0:
212,168,16483,1,0,0:0:0:0:
212,168,16633,1,8,0:0:0:0:
239,176,16783,1,0,0:0:0:0:
216,170,16933,1,0,0:0:0:0:
216,170,17008,1,0,0:0:0:0:
239,176,17158,1,8,0:0:0:0:
218,137,17233,1,8,0:0:0:0:
239,176,17383,1,0,0:0:0:0:
239,176,17683,1,8,0:0:0:0:
239,104,17833,1,0,0:0:0:0:
239,176,17983,1,8,0:0:0:0:
239,176,18283,1,8,0:0:0:0:
239,176,18583,1,0,0:0:0:0:
239,176,18883,1,8,0:0:0:0:
216,170,19033,1,0,0:0:0:0:
239,176,19183,1,8,0:0:0:0:
212,168,19333,1,0,0:0:0:0:
212,168,19408,1,0,0:0:0:0:
212,168,19558,1,8,0:0:0:0:
216,170,19633,1,8,0:0:0:0:
239,176,19783,1,0,0:0:0:0:
239,176,20083,1,8,0:0:0:0:
216,170,20233,1,0,0:0:0:0:
212,168,20383,1,8,0:0:0:0:
239,176,20683,1,8,0:0:0:0:
223,144,20983,1,0,0:0:0:0:
222,143,21283,1,8,0:0:0:0:
234,156,21433,1,0,0:0:0:0:
222,143,21583,1,8,0:0:0:0:
234,156,21733,1,0,0:0:0:0:
222,143,21808,1,0,0:0:0:0:
223,144,21958,1,8,0:0:0:0:
222,143,22033,1,8,0:0:0:0:
301,193,22183,1,0,0:0:0:0:
268,168,22483,1,8,0:0:0:0:
257,163,22933,1,0,0:0:0:0:
255,162,23008,1,0,0:0:0:0:
256,163,23083,1,0,0:0:0:0:
213,145,23233,1,8,0:0:0:0:
228,149,23383,1,0,0:0:0:0:
257,119,23533,1,0,0:0:0:0:
228,149,23683,1,8,0:0:0:0:
213,145,24133,1,8,0:0:0:0:
213,145,24208,1,8,0:0:0:0:
213,145,24283,1,8,0:0:0:0:
213,145,24583,1,0,0:0:0:0:
213,145,24733,1,0,0:0:0:0:
213,145,24883,1,8,0:0:0:0:
213,145,25333,1,0,0:0:0:0:
213,145,25483,1,8,0:0:0:0:
213,145,25633,1,0,0:0:0:0:
213,145,25783,1,8,0:0:0:0:
213,145,25933,1,0,0:0:0:0:
213,145,26008,1,0,0:0:0:0:
213,145,26083,1,0,0:0:0:0:
213,145,26383,1,8,0:0:0:0:
228,119,26683,1,0,0:0:0:0:
199,136,26983,1,0,0:0:0:0:
183,139,27133,1,0,0:0:0:0:
183,139,27283,1,8,0:0:0:0:
183,139,27583,5,8,0:0:0:0:
183,139,27733,1,0,0:0:0:0:
183,139,27808,1,0,0:0:0:0:
182,138,27883,1,0,0:0:0:0:
182,138,28033,1,8,0:0:0:0:
183,139,28183,1,0,0:0:0:0:
183,139,28333,1,0,0:0:0:0:
183,139,28483,1,8,0:0:0:0:
182,138,28783,5,0,0:0:0:0:
183,139,29083,1,8,0:0:0:0:
183,139,29383,1,0,0:0:0:0:
183,139,29533,1,0,0:0:0:0:
183,138,29683,1,8,0:0:0:0:
182,138,29983,1,8,0:0:0:0:
183,139,30133,1,0,0:0:0:0:
183,139,30283,1,0,0:0:0:0:
183,139,30433,1,8,0:0:0:0:
184,142,30733,1,0,0:0:0:0:
184,142,30808,1,0,0:0:0:0:
184,142,30883,1,0,0:0:0:0:
183,139,31333,1,8,0:0:0:0:
190,140,31633,1,8,0:0:0:0:
190,140,31783,1,0,0:0:0:0:
190,140,31858,1,0,0:0:0:0:
190,140,31933,1,0,0:0:0:0:
190,140,32083,1,8,0:0:0:0:
190,140,32383,1,0,0:0:0:0:
190,140,32533,1,8,0:0:0:0:
190,140,32608,1,8,0:0:0:0:
190,140,32683,1,8,0:0:0:0:
190,140,32833,1,8,0:0:0:0:
190,140,32983,1,0,0:0:0:0:
190,140,33133,1,0,0:0:0:0:
190,140,33283,1,8,0:0:0:0:
190,140,33583,1,0,0:0:0:0:
190,140,33733,1,0,0:0:0:0:
190,140,33808,1,0,0:0:0:0:
190,140,33883,1,0,0:0:0:0:
190,140,34033,1,8,0:0:0:0:
190,140,34183,1,0,0:0:0:0:
190,140,34333,1,0,0:0:0:0:
190,140,34483,1,8,0:0:0:0:
190,140,34933,1,8,0:0:0:0:
190,140,35083,1,0,0:0:0:0:
190,140,35233,1,8,0:0:0:0:
190,140,35383,1,0,0:0:0:0:
190,140,35533,1,0,0:0:0:0:
190,140,35608,1,0,0:0:0:0:
190,140,35683,1,0,0:0:0:0:
190,140,36133,1,8,0:0:0:0:
190,140,36433,1,0,0:0:0:0:
190,165,36583,5,8,0:0:0:0:
190,165,36883,1,0,0:0:0:0:
190,165,37033,1,8,0:0:0:0:
190,165,37183,1,0,0:0:0:0:
190,165,37483,1,8,0:0:0:0:
190,165,37783,1,0,0:0:0:0:
184,97,37933,1,0,0:0:0:0:
190,165,38083,1,8,0:0:0:0:
190,165,38383,1,8,0:0:0:0:
190,165,38683,1,0,0:0:0:0:
190,165,38983,1,8,0:0:0:0:
184,97,39133,1,0,0:0:0:0:
190,165,39283,1,8,0:0:0:0:
190,165,39583,1,0,0:0:0:0:
190,165,39883,1,8,0:0:0:0:
190,146,40183,2,0,L|337:148,1,140
234,157,40783,5,8,0:0:0:0:
234,157,41376,1,4,0:0:0:0:
219,109,41676,1,8,0:0:0:0:
229,129,41826,1,0,0:0:0:0:
229,129,41976,1,12,0:0:0:0:
229,129,42276,1,0,0:0:0:0:
231,119,42426,1,8,0:0:0:0:
231,119,42576,1,0,0:0:0:0:
229,129,42876,1,0,0:0:0:0:
211,105,43026,1,0,0:0:0:0:
229,129,43176,1,12,0:0:0:0:
202,107,43476,1,0,0:0:0:0:
229,129,43776,1,4,0:0:0:0:
201,107,44076,1,0,0:0:0:0:
229,129,44226,1,0,0:0:0:0:
229,129,44376,1,12,0:0:0:0:
229,129,44676,1,0,0:0:0:0:
225,138,44826,1,8,0:0:0:0:
225,138,44976,1,0,0:0:0:0:
229,129,45276,1,0,0:0:0:0:
229,129,45576,1,12,0:0:0:0:
234,123,45876,1,0,0:0:0:0:
229,129,46176,1,4,0:0:0:0:
192,123,46476,1,8,0:0:0:0:
229,129,46626,1,0,0:0:0:0:
229,129,46776,1,12,0:0:0:0:
229,129,47076,1,0,0:0:0:0:
200,141,47226,1,0,0:0:0:0:
200,141,47376,1,8,0:0:0:0:
229,129,47676,1,0,0:0:0:0:
229,129,47976,1,12,0:0:0:0:
215,123,48126,1,0,0:0:0:0:
215,123,48276,1,0,0:0:0:0:
229,129,48576,1,4,0:0:0:0:
215,122,48876,1,8,0:0:0:0:
229,129,49026,1,0,0:0:0:0:
229,129,49176,1,12,0:0:0:0:
229,129,49476,1,0,0:0:0:0:
205,124,49776,1,8,0:0:0:0:
205,124,49926,1,8,0:0:0:0:
229,129,50076,1,0,0:0:0:0:
229,129,50376,1,12,0:0:0:0:
161,112,50526,1,0,0:0:0:0:
161,112,50676,1,8,0:0:0:0:
229,129,50976,1,4,0:0:0:0:
200,107,51276,1,8,0:0:0:0:
219,122,51426,1,0,0:0:0:0:
218,152,51576,1,12,0:0:0:0:
219,122,51876,1,0,0:0:0:0:
207,127,52026,1,0,0:0:0:0:
207,127,52176,1,8,0:0:0:0:
219,122,52476,1,8,0:0:0:0:
207,109,52626,1,0,0:0:0:0:
219,122,52776,1,12,0:0:0:0:
193,102,53076,1,8,0:0:0:0:
193,102,53226,1,8,0:0:0:0:
219,122,53376,1,4,0:0:0:0:
214,103,53676,1,0,0:0:0:0:
219,122,53826,1,0,0:0:0:0:
219,122,53976,1,12,0:0:0:0:
219,122,54276,1,0,0:0:0:0:
194,121,54426,1,8,0:0:0:0:
194,121,54576,1,0,0:0:0:0:
219,122,54876,1,0,0:0:0:0:
219,122,55176,1,12,0:0:0:0:
190,103,55476,1,0,0:0:0:0:
219,122,55776,1,4,0:0:0:0:
209,102,56076,1,8,0:0:0:0:
219,122,56226,1,0,0:0:0:0:
219,122,56376,1,12,0:0:0:0:
219,122,56676,1,0,0:0:0:0:
223,119,56826,1,0,0:0:0:0:
219,122,56976,1,8,0:0:0:0:
219,122,57276,1,0,0:0:0:0:
219,122,57576,1,12,0:0:0:0:
206,117,57726,1,0,0:0:0:0:
206,116,57876,1,8,0:0:0:0:
219,122,58176,1,4,0:0:0:0:
229,94,58476,1,8,0:0:0:0:
219,122,58626,1,0,0:0:0:0:
219,122,58776,1,12,0:0:0:0:
219,122,59076,1,0,0:0:0:0:
228,125,59376,1,8,0:0:0:0:
219,122,59676,1,0,0:0:0:0:
216,97,59826,1,0,0:0:0:0:
219,122,59976,1,12,0:0:0:0:
216,97,60276,1,8,0:0:0:0:
219,122,60576,1,0,0:0:0:0:
228,141,62761,1,0,0:0:0:0:
228,141,63033,1,0,0:0:0:0:
247,169,63170,1,0,0:0:0:0:
228,141,63306,1,8,0:0:0:0:
236,156,63579,1,0,0:0:0:0:
235,155,63851,1,8,0:0:0:0:
235,155,64124,1,8,0:0:0:0:
236,156,64397,1,0,0:0:0:0:
235,155,64670,1,8,0:0:0:0:
240,165,64806,1,0,0:0:0:0:
235,155,64942,1,0,0:0:0:0:
222,162,65215,1,8,0:0:0:0:
239,157,65488,1,8,0:0:0:0:
239,157,65761,1,0,0:0:0:0:
239,157,66033,1,8,0:0:0:0:
239,157,66306,1,8,0:0:0:0:
239,157,66579,1,0,0:0:0:0:
239,157,66851,1,8,0:0:0:0:
221,162,66988,1,8,0:0:0:0:
239,157,67124,1,0,0:0:0:0:
239,157,67397,1,8,0:0:0:0:
239,157,67670,1,8,0:0:0:0:
239,157,67942,1,8,0:0:0:0:
221,162,68079,1,0,0:0:0:0:
239,157,68215,1,8,0:0:0:0:
239,157,68488,1,0,0:0:0:0:
239,157,68761,1,8,0:0:0:0:
239,157,69033,1,8,0:0:0:0:
239,157,69306,1,0,0:0:0:0:
221,162,69579,1,8,0:0:0:0:
239,126,69715,1,8,0:0:0:0:
239,157,69851,1,0,0:0:0:0:
239,157,70124,1,8,0:0:0:0:
239,157,70397,1,0,0:0:0:0:
239,157,70670,1,8,0:0:0:0:
239,157,70942,1,0,0:0:0:0:
239,157,71215,1,8,0:0:0:0:
215,159,71351,1,0,0:0:0:0:
239,157,71488,1,8,0:0:0:0:
227,155,71761,1,8,0:0:0:0:
227,138,72033,1,0,0:0:0:0:
227,138,72306,1,8,0:0:0:0:
227,138,72579,1,0,0:0:0:0:
227,138,72851,1,8,0:0:0:0:
227,138,73124,1,0,0:0:0:0:
227,138,73397,1,8,0:0:0:0:
225,154,73533,1,0,0:0:0:0:
227,138,73670,1,8,0:0:0:0:
227,138,73942,1,0,0:0:0:0:
227,138,74215,1,8,0:0:0:0:
227,138,74488,1,0,0:0:0:0:
223,144,74624,1,8,0:0:0:0:
227,138,74761,1,0,0:0:0:0:
231,140,75033,1,8,0:0:0:0:
231,140,75306,1,0,0:0:0:0:
231,140,75579,1,0,0:0:0:0:
231,140,75851,1,8,0:0:0:0:
231,140,76124,1,8,0:0:0:0:
231,140,76397,1,0,0:0:0:0:
231,140,76670,1,8,0:0:0:0:
224,153,76806,1,8,0:0:0:0:
231,140,76942,1,0,0:0:0:0:
231,140,77215,1,0,0:0:0:0:
231,140,77488,1,8,0:0:0:0:
223,152,77624,1,0,0:0:0:0:
231,140,77761,1,8,0:0:0:0:
231,140,78033,1,0,0:0:0:0:
231,140,78306,1,0,0:0:0:0:
218,150,78442,1,0,0:0:0:0:
231,140,78579,1,8,0:0:0:0:
231,140,78851,1,8,0:0:0:0:
231,140,79124,1,0,0:0:0:0:
231,140,79670,1,0,0:0:0:0:
231,140,79942,1,0,0:0:0:0:
213,147,80079,1,0,0:0:0:0:
231,140,80215,1,12,0:0:0:0:
193,108,80488,1,0,0:0:0:0:
231,149,80761,1,8,0:0:0:0:
231,149,81033,1,0,0:0:0:0:
231,149,81170,1,8,0:0:0:0:
231,149,81238,1,8,0:0:0:0:
231,149,81306,1,8,0:0:0:0:
231,149,81442,1,8,0:0:0:0:
231,149,81579,1,0,0:0:0:0:
230,131,81715,1,0,0:0:0:0:
231,149,81851,1,8,0:0:0:0:
269,174,82397,1,0,0:0:0:0:
269,174,82670,1,0,0:0:0:0:
269,174,82942,1,8,0:0:0:0:
269,174,83215,1,8,0:0:0:0:
269,174,83351,1,0,0:0:0:0:
269,174,83420,1,0,0:0:0:0:
269,174,83488,1,0,0:0:0:0:
269,174,83624,1,8,0:0:0:0:
269,174,83761,1,0,0:0:0:0:
269,174,83897,1,0,0:0:0:0:
269,174,84033,1,8,0:0:0:0:
269,174,84579,1,0,0:0:0:0:
269,174,84851,1,0,0:0:0:0:
269,174,85124,1,8,0:0:0:0:
269,174,85397,1,0,0:0:0:0:
269,174,85533,1,8,0:0:0:0:
269,174,85601,1,8,0:0:0:0:
269,174,85670,1,8,0:0:0:0:
269,174,85806,1,0,0:0:0:0:
269,174,85942,1,8,0:0:0:0:
269,174,86079,1,8,0:0:0:0:
269,174,86215,1,0,0:0:0:0:
269,174,86488,1,0,0:0:0:0:
269,174,86761,1,8,0:0:0:0:
153,176,87033,1,0,0:0:0:0:
237,180,87306,1,8,0:0:0:0:
211,172,87579,1,0,0:0:0:0:
211,172,87715,1,8,0:0:0:0:
211,172,87783,1,8,0:0:0:0:
211,172,87851,1,8,0:0:0:0:
211,172,87988,1,0,0:0:0:0:
211,172,88124,1,8,0:0:0:0:
252,163,88670,1,8,0:0:0:0:
231,140,88942,1,0,0:0:0:0:
231,149,89215,1,0,0:0:0:0:
231,149,89488,1,8,0:0:0:0:
231,149,89760,1,0,0:0:0:0:
231,149,89897,1,8,0:0:0:0:
231,149,89965,1,8,0:0:0:0:
231,149,90033,1,8,0:0:0:0:
231,149,90169,1,8,0:0:0:0:
231,149,90306,1,0,0:0:0:0:
230,131,90442,1,0,0:0:0:0:
231,149,90578,1,8,0:0:0:0:
269,174,91124,1,0,0:0:0:0:
269,174,91397,1,0,0:0:0:0:
269,174,91669,1,8,0:0:0:0:
269,174,91942,1,8,0:0:0:0:
269,174,92078,1,0,0:0:0:0:
269,174,92147,1,0,0:0:0:0:
269,174,92215,1,0,0:0:0:0:
269,174,92351,1,8,0:0:0:0:
269,174,92488,1,0,0:0:0:0:
269,174,92624,1,0,0:0:0:0:
269,174,92760,1,8,0:0:0:0:
269,174,93306,1,0,0:0:0:0:
269,174,93578,1,0,0:0:0:0:
269,174,93851,1,8,0:0:0:0:
269,174,94124,1,0,0:0:0:0:
269,174,94260,1,8,0:0:0:0:
269,174,94328,1,8,0:0:0:0:
269,174,94397,1,8,0:0:0:0:
269,174,94533,1,0,0:0:0:0:
269,174,94669,1,8,0:0:0:0:
269,174,94806,1,0,0:0:0:0:
269,174,94942,1,8,0:0:0:0:
269,174,95215,1,0,0:0:0:0:
269,174,95488,1,8,0:0:0:0:
153,176,95760,1,8,0:0:0:0:
242,144,95897,1,0,0:0:0:0:
237,180,96033,1,8,0:0:0:0:
211,172,96306,1,0,0:0:0:0:
211,172,96579,1,8,0:0:0:0:
238,131,96851,1,8,0:0:0:0:
211,172,96988,1,0,0:0:0:0:
211,172,97261,1,0,0:0:0:0:
211,172,97397,1,8,0:0:0:0:
211,172,97670,1,4,0:0:0:0:
226,188,98079,1,0,0:0:0:0:
225,187,98215,1,8,0:0:0:0:
225,183,98488,1,0,0:0:0:0:
223,182,98624,1,8,0:0:0:0:
222,182,98761,1,0,0:0:0:0:
220,179,99033,1,0,0:0:0:0:
218,178,99306,1,8,0:0:0:0:
218,178,99579,1,8,0:0:0:0:
216,177,99715,1,8,0:0:0:0:
214,176,99851,1,0,0:0:0:0:
210,124,100261,1,0,0:0:0:0:
210,124,100397,1,8,0:0:0:0:
210,124,100670,1,8,0:0:0:0:
210,124,100806,1,0,0:0:0:0:
210,124,100942,1,8,0:0:0:0:
210,124,101215,1,0,0:0:0:0:
210,124,101488,1,8,0:0:0:0:
210,124,101761,1,8,0:0:0:0:
202,119,102033,1,0,0:0:0:0:
200,118,102442,1,0,0:0:0:0:
200,118,102579,1,8,0:0:0:0:
200,118,102851,1,0,0:0:0:0:
200,118,103124,1,8,0:0:0:0:
200,118,103397,1,0,0:0:0:0:
205,100,103533,1,0,0:0:0:0:
200,118,103670,1,8,0:0:0:0:
200,118,103942,1,8,0:0:0:0:
256,102,104215,1,0,0:0:0:0:
207,123,104624,1,0,0:0:0:0:
205,123,104761,1,8,0:0:0:0:
219,98,105033,1,8,0:0:0:0:
219,98,105306,1,0,0:0:0:0:
219,98,105579,1,0,0:0:0:0:
212,95,105715,1,0,0:0:0:0:
245,94,105851,1,8,0:0:0:0:
245,94,106124,1,8,0:0:0:0:
245,94,106397,1,4,0:0:0:0:
245,94,106806,1,0,0:0:0:0:
245,94,106942,1,8,0:0:0:0:
245,94,107215,1,0,0:0:0:0:
260,97,107488,1,0,0:0:0:0:
245,94,107761,1,8,0:0:0:0:
258,96,107897,1,0,0:0:0:0:
245,94,108033,1,8,0:0:0:0:
260,97,108306,1,8,0:0:0:0:
256,96,108579,1,0,0:0:0:0:
256,96,108988,1,0,0:0:0:0:
253,95,109124,1,8,0:0:0:0:
256,96,109397,1,0,0:0:0:0:
247,93,109670,1,0,0:0:0:0:
245,93,109942,1,8,0:0:0:0:
242,92,110215,1,8,0:0:0:0:
241,92,110488,1,0,0:0:0:0:
254,90,110761,1,0,0:0:0:0:
253,90,111170,1,0,0:0:0:0:
252,89,111306,1,8,0:0:0:0:
254,90,111579,1,0,0:0:0:0:
253,90,111851,1,8,0:0:0:0:
253,90,112124,1,0,0:0:0:0:
247,88,112261,1,0,0:0:0:0:
254,90,112397,1,8,0:0:0:0:
248,88,112670,1,8,0:0:0:0:
245,86,112942,1,0,0:0:0:0:
269,100,113351,1,0,0:0:0:0:
269,100,113488,1,8,0:0:0:0:
266,98,113761,1,0,0:0:0:0:
269,100,114033,1,8,0:0:0:0:
262,96,115124,1,4,0:0:0:0:
255,113,115533,1,0,0:0:0:0:
255,113,115670,1,8,0:0:0:0:
255,113,115942,1,8,0:0:0:0:
255,113,116079,1,8,0:0:0:0:
255,113,116215,1,0,0:0:0:0:
255,113,116488,1,0,0:0:0:0:
255,113,116761,1,8,0:0:0:0:
255,113,117033,1,8,0:0:0:0:
255,113,117306,1,0,0:0:0:0:
255,113,117715,1,0,0:0:0:0:
255,113,117851,1,8,0:0:0:0:
245,108,118124,1,8,0:0:0:0:
245,108,118261,1,0,0:0:0:0:
245,108,118397,1,8,0:0:0:0:
245,108,118670,1,0,0:0:0:0:
245,108,118942,1,8,0:0:0:0:
240,105,119215,1,8,0:0:0:0:
239,104,119488,1,0,0:0:0:0:
234,103,119897,1,0,0:0:0:0:
234,103,120033,1,8,0:0:0:0:
239,104,120306,1,8,0:0:0:0:
193,119,120442,1,8,0:0:0:0:
236,107,120579,1,0,0:0:0:0:
235,107,120851,1,8,0:0:0:0:
235,107,120988,1,0,0:0:0:0:
235,107,121124,1,8,0:0:0:0:
234,114,121397,1,0,0:0:0:0:
233,114,121670,1,0,0:0:0:0:
233,114,122079,1,0,0:0:0:0:
234,114,122215,1,8,0:0:0:0:
233,114,122488,1,0,0:0:0:0:
233,114,122761,1,8,0:0:0:0:
233,114,123033,1,0,0:0:0:0:
233,114,123306,1,8,0:0:0:0:
233,114,123579,1,8,0:0:0:0:
233,114,123851,1,0,0:0:0:0:
233,114,124261,1,0,0:0:0:0:
233,114,124397,1,8,0:0:0:0:
233,114,124670,1,8,0:0:0:0:
233,114,124806,1,8,0:0:0:0:
233,114,124942,1,0,0:0:0:0:
189,118,125215,1,0,0:0:0:0:
189,118,125488,1,8,0:0:0:0:
189,118,125624,1,0,0:0:0:0:
189,118,125761,1,8,0:0:0:0:
183,117,126033,1,0,0:0:0:0:
174,114,126442,1,0,0:0:0:0:
174,113,126579,1,8,0:0:0:0:
172,113,126851,1,8,0:0:0:0:
176,114,127124,1,0,0:0:0:0:
174,114,127397,1,0,0:0:0:0:
172,113,127670,1,8,0:0:0:0:
169,112,127942,1,8,0:0:0:0:
165,111,128215,1,0,0:0:0:0:
165,111,128624,1,0,0:0:0:0:
169,112,128761,1,8,0:0:0:0:
165,111,129033,1,8,0:0:0:0:
165,111,129306,1,0,0:0:0:0:
222,107,129579,1,8,0:0:0:0:
222,107,129715,1,0,0:0:0:0:
222,107,129851,1,8,0:0:0:0:
207,104,130124,1,8,0:0:0:0:
207,104,130397,1,0,0:0:0:0:
206,103,130806,1,0,0:0:0:0:
207,104,130942,1,8,0:0:0:0:
207,104,131215,1,8,0:0:0:0:
207,104,131488,1,4,0:0:0:0:
276,180,132579,1,8,0:0:0:0:
