osu file format v14

[General]
AudioFilename: Diplo & GTA - Boy Oh Boy_82522529_soundcloud.mp3
AudioLeadIn: 0
PreviewTime: -1
Countdown: 1
SampleSet: Normal
StackLeniency: 0.7
Mode: 0
LetterboxInBreaks: 0
WidescreenStoryboard: 0

[Editor]
DistanceSpacing: 0.8
BeatDivisor: 4
GridSize: 8
TimelineZoom: 1

[Metadata]
Title:Diplo & GTA - Boy Oh Boy
TitleUnicode:Diplo & GTA - Boy Oh Boy
Artist:diplo
ArtistUnicode:diplo
Creator:peng
Version:Insane
Source:
Tags:
BeatmapID:871585
BeatmapSetID:400610

[Difficulty]
HPDrainRate:6
CircleSize:4
OverallDifficulty:5
ApproachRate:8
SliderMultiplier:2.00000000596046
SliderTickRate:1

[Events]
//Background and Video events
0,0,"hd_anime_wallpaper_1_3UE3k.jpg",0,0
//Break Periods
2,14853,28788
//Storyboard Layer 0 (Background)
//Storyboard Layer 1 (Fail)
//Storyboard Layer 2 (Pass)
//Storyboard Layer 3 (Foreground)
//Storyboard Sound Samples

[TimingPoints]
0,461.538461538462,4,1,0,35,1,0
1500,-133.333333333333,4,1,0,35,0,0
29307,-100,4,1,0,35,0,0
96115,-74.0740740740741,4,1,0,50,0,0
104423,-200,4,1,0,50,0,0

[HitObjects]
192,104,0,6,0,L|360:104,1,150.000000447035
344,216,461,2,0,L|192:216,1,150.000000447035
192,344,923,2,0,L|360:344,1,150.000000447035
342,344,1384,1,0,0:0:0:0:
376,144,1615,6,0,L|376:240,1,75.0000002235173
288,144,2076,2,0,L|288:232,1,75.0000030845403
200,144,2538,2,0,L|200:248,1,75.0000030845403
88,144,3115,2,0,L|88:208,2,37.5000015422702
296,208,3576,5,0,0:0:0:0:
304,200,3692,1,0,0:0:0:0:
312,192,3807,2,0,P|368:160|400:168,1,75.0000030845403
408,272,4153,2,0,P|368:304|312:304,1,75.0000030845403
192,208,4615,2,0,P|136:256|152:288,1,112.50000462681
145,280,5076,1,0,0:0:0:0:
408,112,5307,5,0,0:0:0:0:
128,104,5538,2,0,P|120:152|152:200,1,75.0000030845403
304,224,6000,2,0,P|296:288|272:304,1,75.0000030845403
80,256,6461,2,0,P|80:304|120:352,1,112.50000462681
119,351,6923,1,0,0:0:0:0:
408,360,7153,1,0,0:0:0:0:
408,176,7384,6,0,P|384:128|344:112,1,75.0000030845403
272,184,7846,2,0,P|288:224|336:264,1,75.0000030845403
192,280,8307,2,0,P|168:232|112:208,1,112.50000462681
116,208,8769,1,0,0:0:0:0:
256,192,9000,12,0,14653,0:0:0:0:
176,152,29538,5,0,0:0:0:0:
336,152,29769,1,0,0:0:0:0:
336,312,30000,1,0,0:0:0:0:
176,312,30230,1,0,0:0:0:0:
80,56,30461,5,0,0:0:0:0:
416,56,30692,1,0,0:0:0:0:
112,280,30923,1,0,0:0:0:0:
392,128,31153,1,0,0:0:0:0:
224,208,31384,1,0,0:0:0:0:
472,328,31615,1,0,0:0:0:0:
80,288,31846,1,0,0:0:0:0:
304,64,32076,1,0,0:0:0:0:
144,104,32307,1,0,0:0:0:0:
256,296,32538,1,0,0:0:0:0:
360,104,32769,1,0,0:0:0:0:
256,192,33000,1,0,0:0:0:0:
256,113,33230,5,0,0:0:0:0:
257,273,33461,1,0,0:0:0:0:
189,187,33692,1,0,0:0:0:0:
318,189,33923,1,0,0:0:0:0:
135,38,34153,5,0,0:0:0:0:
54,164,34384,1,0,0:0:0:0:
210,168,34615,1,0,0:0:0:0:
136,120,34846,1,0,0:0:0:0:
54,256,35076,1,0,0:0:0:0:
212,258,35307,1,0,0:0:0:0:
136,206,35538,1,0,0:0:0:0:
52,348,35769,1,0,0:0:0:0:
214,348,36000,1,0,0:0:0:0:
136,206,36230,1,0,0:0:0:0:
52,348,36461,1,0,0:0:0:0:
214,348,36692,1,0,0:0:0:0:
192,88,36923,6,0,L|296:88,1,100.000000298023
292,233,37384,5,0,0:0:0:0:
292,88,37615,1,0,0:0:0:0:
152,232,37846,5,0,0:0:0:0:
152,368,38076,1,0,0:0:0:0:
252,368,38307,6,0,L|116:368,1,100.000000298023
256,368,38769,5,0,0:0:0:0:
152,368,39000,1,0,0:0:0:0:
256,264,39230,5,0,0:0:0:0:
152,264,39461,1,0,0:0:0:0:
256,168,39692,5,0,0:0:0:0:
152,168,39923,1,0,0:0:0:0:
256,64,40153,5,0,0:0:0:0:
152,64,40384,1,0,0:0:0:0:
256,192,40615,12,0,42230,0:0:0:0:
180,115,42461,5,0,0:0:0:0:
327,115,42692,1,0,0:0:0:0:
329,269,42923,1,0,0:0:0:0:
177,268,43153,1,0,0:0:0:0:
256,115,43384,1,0,0:0:0:0:
327,191,43615,1,0,0:0:0:0:
256,269,43846,1,0,0:0:0:0:
177,192,44076,1,0,0:0:0:0:
256,112,44307,6,0,L|256:232,1,100.000000298023
128,112,44769,5,0,0:0:0:0:
384,112,45000,1,0,0:0:0:0:
128,256,45230,1,0,0:0:0:0:
384,256,45461,1,0,0:0:0:0:
128,112,45692,5,0,0:0:0:0:
384,112,45923,1,0,0:0:0:0:
128,256,46153,1,0,0:0:0:0:
384,256,46384,1,0,0:0:0:0:
128,112,46615,5,0,0:0:0:0:
208,256,46846,1,0,0:0:0:0:
288,112,47076,1,0,0:0:0:0:
112,192,47307,1,0,0:0:0:0:
296,192,47538,1,0,0:0:0:0:
208,56,47769,1,0,0:0:0:0:
208,256,48000,6,0,L|208:144,1,100.000000298023
376,72,48461,5,0,0:0:0:0:
280,280,48692,1,0,0:0:0:0:
280,280,48923,1,0,0:0:0:0:
256,56,49153,5,0,0:0:0:0:
152,280,49384,1,0,0:0:0:0:
152,280,49615,1,0,0:0:0:0:
104,120,49846,5,0,0:0:0:0:
400,120,50076,1,0,0:0:0:0:
104,240,50307,1,0,0:0:0:0:
336,40,50538,1,0,0:0:0:0:
392,272,50769,1,0,0:0:0:0:
104,40,51000,1,0,0:0:0:0:
256,328,51230,1,0,0:0:0:0:
256,24,51461,1,0,0:0:0:0:
256,136,51692,6,0,L|256:240,1,100.000000298023
128,280,52153,5,0,0:0:0:0:
128,280,52384,1,0,0:0:0:0:
288,280,52615,6,0,L|184:280,1,100.000000298023
368,72,53076,5,0,0:0:0:0:
368,72,53307,1,0,0:0:0:0:
368,232,53538,6,0,L|368:128,1,100.000000298023
80,192,54000,5,0,0:0:0:0:
80,192,54230,1,0,0:0:0:0:
240,192,54461,6,0,L|128:192,1,100.000000298023
328,192,54923,5,0,0:0:0:0:
328,192,55153,1,0,0:0:0:0:
128,328,55384,6,0,L|128:224,1,100.000000298023
256,112,55846,5,0,0:0:0:0:
208,32,56076,6,0,L|320:32,2,100.000000298023
256,272,56769,5,0,0:0:0:0:
256,112,57000,1,0,0:0:0:0:
208,192,57230,6,0,L|352:192,7,100.000000298023
144,320,59076,5,0,0:0:0:0:
224,144,59307,1,0,0:0:0:0:
296,328,59538,1,0,0:0:0:0:
128,224,59769,1,0,0:0:0:0:
312,224,60000,1,0,0:0:0:0:
288,80,60230,5,0,0:0:0:0:
288,80,60346,1,0,0:0:0:0:
288,80,60461,2,0,P|352:104|368:128,1,100.000000298023
144,320,60923,5,0,0:0:0:0:
224,144,61153,1,0,0:0:0:0:
296,328,61384,1,0,0:0:0:0:
128,224,61615,1,0,0:0:0:0:
312,224,61846,1,0,0:0:0:0:
408,184,62076,5,0,0:0:0:0:
408,184,62192,1,0,0:0:0:0:
408,184,62307,2,0,P|384:112|360:96,1,100.000000298023
144,320,62769,5,0,0:0:0:0:
224,144,63000,1,0,0:0:0:0:
296,328,63230,1,0,0:0:0:0:
128,224,63461,1,0,0:0:0:0:
312,224,63692,1,0,0:0:0:0:
112,48,63923,5,0,0:0:0:0:
112,48,64038,1,0,0:0:0:0:
112,48,64153,2,0,P|168:48|200:80,1,100.000000298023
144,320,64615,5,0,0:0:0:0:
224,144,64846,1,0,0:0:0:0:
296,328,65076,1,0,0:0:0:0:
128,224,65307,1,0,0:0:0:0:
312,224,65538,1,0,0:0:0:0:
248,48,65769,5,0,0:0:0:0:
248,48,65884,1,0,0:0:0:0:
248,48,66000,2,0,P|320:64|344:88,1,100.000000298023
96,152,66461,5,0,0:0:0:0:
400,152,66692,1,0,0:0:0:0:
96,272,66923,1,0,0:0:0:0:
408,272,67153,1,0,0:0:0:0:
256,208,67384,1,0,0:0:0:0:
256,80,67615,6,0,L|256:16,2,50.0000001490115
400,152,68076,5,0,0:0:0:0:
96,152,68307,1,0,0:0:0:0:
96,272,68538,1,0,0:0:0:0:
400,272,68769,1,0,0:0:0:0:
400,152,69000,1,0,0:0:0:0:
256,208,69230,1,0,0:0:0:0:
256,80,69461,6,0,L|256:16,2,50.0000001490115
408,120,69923,5,0,0:0:0:0:
256,192,70153,1,0,0:0:0:0:
408,272,70384,1,0,0:0:0:0:
112,120,70615,1,0,0:0:0:0:
256,192,70846,1,0,0:0:0:0:
112,264,71076,1,0,0:0:0:0:
256,56,71307,5,0,0:0:0:0:
256,56,71423,1,0,0:0:0:0:
256,56,71538,1,0,0:0:0:0:
336,184,71769,5,0,0:0:0:0:
480,96,72000,1,0,0:0:0:0:
240,248,72230,1,0,0:0:0:0:
408,56,72461,1,0,0:0:0:0:
176,192,72692,1,0,0:0:0:0:
464,152,72923,1,0,0:0:0:0:
144,296,73153,1,0,0:0:0:0:
464,72,73384,1,0,0:0:0:0:
96,240,73615,1,0,0:0:0:0:
288,192,73846,6,0,L|288:88,1,100.000000298023
96,240,74307,5,0,0:0:0:0:
288,240,74538,1,0,0:0:0:0:
288,40,74769,1,0,0:0:0:0:
152,128,75000,5,0,0:0:0:0:
152,128,75115,1,0,0:0:0:0:
152,128,75230,2,0,L|208:128,2,50.0000001490115
288,40,75692,5,0,0:0:0:0:
288,240,75923,1,0,0:0:0:0:
488,240,76153,1,0,0:0:0:0:
488,40,76384,1,0,0:0:0:0:
288,40,76615,1,0,0:0:0:0:
288,240,76846,5,0,0:0:0:0:
288,240,76961,1,0,0:0:0:0:
288,240,77076,2,0,L|352:240,2,50.0000001490115
120,64,77538,5,0,0:0:0:0:
120,304,77769,1,0,0:0:0:0:
280,184,78000,1,0,0:0:0:0:
48,184,78230,1,0,0:0:0:0:
280,184,78461,1,0,0:0:0:0:
136,184,78692,5,0,0:0:0:0:
136,184,78807,1,0,0:0:0:0:
136,184,78923,2,0,L|200:184,2,50.0000001490115
392,48,79384,5,0,0:0:0:0:
392,192,79615,1,0,0:0:0:0:
288,48,79846,1,0,0:0:0:0:
288,304,80076,1,0,0:0:0:0:
448,304,80307,1,0,0:0:0:0:
136,192,80538,5,0,0:0:0:0:
136,192,80653,1,0,0:0:0:0:
136,192,80769,2,0,L|200:192,2,50.0000001490115
136,304,81230,5,0,0:0:0:0:
408,304,81461,1,0,0:0:0:0:
136,192,81692,1,0,0:0:0:0:
408,192,81923,1,0,0:0:0:0:
272,56,82153,1,0,0:0:0:0:
272,56,82384,1,0,0:0:0:0:
272,200,82615,6,0,L|272:264,2,50.0000001490115
128,224,83076,6,0,L|128:328,3,100.000000298023
136,120,84000,5,0,0:0:0:0:
136,120,84115,1,0,0:0:0:0:
136,120,84230,1,0,0:0:0:0:
384,120,84461,6,0,L|384:176,2,50.0000001490115
384,176,84923,5,0,0:0:0:0:
256,328,85153,1,0,0:0:0:0:
120,176,85384,1,0,0:0:0:0:
256,40,85615,1,0,0:0:0:0:
384,176,85846,1,0,0:0:0:0:
256,176,86076,5,0,0:0:0:0:
160,328,86307,1,0,0:0:0:0:
96,160,86538,1,0,0:0:0:0:
336,296,86769,6,0,L|400:216,1,100.000000298023
398,217,87230,1,0,0:0:0:0:
312,152,87461,1,0,0:0:0:0:
144,304,87692,5,0,0:0:0:0:
368,304,87923,1,0,0:0:0:0:
56,192,88153,5,0,0:0:0:0:
456,192,88384,1,0,0:0:0:0:
288,192,88615,5,0,0:0:0:0:
288,192,88846,2,0,L|184:192,4,100.000000298023
416,192,90692,6,0,L|416:312,4,100.000000298023
144,288,92653,6,0,L|248:288,4,100.000000298023
128,48,94615,6,0,L|128:160,4,100.000000298023
256,192,96115,12,0,104423,0:0:0:0:
