osu file format v14

[General]
AudioFilename: audio.mp3
AudioLeadIn: 0
PreviewTime:76
Countdown: 0
SampleSet: Normal
StackLeniency: 0.7
Mode: 1
LetterboxInBreaks: 0
WidescreenStoryboard: 1

[Editor]
DistanceSpacing: 1
BeatDivisor: 1
GridSize: 4
TimelineZoom: 0.4

[Metadata]
Title:Mr. Beast!!
TitleUnicode:Mr. Beast!!
Artist:diaxart
ArtistUnicode:diaxart
Creator:Apo11o
Version:World's Most Dangerous Kantan!
Source:東方幻想郷 ~ Lotus Land Story
Tags:bad apple!! mrbeast mister video game instrumental novelty meme ytpmv alstroemeria records 東方project touhou gensokyo gensoukyou zun jimmy donaldson hivie enneya een persoon
BeatmapID:3922648
BeatmapSetID:1902658

[Difficulty]
HPDrainRate:9
CircleSize:2
OverallDifficulty:3
ApproachRate:10
SliderMultiplier:1.4
SliderTickRate:1

[Events]
//Background and Video events
0,0,"MrMrBeast.jpg",0,-40
//Break Periods
//Storyboard Layer 0 (Background)
//Storyboard Layer 1 (Fail)
//Storyboard Layer 2 (Pass)
//Storyboard Layer 3 (Foreground)
//Storyboard Layer 4 (Overlay)
//Storyboard Sound Samples

[TimingPoints]
76,434.782608695652,4,1,0,60,1,0
13989,-100,4,1,0,60,0,1
27902,-100,4,1,0,60,0,0
41815,-100,4,1,0,60,0,1
53989,-100,4,1,0,5,0,0
54749,-100,4,1,0,60,0,0
54858,-100,4,1,0,60,0,1
55728,-100,4,1,0,60,0,0
57467,-125,4,1,0,40,0,0
59206,-166.666666666667,4,1,0,30,0,0

[Colours]
Combo1 : 192,41,147
Combo2 : 69,76,213
Combo3 : 69,144,213
Combo4 : 213,69,69

[HitObjects]
253,335,76,5,4,0:0:0:0:
274,76,1380,1,8,0:0:0:0:
274,76,1815,1,0,0:0:0:0:
274,76,2684,1,8,0:0:0:0:
274,76,3119,1,8,0:0:0:0:
274,76,3554,1,0,0:0:0:0:
274,76,4423,1,8,0:0:0:0:
274,76,5293,1,0,0:0:0:0:
274,76,5728,1,8,0:0:0:0:
274,76,6162,1,0,0:0:0:0:
291,324,7032,5,12,0:0:0:0:
273,78,8336,1,0,0:0:0:0:
273,78,8771,1,8,0:0:0:0:
273,78,9641,1,0,0:0:0:0:
266,70,10075,1,8,0:0:0:0:
273,78,10510,1,0,0:0:0:0:
273,78,11380,1,8,0:0:0:0:
273,78,12249,1,0,0:0:0:0:
273,78,12684,1,0,0:0:0:0:
271,66,13119,1,8,0:0:0:0:
271,66,13554,1,8,0:0:0:0:
253,290,13989,5,4,0:0:0:0:
259,98,15293,1,8,0:0:0:0:
259,98,15728,1,0,0:0:0:0:
259,98,16597,1,8,0:0:0:0:
259,98,17032,1,8,0:0:0:0:
247,84,17467,1,0,0:0:0:0:
247,84,17902,1,8,0:0:0:0:
247,84,18336,1,0,0:0:0:0:
247,84,19206,1,8,0:0:0:0:
247,84,20075,1,0,0:0:0:0:
252,89,20510,1,0,0:0:0:0:
260,261,20945,5,12,0:0:0:0:
255,83,22249,1,0,0:0:0:0:
255,83,22684,1,8,0:0:0:0:
255,83,23554,1,0,0:0:0:0:
255,83,23989,1,0,0:0:0:0:
255,83,24423,1,8,0:0:0:0:
252,68,24858,1,0,0:0:0:0:
255,83,25293,1,8,0:0:0:0:
255,83,26162,1,0,0:0:0:0:
255,83,26597,1,0,0:0:0:0:
255,83,27032,1,0,0:0:0:0:
255,83,27467,1,0,0:0:0:0:
251,279,27902,5,12,0:0:0:0:
253,74,29206,1,0,0:0:0:0:
253,74,29641,1,8,0:0:0:0:
253,74,30510,1,0,0:0:0:0:
255,62,31380,1,8,0:0:0:0:
255,62,31815,1,8,0:0:0:0:
255,62,32249,1,0,0:0:0:0:
255,62,33119,1,8,0:0:0:0:
268,39,33989,1,0,0:0:0:0:
255,62,34423,1,8,0:0:0:0:
265,281,34858,5,4,0:0:0:0:
246,59,36162,1,8,0:0:0:0:
246,59,36597,1,0,0:0:0:0:
246,59,37467,1,8,0:0:0:0:
246,59,38336,1,0,0:0:0:0:
246,59,38771,1,0,0:0:0:0:
246,59,39206,1,8,0:0:0:0:
246,59,40075,1,0,0:0:0:0:
256,291,41815,5,4,0:0:0:0:
247,52,42249,1,8,0:0:0:0:
247,52,42684,1,8,0:0:0:0:
247,52,43554,1,0,0:0:0:0:
247,52,43989,1,8,0:0:0:0:
247,52,44423,1,8,0:0:0:0:
247,52,45293,1,0,0:0:0:0:
247,52,45728,1,0,0:0:0:0:
247,52,46162,1,8,0:0:0:0:
247,52,46597,1,8,0:0:0:0:
247,52,47032,1,0,0:0:0:0:
259,74,48771,5,12,0:0:0:0:
267,63,49206,1,0,0:0:0:0:
267,63,49641,1,0,0:0:0:0:
273,106,50510,1,8,0:0:0:0:
273,106,50945,1,0,0:0:0:0:
270,93,51380,1,0,0:0:0:0:
263,62,52249,1,8,0:0:0:0:
263,62,52684,1,8,0:0:0:0:
263,62,53119,1,0,0:0:0:0:
263,62,53554,1,8,0:0:0:0:
275,270,54858,5,12,0:0:0:0:
275,270,55293,5,12,0:0:0:0:
275,270,55728,5,4,0:0:0:0:
256,192,55945,12,0,59206,0:0:0:0:
