osu file format v14

[General]
AudioFilename: audio.mp3
AudioLeadIn: 0
PreviewTime: 76
Countdown: 0
SampleSet: Soft
StackLeniency: 0.7
Mode: 0
LetterboxInBreaks: 0
WidescreenStoryboard: 0

[Editor]
DistanceSpacing: 1.1
BeatDivisor: 4
GridSize: 4
TimelineZoom: 1.5

[Metadata]
Title:Mr. Beast!!
TitleUnicode:Mr. Beast!!
Artist:diaxart
ArtistUnicode:diaxart
Creator:Apo11o
Version:Make This Insane The Most Played Map On Osu!
Source:東方幻想郷 ~ Lotus Land Story
Tags:bad apple!! mrbeast mister video game instrumental novelty meme ytpmv alstroemeria records 東方project touhou gensokyo gensoukyou zun jimmy donaldson hivie enneya een persoon
BeatmapID:3922646
BeatmapSetID:1902658

[Difficulty]
HPDrainRate:5
CircleSize:3.7
OverallDifficulty:8.6
ApproachRate:8.8
SliderMultiplier:1.8
SliderTickRate:1

[Events]
//Background and Video events
0,0,"MrMrBeast.jpg",0,0
//Break Periods
//Storyboard Layer 0 (Background)
//Storyboard Layer 1 (Fail)
//Storyboard Layer 2 (Pass)
//Storyboard Layer 3 (Foreground)
//Storyboard Layer 4 (Overlay)
//Storyboard Sound Samples

[TimingPoints]
76,434.782608695652,4,2,1,64,1,0
13989,-90.9090909090909,4,2,1,70,0,0
27902,-100,4,2,1,70,0,0
41815,-83.3333333333333,4,2,1,75,0,0
53989,-83.3333333333333,4,2,1,64,0,0
54858,-76.9230769230769,4,2,1,64,0,0

[Colours]
Combo1 : 192,41,147
Combo2 : 69,76,213
Combo3 : 69,144,213
Combo4 : 213,69,69

[HitObjects]
275,268,76,5,6,3:2:0:0:
229,116,293,1,2,0:2:0:0:
246,295,510,1,10,0:2:0:0:
259,88,727,1,2,0:2:0:0:
85,207,945,2,2,P|138:200|186:202,1,90,2|0,3:2|0:2,0:2:0:0:
348,314,1380,5,10,3:2:0:0:
331,68,1597,1,0,0:2:0:0:
144,279,1815,2,2,B|199:315|299:276|243:225|343:191|395:232,1,270,2|0,3:2|0:2,0:2:0:0:
331,68,2684,5,2,3:2:0:0:
500,24,2902,1,2,0:2:0:0:
381,132,3119,1,10,0:2:0:0:
489,110,3336,1,2,3:2:0:0:
320,223,3554,5,2,3:2:0:0:
418,235,3771,1,2,0:2:0:0:
270,303,3988,1,10,0:2:0:0:
440,328,4206,1,2,0:2:0:0:
381,132,4423,2,2,P|394:177|397:222,1,90,2|0,3:2|0:2,0:2:0:0:
288,380,4858,1,10,0:2:0:0:
238,224,5075,1,2,0:2:0:0:
238,224,5184,1,0,3:2:0:0:
238,224,5293,5,2,3:2:0:0:
37,318,5510,1,2,0:2:0:0:
67,85,5728,1,10,0:2:0:0:
67,85,6162,5,2,3:2:0:0:
51,201,6380,1,2,3:2:0:0:
152,154,6597,1,10,3:2:0:0:
152,154,7032,5,6,3:2:0:0:
282,47,7249,1,2,0:2:0:0:
245,206,7467,1,10,0:2:0:0:
177,57,7684,1,2,0:2:0:0:
309,130,7902,2,2,P|334:166|341:210,1,90,2|0,3:2|0:2,0:2:0:0:
150,236,8336,5,10,3:2:0:0:
348,53,8554,1,2,0:2:0:0:
134,249,8771,2,2,B|82:208|73:138|125:96|125:96|104:146|130:185,1,270,2|0,3:2|0:2,0:2:0:0:
319,237,9641,5,2,3:2:0:0:
195,134,9858,1,2,0:2:0:0:
314,344,10075,1,10,0:2:0:0:
231,259,10293,1,2,3:2:0:0:
397,259,10510,5,2,3:2:0:0:
314,344,10728,1,2,0:2:0:0:
443,134,10945,1,10,0:2:0:0:
319,237,11162,1,2,0:2:0:0:
277,59,11380,2,2,P|330:57|385:71,1,90,2|0,3:2|0:2,0:2:0:0:
319,237,11815,1,10,0:2:0:0:
195,134,12032,1,2,0:2:0:0:
195,134,12141,1,0,3:2:0:0:
195,134,12249,5,2,3:2:0:0:
254,353,12684,5,2,3:2:0:0:
75,38,13119,6,0,P|51:30|4:17,2,60,4|0|0,3:2|3:2|3:2,3:2:0:0:
121,123,13554,2,0,P|145:115|192:102,2,60,4|0|0,3:2|3:2|3:2,3:2:0:0:
54,207,13989,5,6,3:2:0:0:
250,42,14206,1,2,0:2:0:0:
35,216,14423,1,10,0:2:0:0:
293,185,14641,1,2,0:2:0:0:
61,53,14858,2,2,P|91:93|107:145,1,99.0000030212403,2|0,3:2|0:2,0:2:0:0:
215,289,15293,1,10,0:2:0:0:
268,66,15510,1,2,0:2:0:0:
117,248,15728,2,2,B|79:232|49:306|194:311|146:205|256:151|328:212,1,297.000009063721,2|0,3:2|0:2,0:2:0:0:
454,20,16597,5,2,3:2:0:0:
500,208,16815,1,2,0:2:0:0:
386,74,17032,1,10,0:2:0:0:
417,200,17249,1,2,3:2:0:0:
294,67,17467,5,2,3:2:0:0:
268,190,17684,1,2,0:2:0:0:
220,14,17902,1,10,0:2:0:0:
174,193,18119,1,2,0:2:0:0:
343,137,18336,2,2,P|360:187|363:238,1,99.0000030212403,2|0,3:2|0:2,0:2:0:0:
186,323,18771,1,10,0:2:0:0:
228,120,18989,1,2,0:2:0:0:
228,120,19097,1,0,3:2:0:0:
228,120,19206,5,2,3:2:0:0:
105,357,19423,1,2,0:2:0:0:
372,345,19641,1,10,0:2:0:0:
372,345,20075,5,2,3:2:0:0:
238,350,20293,1,2,3:2:0:0:
300,232,20510,1,10,3:2:0:0:
300,232,20945,5,6,3:2:0:0:
307,382,21162,1,2,0:2:0:0:
192,184,21380,1,10,0:2:0:0:
408,174,21597,1,2,0:2:0:0:
175,185,21815,2,2,P|192:228|201:298,1,99.0000030212403,2|0,3:2|0:2,0:2:0:0:
301,66,22249,5,10,0:2:0:0:
82,150,22467,1,2,0:2:0:0:
316,60,22684,2,2,B|325:-8|240:-39|181:23|203:113|263:177,1,297.000009063721,2|0,3:2|0:2,0:2:0:0:
466,228,23554,5,2,3:2:0:0:
216,283,23771,1,2,0:2:0:0:
478,221,23989,1,10,0:2:0:0:
259,172,24206,1,2,3:2:0:0:
360,337,24423,5,2,3:2:0:0:
171,369,24641,1,2,0:2:0:0:
383,333,24858,1,10,0:2:0:0:
137,252,25075,1,2,0:2:0:0:
386,182,25293,2,2,P|394:134|386:85,1,99.0000030212403,2|0,3:2|0:2,0:2:0:0:
125,60,25728,1,10,0:2:0:0:
366,46,25945,1,2,0:2:0:0:
0,0,26162,5,6,3:2:0:0:
512,0,26597,5,6,3:2:0:0:
512,384,27032,5,6,3:2:0:0:
0,384,27467,5,6,3:2:0:0:
109,51,27902,5,6,3:2:0:0:
262,44,28119,1,2,0:2:0:0:
111,127,28336,1,10,0:2:0:0:
259,144,28554,1,2,0:2:0:0:
88,204,28771,1,2,3:2:0:0:
88,204,29206,5,10,0:2:0:0:
242,248,29423,1,2,0:2:0:0:
187,98,29641,1,2,3:2:0:0:
95,285,29858,1,2,0:2:0:0:
285,177,30075,1,10,0:2:0:0:
93,87,30293,1,2,0:2:0:0:
174,310,30510,1,2,3:2:0:0:
174,310,30945,5,10,0:2:0:0:
206,107,31162,1,2,3:2:0:0:
273,312,31380,1,2,3:2:0:0:
281,126,31597,1,2,0:2:0:0:
372,285,31815,1,10,0:2:0:0:
356,154,32032,1,2,0:2:0:0:
434,238,32249,1,2,3:2:0:0:
434,238,32684,5,10,0:2:0:0:
400,128,32902,1,2,0:2:0:0:
372,285,33119,1,2,3:2:0:0:
512,251,33336,1,2,0:2:0:0:
309,337,33554,1,10,0:2:0:0:
283,101,33771,1,2,0:2:0:0:
239,243,33989,1,2,3:2:0:0:
239,243,34423,5,10,0:2:0:0:
201,69,34641,1,2,0:2:0:0:
338,182,34858,1,6,3:2:0:0:
154,171,35075,1,2,0:2:0:0:
241,326,35293,1,10,0:2:0:0:
261,149,35510,1,2,0:2:0:0:
140,288,35728,1,2,3:2:0:0:
140,288,36162,5,10,0:2:0:0:
275,234,36380,1,2,0:2:0:0:
107,361,36597,1,2,3:2:0:0:
232,154,36815,1,2,0:2:0:0:
185,355,37032,1,10,0:2:0:0:
171,95,37249,1,2,0:2:0:0:
326,297,37467,1,2,3:2:0:0:
326,297,37902,5,10,0:2:0:0:
275,82,38119,1,2,3:2:0:0:
220,303,38336,1,2,3:2:0:0:
248,80,38554,1,2,0:2:0:0:
146,259,38771,1,10,0:2:0:0:
222,70,38989,1,2,0:2:0:0:
83,177,39206,1,2,3:2:0:0:
83,177,39641,5,10,0:2:0:0:
143,330,39858,1,2,0:2:0:0:
165,144,40075,1,2,3:2:0:0:
52,345,40293,1,2,0:2:0:0:
87,95,40510,1,10,0:2:0:0:
235,314,40728,1,2,0:2:0:0:
73,80,40945,6,0,P|65:53|63:11,2,60,4|0|0,3:2|3:2|3:2,3:2:0:0:
168,171,41380,6,0,B|166:210|156:231,2,60,6|0|0,3:2|3:2|3:2,3:2:0:0:
238,83,41815,5,6,3:2:0:0:
355,334,42032,1,2,0:2:0:0:
225,66,42249,1,14,3:2:0:0:
192,365,42467,1,2,0:2:0:0:
393,164,42684,2,2,P|402:124|391:53,1,107.999996704102,6|0,3:2|0:2,0:2:0:0:
112,225,43119,1,14,3:2:0:0:
383,256,43336,1,2,0:2:0:0:
81,222,43554,5,6,3:2:0:0:
310,55,43771,1,2,0:2:0:0:
200,315,43989,1,14,3:2:0:0:
170,10,44206,1,2,0:2:0:0:
21,302,44423,2,2,P|72:283|126:276,1,107.999996704102,6|0,3:2|0:2,0:2:0:0:
229,70,44858,1,14,3:2:0:0:
304,363,45075,1,2,3:2:0:0:
304,363,45184,1,0,3:2:0:0:
304,363,45293,5,6,3:2:0:0:
124,276,45510,1,2,0:2:0:0:
369,320,45728,5,14,3:2:0:0:
230,258,45945,1,2,0:2:0:0:
433,277,46162,5,6,3:2:0:0:
433,277,46597,5,14,3:2:0:0:
344,67,46815,1,0,0:2:0:0:
344,67,46923,1,0,3:2:0:0:
344,67,47032,5,6,3:2:0:0:
203,98,47249,1,2,0:2:0:0:
409,114,47467,5,14,3:2:0:0:
179,170,47684,1,2,0:2:0:0:
461,181,47902,5,6,3:2:0:0:
461,181,48336,5,14,3:2:0:0:
273,25,48554,1,2,0:2:0:0:
273,25,48662,1,0,3:2:0:0:
273,25,48771,5,6,3:2:0:0:
292,287,48989,1,2,0:2:0:0:
117,130,49206,1,14,3:2:0:0:
161,357,49423,1,2,0:2:0:0:
357,170,49641,2,2,P|322:150|257:130,1,107.999996704102,6|0,3:2|0:2,0:2:0:0:
80,298,50075,1,14,3:2:0:0:
358,353,50293,1,2,0:2:0:0:
227,60,50510,5,6,3:2:0:0:
161,357,50728,1,2,0:2:0:0:
225,45,50945,1,14,3:2:0:0:
329,346,51162,1,2,0:2:0:0:
58,192,51380,2,2,P|94:177|185:168,1,107.999996704102,6|0,3:2|0:2,0:2:0:0:
409,297,51815,5,14,3:2:0:0:
142,60,52032,1,2,0:2:0:0:
142,60,52141,1,0,3:2:0:0:
142,60,52249,1,6,3:2:0:0:
467,224,52467,1,2,0:2:0:0:
31,121,52684,1,14,3:2:0:0:
480,123,52902,1,0,0:2:0:0:
1,208,53119,2,2,P|53:211|124:232,1,107.999996704102,6|0,3:2|0:2,0:2:0:0:
272,375,53554,1,14,3:2:0:0:
255,28,53771,1,2,0:2:0:0:
255,28,53880,1,0,3:2:0:0:
255,28,53989,5,2,3:2:0:0:
264,105,54206,1,2,0:2:0:0:
215,167,54423,1,2,0:2:0:0:
226,243,54641,1,2,0:2:0:0:
404,225,54858,6,0,B|462:219|443:175|515:176|515:176|485:179|470:197,1,175.499991966248,6|0,3:2|0:2,0:2:0:0:
404,225,55293,2,0,B|345:229|356:183|286:196|286:196|316:194|333:209,1,175.499991966248,4|0,3:2|0:2,0:2:0:0:
397,151,55728,5,14,3:2:0:0:
