osu file format v14

[General]
AudioFilename: audio.mp3
AudioLeadIn: 0
PreviewTime: 76
Countdown: 0
SampleSet: Soft
StackLeniency: 0.7
Mode: 0
LetterboxInBreaks: 0
WidescreenStoryboard: 1

[Editor]
DistanceSpacing: 1.2
BeatDivisor: 2
GridSize: 4
TimelineZoom: 1.5

[Metadata]
Title:Mr. Beast!!
TitleUnicode:Mr. Beast!!
Artist:diaxart
ArtistUnicode:diaxart
Creator:Apo11o
Version:I Survived 50 Hours Spamming This Hard!
Source:東方幻想郷 ~ Lotus Land Story
Tags:bad apple!! mrbeast mister video game instrumental novelty meme ytpmv alstroemeria records 東方project touhou gensokyo gensoukyou zun jimmy donaldson hivie enneya een persoon
BeatmapID:3922644
BeatmapSetID:1902658

[Difficulty]
HPDrainRate:4
CircleSize:3.4
OverallDifficulty:7
ApproachRate:7.5
SliderMultiplier:1.6
SliderTickRate:1

[Events]
//Background and Video events
0,0,"MrMrBeast.jpg",0,0
//Break Periods
//Storyboard Layer 0 (Background)
//Storyboard Layer 1 (Fail)
//Storyboard Layer 2 (Pass)
//Storyboard Layer 3 (Foreground)
//Storyboard Layer 4 (Overlay)
//Storyboard Sound Samples

[TimingPoints]
76,434.782608695652,4,2,1,64,1,0
13989,-100,4,2,1,70,0,0
41815,-100,4,2,1,75,0,0
53989,-100,4,2,1,64,0,0

[Colours]
Combo1 : 192,41,147
Combo2 : 69,76,213
Combo3 : 69,144,213
Combo4 : 213,69,69

[HitObjects]
294,67,76,6,0,P|332:57|373:59,1,80,6|2,3:2|0:2,0:0:0:0:
345,164,510,1,10,0:2:0:0:
345,164,728,1,2,0:2:0:0:
354,271,945,2,2,P|320:249|274:247,1,80,2|0,3:2|0:2,0:2:0:0:
214,301,1380,1,10,3:2:0:0:
145,247,1597,1,0,0:2:0:0:
70,309,1815,2,2,P|50:265|101:162,1,160,2|8,3:2|0:0,0:2:0:0:
197,34,2684,5,2,3:2:0:0:
283,11,2902,1,2,0:2:0:0:
331,85,3119,1,10,0:2:0:0:
270,158,3336,1,2,3:2:0:0:
342,210,3554,6,0,P|353:253|357:293,1,80,2|2,3:2|0:2,0:0:0:0:
424,200,3989,2,0,P|435:243|439:283,1,80,10|2,0:2|0:2,0:0:0:0:
504,179,4423,1,2,3:2:0:0:
257,271,4858,6,0,P|246:314|242:354,1,80,10|2,0:2|0:2,0:0:0:0:
175,261,5293,2,0,P|164:304|160:344,1,80,2|2,3:2|0:2,0:0:0:0:
95,240,5727,1,10,0:2:0:0:
136,51,6162,6,0,P|147:94|151:134,1,80,2|2,3:2|3:2,0:0:0:0:
216,30,6596,1,10,3:2:0:0:
297,360,7032,6,0,P|330:347|374:341,1,80,6|2,3:2|0:2,0:0:0:0:
473,353,7467,1,10,0:2:0:0:
473,353,7684,1,2,0:2:0:0:
431,269,7902,2,2,P|418:212|421:167,1,80,2|0,3:2|0:2,0:2:0:0:
488,129,8336,1,10,3:2:0:0:
435,48,8554,1,2,0:2:0:0:
364,104,8771,2,2,P|302:80|221:133,1,160,2|8,3:2|0:0,0:2:0:0:
20,41,9641,5,2,3:2:0:0:
92,94,9858,1,2,0:2:0:0:
26,154,10075,1,10,0:2:0:0:
100,208,10293,1,2,3:2:0:0:
31,279,10510,6,0,P|24:320|21:362,1,80,2|2,3:2|0:2,0:0:0:0:
119,294,10945,2,0,P|112:335|109:377,1,80,10|2,0:2|0:2,0:0:0:0:
202,310,11380,1,2,3:2:0:0:
381,197,11815,6,0,P|381:237|386:282,1,80,10|2,0:2|0:2,0:0:0:0:
464,186,12250,1,2,3:2:0:0:
48,198,12684,1,2,3:2:0:0:
256,316,13119,1,4,3:2:0:0:
137,39,13989,5,6,3:2:0:0:
236,24,14206,1,2,0:2:0:0:
255,118,14423,1,10,0:2:0:0:
152,137,14641,1,2,0:2:0:0:
218,214,14858,2,2,P|233:249|239:308,1,80,2|0,3:2|0:2,0:2:0:0:
412,281,15293,1,10,0:2:0:0:
316,244,15510,1,2,0:2:0:0:
334,348,15728,2,2,P|396:333|498:334,1,160,2|8,3:2|0:0,0:2:0:0:
469,173,16597,5,2,3:2:0:0:
459,74,16815,1,2,0:2:0:0:
362,82,17032,1,10,0:2:0:0:
372,181,17250,1,2,3:2:0:0:
276,189,17467,1,2,3:2:0:0:
266,90,17685,1,2,0:2:0:0:
170,99,17902,1,10,0:2:0:0:
180,198,18120,1,2,0:2:0:0:
89,157,18336,2,2,P|44:152|4:155,1,80,2|0,3:2|0:2,0:2:0:0:
52,245,18771,5,10,0:2:0:0:
46,344,18989,1,2,0:2:0:0:
142,350,19206,1,2,3:2:0:0:
148,251,19424,1,2,0:2:0:0:
231,305,19640,2,0,P|279:310|314:320,1,80,10|0,0:2|0:0,0:0:0:0:
393,255,20075,5,2,3:2:0:0:
387,156,20293,1,2,3:2:0:0:
304,210,20509,2,0,P|256:215|220:225,1,80,10|0,3:2|0:0,0:0:0:0:
157,155,20945,5,6,3:2:0:0:
54,147,21162,1,2,0:2:0:0:
61,45,21380,1,10,0:2:0:0:
164,53,21597,1,2,0:2:0:0:
244,109,21815,2,2,P|256:152|256:190,1,80,2|0,3:2|0:2,0:2:0:0:
101,256,22249,1,10,0:2:0:0:
192,236,22467,1,2,0:2:0:0:
162,335,22684,2,2,P|103:319|0:298,1,160,2|8,3:2|0:0,0:2:0:0:
238,365,23554,5,2,3:2:0:0:
334,358,23771,1,2,0:2:0:0:
430,351,23989,1,10,0:2:0:0:
423,255,24206,1,2,3:2:0:0:
416,159,24424,1,2,3:2:0:0:
320,166,24641,1,2,0:2:0:0:
224,173,24859,1,10,0:2:0:0:
231,269,25076,1,2,0:2:0:0:
327,262,25293,2,2,P|333:214|332:170,1,80,2|0,3:2|0:2,0:2:0:0:
269,108,25728,5,10,0:2:0:0:
260,7,25945,1,2,0:2:0:0:
177,65,26162,5,6,3:2:0:0:
196,319,26597,1,6,3:2:0:0:
335,65,27032,5,6,3:2:0:0:
316,319,27467,1,6,3:2:0:0:
469,158,27902,6,0,P|482:114|478:74,1,80,6|2,3:2|0:2,0:0:0:0:
377,63,28336,2,0,P|364:107|368:147,1,80,10|2,0:2|0:2,0:0:0:0:
409,223,28771,1,2,3:2:0:0:
297,343,29206,6,0,P|313:305|350:269,1,80,10|2,0:2|0:2,0:0:0:0:
215,325,29641,2,0,P|218:283|242:238,1,80,2|2,3:2|0:2,0:0:0:0:
127,332,30075,2,0,P|117:291|126:240,1,80,10|2,0:2|0:2,0:0:0:0:
44,369,30510,1,2,3:2:0:0:
32,143,30945,6,0,P|75:139|117:152,1,80,10|2,0:2|3:2,0:0:0:0:
180,208,31380,2,0,P|223:212|265:199,1,80,2|2,3:2|0:2,0:0:0:0:
335,152,31815,2,0,P|374:147|413:157,1,80,10|2,0:2|0:2,0:0:0:0:
488,200,32249,1,2,3:2:0:0:
460,14,32684,6,0,P|468:59|464:104,1,80,10|2,0:2|0:2,0:0:0:0:
368,100,33119,2,0,P|369:60|361:20,1,80,2|2,3:2|0:2,0:0:0:0:
268,26,33554,2,0,P|275:65|274:105,1,80,10|2,0:2|0:2,0:0:0:0:
176,69,33989,1,2,3:2:0:0:
25,25,34423,6,0,P|73:5|118:9,1,80,10|2,0:2|0:2,0:0:0:0:
174,76,34858,2,0,P|167:127|141:164,1,80,6|2,3:2|0:2,0:0:0:0:
53,177,35293,2,0,P|20:155|-1:122,1,80,10|2,0:2|0:2,0:0:0:0:
88,92,35728,1,2,3:2:0:0:
194,232,36162,6,0,P|222:277|232:313,1,80,10|2,0:2|0:2,0:0:0:0:
299,208,36597,2,0,P|312:259|310:297,1,80,2|2,3:2|0:2,0:0:0:0:
404,226,37032,2,0,P|400:279|387:314,1,80,10|2,0:2|0:2,0:0:0:0:
464,358,37467,1,2,3:2:0:0:
441,135,37902,6,0,L|433:53,1,80,10|2,0:2|3:2,0:0:0:0:
340,106,38336,2,0,L|258:114,1,80,2|2,3:2|0:2,0:0:0:0:
316,209,38771,2,0,L|324:290,1,80,10|2,0:2|0:2,0:0:0:0:
417,237,39206,1,2,3:2:0:0:
470,160,39641,6,0,P|431:167|392:160,1,80,10|2,0:2|0:2,0:0:0:0:
311,99,40075,2,0,P|303:60|310:21,1,80,2|2,3:2|0:2,0:0:0:0:
212,20,40510,2,0,P|219:58|212:97,1,80,10|2,0:2|0:2,0:0:0:0:
144,158,40945,2,0,P|105:165|31:80,1,160,4|6,3:2|3:2,3:2:0:0:
212,97,41815,5,6,3:2:0:0:
303,138,42032,1,2,0:2:0:0:
211,182,42249,1,14,3:2:0:0:
302,223,42466,1,2,0:2:0:0:
212,261,42684,2,2,P|233:289|247:340,1,80,6|0,3:2|0:2,0:2:0:0:
111,365,43119,5,14,3:2:0:0:
53,278,43336,1,2,0:2:0:0:
84,179,43554,1,6,3:2:0:0:
181,142,43771,1,2,0:2:0:0:
271,194,43989,1,14,3:2:0:0:
285,297,44206,1,2,0:2:0:0:
214,373,44423,2,2,P|185:336|168:291,1,80,6|0,3:2|0:2,0:2:0:0:
285,297,44858,5,14,3:2:0:0:
384,282,45075,1,2,3:2:0:0:
370,179,45293,1,6,3:2:0:0:
271,194,45510,1,2,0:2:0:0:
254,93,45728,1,14,3:2:0:0:
361,79,45945,1,2,0:2:0:0:
296,0,46162,2,0,P|257:-7|217:-7,1,80,6|0,3:2|0:0,0:0:0:0:
110,18,46597,6,0,P|120:56|128:98,1,80,14|0,3:2|0:2,0:0:0:0:
19,121,47032,2,0,P|9:83|1:41,1,80,6|2,3:2|0:2,0:0:0:0:
110,18,47467,2,0,P|120:56|128:98,1,80,14|2,3:2|0:2,0:0:0:0:
84,186,47902,1,6,3:2:0:0:
314,124,48336,5,14,3:2:0:0:
347,366,48771,5,6,3:2:0:0:
302,267,48989,1,2,0:2:0:0:
257,368,49206,1,14,3:2:0:0:
212,269,49424,1,2,0:2:0:0:
168,365,49641,2,2,P|142:369|83:356,1,80,6|0,3:2|0:2,0:2:0:0:
95,237,50075,5,14,3:2:0:0:
115,143,50293,1,2,0:2:0:0:
196,91,50510,1,6,3:2:0:0:
290,112,50728,1,2,0:2:0:0:
342,193,50945,1,14,3:2:0:0:
321,287,51162,1,2,0:2:0:0:
240,338,51380,2,2,P|198:330|149:305,1,80,6|0,3:2|0:2,0:2:0:0:
84,231,51815,5,14,3:2:0:0:
69,123,52032,1,2,0:2:0:0:
172,104,52249,1,6,3:2:0:0:
187,212,52466,1,2,0:2:0:0:
295,196,52684,1,14,3:2:0:0:
310,304,52901,1,0,0:2:0:0:
401,235,53119,2,2,P|446:229|488:234,1,80,6|0,3:2|0:2,0:2:0:0:
493,345,53554,2,0,B|448:351|406:346,1,80,14|2,3:2|0:2,0:0:0:0:
319,296,53989,1,2,3:2:0:0:
255,192,54858,5,6,3:2:0:0:
255,192,55293,5,4,3:2:0:0:
255,192,55728,5,14,3:2:0:0:
