osu file format v14

[General]
AudioFilename: audio.mp3
AudioLeadIn: 0
PreviewTime: 49237
Countdown: 0
SampleSet: Normal
StackLeniency: 0.7
Mode: 0
LetterboxInBreaks: 0
WidescreenStoryboard: 0

[Editor]
Bookmarks: 74591,86978,186849
DistanceSpacing: 0.7
BeatDivisor: 4
GridSize: 8
TimelineZoom: 1.8

[Metadata]
Title:Tokyo Dream (Kotori Remix)
TitleUnicode:Tokyo Dream (Kotori Remix)
Artist:dextrust & Kabuki feat. Zeru
ArtistUnicode:dextrust & Kabuki feat. Zeru
Creator:Seox
Version:Insane
Source:
Tags:dextrust & Kabuki feat. Zeru Tokyo Dream Kotori Remix [JERSEYTENSAIEDIT] Trap club
BeatmapID:1597650
BeatmapSetID:759593

[Difficulty]
HPDrainRate:6
CircleSize:4
OverallDifficulty:7.4
ApproachRate:9
SliderMultiplier:1.7
SliderTickRate:1

[Events]
//Background and Video events
0,0,"bg.png",0,0
//Break Periods
2,74791,86303
//Storyboard Layer 0 (Background)
//Storyboard Layer 1 (Fail)
//Storyboard Layer 2 (Pass)
//Storyboard Layer 3 (Foreground)
//Storyboard Sound Samples

[TimingPoints]
269,387.096774193548,4,1,0,100,1,0
11881,-100,4,1,0,100,0,0
12656,-100,4,1,0,50,0,0
25043,-100,4,1,0,50,0,0
48268,-83.3333333333333,4,1,0,50,0,0
49817,-66.6666666666667,4,1,0,50,0,1
50204,-133.333333333333,4,1,0,50,0,0
50591,-66.6666666666667,4,1,0,50,0,1
53301,-133.333333333333,4,1,0,50,0,0
53688,-66.6666666666667,4,1,0,50,0,1
62591,-133.333333333333,4,1,0,50,0,0
62978,-66.6666666666667,4,1,0,50,0,1
65688,-133.333333333333,4,1,0,50,0,0
66075,-66.6666666666667,4,1,0,50,0,1
74591,-200,4,1,0,50,0,0
86978,-133.333333333333,4,1,0,50,0,0
99365,-100,4,1,0,50,0,0
136527,-71.4285714285714,4,1,0,50,0,1
148914,-66.6666666666667,4,1,0,50,0,0
149301,-133.333333333333,4,1,0,50,0,0
149688,-66.6666666666667,4,1,0,50,0,0
151236,-133.333333333333,4,1,0,50,0,0
152010,-66.6666666666667,4,1,0,50,0,1
164398,-133.333333333333,4,1,0,50,0,0
165172,-66.6666666666667,4,1,0,50,0,1
174075,-133.333333333333,4,1,0,50,0,1
174462,-66.6666666666667,4,1,0,50,0,1
186849,-133.333333333333,4,1,0,50,0,0

[HitObjects]
231,303,11881,6,0,B|177:290|177:290|59:306,1,170
314,352,12462,1,0,0:0:0:0:
332,336,12559,1,0,0:0:0:0:
348,319,12656,6,0,B|361:274|361:274|355:190,1,113.333333333333
268,163,13043,2,0,B|252:103|252:103|260:50,1,113.333333333333
451,90,13430,2,0,L|331:86,1,113.333333333333
159,153,13817,1,0,0:0:0:0:
268,163,13946,1,0,0:0:0:0:
212,66,14075,1,0,0:0:0:0:
88,71,14204,6,0,P|70:120|86:209,1,113.333333333333
142,253,14591,2,0,P|147:302|123:372,1,113.333333333333
233,355,14978,2,0,L|323:349,2,56.6666666666667
363,304,15365,2,0,L|434:333,2,56.6666666666667
490,355,15752,6,0,L|499:237,1,113.333333333333
379,113,16139,2,0,L|393:225,1,113.333333333333
252,110,16527,2,0,L|259:38,2,56.6666666666667
145,137,16914,2,0,L|156:222,2,56.6666666666667
88,252,17301,6,0,P|123:276|202:275,1,113.333333333333
339,291,17688,2,0,P|317:336|254:363,1,113.333333333333
390,211,18075,2,0,P|437:244|454:267,2,56.6666666666667
272,155,18462,1,0,0:0:0:0:
288,124,18591,1,0,0:0:0:0:
301,95,18720,1,0,0:0:0:0:
316,70,18849,6,0,P|365:96|448:102,1,113.333333333333
212,108,19236,2,0,P|151:105|86:77,1,113.333333333333
86,180,19623,2,0,L|90:247,2,56.6666666666667
172,350,20010,2,0,L|186:290,1,56.6666666666667
274,200,20268,1,0,0:0:0:0:
274,200,20398,6,0,P|299:244|286:331,1,113.333333333333
367,356,20785,2,0,P|398:324|478:316,1,113.333333333333
446,158,21172,2,0,L|394:202,1,56.6666666666667
326,83,21430,1,0,0:0:0:0:
326,83,21559,2,0,L|387:97,1,56.6666666666667
223,33,21817,1,0,0:0:0:0:
223,33,21946,6,0,L|105:44,1,113.333333333333
39,118,22333,2,0,L|153:124,1,113.333333333333
227,198,22720,2,0,L|124:208,1,95.0000036239625
50,268,23107,1,0,0:0:0:0:
130,310,23236,1,0,0:0:0:0:
228,293,23365,1,0,0:0:0:0:
314,282,23494,6,0,P|345:319|365:388,1,113.333333333333
385,156,23881,2,0,P|395:218|377:284,1,113.333333333333
475,66,24268,2,0,P|468:102|447:129,2,56.6666666666667
348,23,24656,2,0,P|371:44|388:76,2,56.6666666666667
197,107,25043,6,0,L|296:93,1,85
111,36,25430,1,0,0:0:0:0:
69,174,25623,1,0,0:0:0:0:
69,174,25720,1,0,0:0:0:0:
69,174,25817,2,0,L|64:232,1,42.5
121,348,26010,2,0,L|128:297,1,42.5
184,163,26204,1,0,0:0:0:0:
362,325,26398,1,0,0:0:0:0:
362,325,26494,1,0,0:0:0:0:
362,325,26591,6,0,P|380:268|381:216,1,85
399,126,26978,1,0,0:0:0:0:
290,64,27172,1,0,0:0:0:0:
290,64,27268,1,0,0:0:0:0:
290,64,27365,2,0,L|357:57,1,42.5
206,131,27559,2,0,L|149:126,1,42.5
29,96,27752,1,0,0:0:0:0:
105,52,27946,1,0,0:0:0:0:
105,52,28043,1,0,0:0:0:0:
105,52,28139,6,0,B|110:100|110:100|99:159,1,85
91,306,28527,1,0,0:0:0:0:
252,262,28720,1,0,0:0:0:0:
252,262,28817,1,0,0:0:0:0:
252,262,28914,2,0,L|193:256,1,42.5
348,349,29107,2,0,L|408:345,1,42.5
461,217,29301,2,0,L|446:311,1,85
378,172,29591,1,0,0:0:0:0:
376,144,29688,6,0,L|368:53,1,85
133,99,30075,1,0,0:0:0:0:
288,109,30268,1,0,0:0:0:0:
288,109,30365,1,0,0:0:0:0:
288,109,30462,2,0,L|228:111,1,42.5
80,63,30656,2,0,L|148:57,1,42.5
25,144,30849,1,0,0:0:0:0:
174,200,31043,1,0,0:0:0:0:
174,200,31139,1,0,0:0:0:0:
174,200,31236,6,0,P|106:225|64:224,1,85
70,319,31623,1,0,0:0:0:0:
211,318,31817,1,0,0:0:0:0:
242,305,31914,1,0,0:0:0:0:
274,312,32010,2,0,L|336:320,1,42.5
444,258,32204,2,0,L|379:266,1,42.5
256,191,32398,1,0,0:0:0:0:
410,131,32591,1,0,0:0:0:0:
410,131,32688,1,0,0:0:0:0:
410,131,32785,6,0,P|418:82|408:40,1,85
210,93,33172,1,0,0:0:0:0:
325,89,33365,1,0,0:0:0:0:
325,89,33462,1,0,0:0:0:0:
325,89,33559,2,0,L|270:86,1,42.5
121,151,33752,2,0,L|172:144,1,42.5
56,89,33946,2,0,P|37:147|47:203,1,85
101,233,34236,1,0,0:0:0:0:
108,260,34333,6,0,P|106:320|88:369,1,85
178,342,34720,2,0,P|229:332|279:338,1,85
342,347,35010,1,0,0:0:0:0:
342,347,35107,2,0,L|399:345,1,42.5
492,246,35301,2,0,L|423:240,1,42.5
309,200,35494,1,0,0:0:0:0:
397,116,35688,1,0,0:0:0:0:
397,116,35785,1,0,0:0:0:0:
397,116,35881,6,0,L|388:214,1,85
301,49,36268,1,0,0:0:0:0:
148,104,36462,1,0,0:0:0:0:
148,104,36559,1,0,0:0:0:0:
148,104,36656,1,0,0:0:0:0:
168,131,36752,1,0,0:0:0:0:
172,164,36849,1,0,0:0:0:0:
167,197,36946,1,0,0:0:0:0:
148,225,37043,1,0,0:0:0:0:
54,291,37236,1,0,0:0:0:0:
166,333,37430,6,0,L|254:331,1,85
435,256,37817,1,0,0:0:0:0:
271,213,38010,1,0,0:0:0:0:
271,213,38107,1,0,0:0:0:0:
271,213,38204,2,0,L|277:264,1,42.5
415,162,38398,2,0,L|423:104,1,42.5
308,38,38591,2,0,L|318:128,1,85
170,47,38978,6,0,L|183:145,2,85
68,131,39559,1,0,0:0:0:0:
79,163,39656,1,0,0:0:0:0:
88,195,39752,1,0,0:0:0:0:
98,227,39849,1,0,0:0:0:0:
86,259,39946,1,0,0:0:0:0:
68,288,40043,1,0,0:0:0:0:
50,316,40139,6,0,B|102:326|102:326|168:326,1,85
228,331,40430,1,0,0:0:0:0:
259,350,40527,2,0,P|323:352|360:346,1,85
445,260,40914,1,0,0:0:0:0:
263,179,41107,1,0,0:0:0:0:
263,179,41204,1,0,0:0:0:0:
263,179,41301,2,0,L|336:168,1,42.5
143,255,41494,2,0,L|89:249,1,42.5
106,68,41688,1,0,0:0:0:0:
173,149,41881,1,0,0:0:0:0:
191,51,42075,5,0,0:0:0:0:
73,150,42268,1,0,0:0:0:0:
173,149,42462,1,0,0:0:0:0:
83,46,42656,1,0,0:0:0:0:
125,215,42849,1,0,0:0:0:0:
157,78,43043,1,0,0:0:0:0:
39,202,43236,1,0,0:0:0:0:
214,223,43430,1,0,0:0:0:0:
132,177,43623,6,0,P|119:235|120:292,1,85
191,356,44010,1,0,0:0:0:0:
330,305,44204,1,0,0:0:0:0:
330,305,44301,1,0,0:0:0:0:
330,305,44398,2,0,L|261:297,1,42.5
448,251,44591,2,0,L|504:258,1,42.5
354,120,44785,2,0,L|335:231,1,85
455,117,45172,6,0,L|448:18,1,85
233,75,45559,1,0,0:0:0:0:
350,88,45752,1,0,0:0:0:0:
350,88,45849,1,0,0:0:0:0:
350,88,45946,2,0,L|301:96,1,42.5
145,131,46139,2,0,L|190:142,1,42.5
336,246,46333,2,0,L|239:258,1,85
94,319,46720,6,0,B|119:284|119:284|123:213,1,85
47,82,47107,2,0,B|82:108|82:108|140:108,1,85
270,101,47494,1,0,0:0:0:0:
377,132,47688,1,0,0:0:0:0:
447,208,47881,1,0,0:0:0:0:
232,120,48075,1,0,0:0:0:0:
445,62,48268,6,0,B|401:135|485:142|440:220,1,152.999995330811
380,298,48656,2,0,P|338:236|393:166,1,152.999995330811
386,173,49430,1,0,0:0:0:0:
386,173,49817,6,0,B|305:168|305:168|249:177,1,127.500004863739
113,232,50204,2,0,L|57:230,3,31.8750012159348
169,298,50591,2,0,P|199:242|184:172,1,127.500004863739
154,153,50881,2,0,P|137:98|165:12,1,127.500004863739
195,39,51172,2,0,L|271:44,1,63.7500024318696
388,120,51365,6,0,L|225:138,1,127.500004863739
461,207,51752,2,0,P|491:158|468:69,1,127.500004863739
289,229,52139,1,0,0:0:0:0:
289,229,52914,6,0,B|352:246|352:246|418:231,1,127.500004863739
380,42,53301,1,0,0:0:0:0:
379,64,53398,1,0,0:0:0:0:
378,86,53494,1,0,0:0:0:0:
377,108,53591,1,0,0:0:0:0:
356,133,53688,2,0,L|220:130,1,127.500004863739
96,220,53978,2,0,P|174:225|223:200,1,127.500004863739
130,66,54268,2,0,P|121:100|132:159,1,63.7500024318696
291,207,54462,6,0,L|283:336,1,127.500004863739
62,291,54849,2,0,P|119:273|192:295,1,127.500004863739
350,340,55236,2,0,L|483:342,1,127.500004863739
445,128,55623,2,0,P|427:197|450:265,1,127.500004863739
250,100,56010,6,0,P|331:104|378:77,1,127.500004863739
240,8,56398,1,0,0:0:0:0:
240,8,56591,1,0,0:0:0:0:
95,78,56785,6,0,L|108:218,1,127.500004863739
185,275,57075,2,0,L|199:140,1,127.500004863739
175,58,57365,1,0,0:0:0:0:
55,144,57559,1,0,0:0:0:0:
55,144,57656,1,0,0:0:0:0:
55,144,57752,1,0,0:0:0:0:
198,148,57946,6,0,B|257:124|257:181|322:146,1,127.500004863739
388,70,58333,2,0,P|407:124|397:204,1,127.500004863739
305,237,58623,2,0,P|310:305|341:368,1,127.500004863739
468,284,58914,2,0,L|392:286,1,63.7500024318696
181,248,59107,6,0,P|253:254|318:228,1,127.500004863739
106,81,59494,2,0,P|99:152|119:215,1,127.500004863739
305,146,59881,2,0,P|306:78|294:9,1,127.500004863739
195,157,60172,1,0,0:0:0:0:
191,177,60268,2,0,P|187:253|192:310,1,127.500004863739
298,330,60656,6,0,B|366:322|366:322|441:335,1,127.500004863739
497,203,61043,2,0,B|429:211|429:211|354:198,1,127.500004863739
282,61,61430,2,0,B|324:156|251:165|295:248,1,191.250007295609
314,258,61817,1,0,0:0:0:0:
318,259,62204,6,0,P|241:252|190:261,1,127.500004863739
75,335,62591,2,0,L|19:331,3,31.8750012159348
203,342,62978,2,0,B|300:330|300:330|253:315,1,127.500004863739
120,253,63268,2,0,B|23:241|23:241|70:226,1,127.500004863739
232,166,63559,2,0,L|227:240,1,63.7500024318696
131,137,63752,6,0,B|114:39|114:39|144:65,1,127.500004863739
233,165,64139,2,0,P|317:175|379:164,1,127.500004863739
430,89,64527,1,0,0:0:0:0:
430,89,65301,6,0,B|406:166|461:166|426:240,1,127.500004863739
339,345,65688,1,0,0:0:0:0:
341,322,65785,1,0,0:0:0:0:
342,299,65881,1,0,0:0:0:0:
343,276,65978,1,0,0:0:0:0:
341,253,66075,6,0,B|448:251|448:251|415:239,1,127.500004863739
232,184,66365,2,0,P|223:247|242:321,1,127.500004863739
361,135,66656,2,0,L|365:58,1,63.7500024318696
240,58,66849,6,0,P|190:51|109:65,1,127.500004863739
50,265,67236,2,0,P|106:247|154:190,1,127.500004863739
129,337,67623,2,0,B|205:326|205:326|282:338,1,127.500004863739
412,342,68010,2,0,P|363:300|370:218,1,127.500004863739
447,124,68398,6,0,B|418:186|479:204|434:263,1,127.500004863739
265,237,68785,1,0,0:0:0:0:
364,250,68978,1,0,0:0:0:0:
207,309,69172,6,0,P|177:244|202:172,1,127.500004863739
295,126,69462,2,0,P|300:195|253:242,1,127.500004863739
223,73,69752,2,0,P|256:53|307:51,1,63.7500024318696
454,86,69946,5,0,0:0:0:0:
416,104,70043,1,0,0:0:0:0:
373,113,70139,1,0,0:0:0:0:
139,216,70333,2,0,P|211:234|291:233,1,127.500004863739
426,307,70720,2,0,P|368:334|284:334,1,127.500004863739
214,315,71010,2,0,P|285:315|357:292,1,127.500004863739
151,244,71301,2,0,P|130:303|134:337,1,63.7500024318696
263,235,71494,6,0,B|279:170|279:170|274:104,1,127.500004863739
131,81,71881,2,0,B|204:96|204:96|279:84,1,127.500004863739
466,118,72268,2,0,P|390:131|341:111,1,127.500004863739
403,42,72559,1,0,0:0:0:0:
403,42,72656,2,0,L|401:192,1,127.500004863739
359,316,73043,6,0,P|288:297|211:315,1,127.500004863739
83,339,73430,2,0,P|125:294|128:221,1,127.500004863739
39,64,73817,2,0,P|39:113|82:182,1,127.500004863739
279,243,74204,1,0,0:0:0:0:
305,65,74398,1,0,0:0:0:0:
123,101,74591,1,0,0:0:0:0:
376,196,86978,6,0,P|366:250|372:299,1,85.0000032424928
441,325,87365,2,0,P|401:351|338:351,1,85.0000032424928
275,328,87752,2,0,B|223:322|223:322|169:332,1,85.0000032424928
87,336,88139,2,0,B|105:296|105:296|101:250,1,85.0000032424928
44,113,88527,6,0,L|35:202,1,85.0000032424928
154,120,88914,2,0,L|152:18,1,85.0000032424928
248,130,89301,2,0,L|245:189,2,42.5000016212464
312,62,89688,2,0,B|354:56|354:56|408:62,1,85.0000032424928
482,142,90075,6,0,L|385:143,1,85.0000032424928
323,242,90462,2,0,L|415:240,1,85.0000032424928
296,321,90849,2,0,L|238:318,2,42.5000016212464
182,366,91236,2,0,P|168:323|175:268,1,85.0000032424928
68,177,91623,6,0,P|115:189|147:189,1,63.7500024318696
188,78,92010,2,0,P|205:109|228:130,1,63.7500024318696
364,134,92398,2,0,P|348:166|341:205,1,63.7500024318696
444,338,92785,2,0,B|458:292|458:292|456:227,1,95.6250036478044
364,197,93172,6,0,P|356:149|356:92,1,85.0000032424928
437,26,93559,2,0,P|443:75|439:131,1,85.0000032424928
230,112,93946,2,0,L|285:110,2,42.5000016212464
181,178,94333,2,0,P|149:131|148:83,1,85.0000032424928
90,197,94720,6,0,P|93:247|79:298,1,85.0000032424928
145,348,95107,2,0,P|188:337|245:337,1,85.0000032424928
366,344,95494,2,0,L|311:342,2,42.5000016212464
452,358,95881,2,0,P|466:317|460:258,1,85.0000032424928
371,145,96268,6,0,P|367:198|379:262,1,85.0000032424928
469,122,96656,2,0,P|473:75|461:20,1,85.0000032424928
326,59,97043,2,0,L|374:60,2,42.5000016212464
257,110,97430,2,0,L|166:104,1,85.0000032424928
77,135,97817,5,0,0:0:0:0:
174,175,98010,1,0,0:0:0:0:
72,240,98204,1,0,0:0:0:0:
188,280,98398,1,0,0:0:0:0:
76,349,98591,1,0,0:0:0:0:
275,335,98785,1,0,0:0:0:0:
131,264,98978,1,0,0:0:0:0:
131,264,99365,6,0,L|123:368,1,85
317,267,99752,1,0,0:0:0:0:
207,203,99946,1,0,0:0:0:0:
207,203,100043,1,0,0:0:0:0:
207,203,100139,2,0,L|202:272,1,42.5
323,178,100333,2,0,L|328:122,1,42.5
209,43,100527,2,0,P|233:96|265:117,1,85
485,120,100914,6,0,P|429:119|400:134,1,85
390,344,101301,2,0,P|413:306|414:258,1,85
387,236,101591,1,0,0:0:0:0:
364,216,101688,1,0,0:0:0:0:
336,205,101785,1,0,0:0:0:0:
306,207,101881,1,0,0:0:0:0:
181,296,102075,2,0,P|238:305|288:290,1,85
246,71,102462,5,0,0:0:0:0:
215,218,102656,1,0,0:0:0:0:
121,104,102849,1,0,0:0:0:0:
322,189,103043,1,0,0:0:0:0:
322,189,103139,1,0,0:0:0:0:
322,189,103236,2,0,L|239:187,1,42.5
166,266,103430,2,0,L|213:262,1,42.5
366,273,103623,2,0,P|372:340|363:384,1,85
459,235,104010,6,0,B|468:186|468:186|457:116,1,85
357,69,104398,1,0,0:0:0:0:
242,108,104591,1,0,0:0:0:0:
212,111,104688,1,0,0:0:0:0:
183,101,104785,1,0,0:0:0:0:
157,85,104881,1,0,0:0:0:0:
134,65,104978,1,0,0:0:0:0:
52,154,105172,1,0,0:0:0:0:
145,233,105365,1,0,0:0:0:0:
64,336,105559,6,0,P|128:323|231:350,1,170
499,292,106139,2,0,P|449:327|340:338,1,170
358,128,106720,1,0,0:0:0:0:
400,242,106914,1,0,0:0:0:0:
325,82,107107,6,0,L|322:182,2,85
227,141,107688,2,0,P|230:222|321:273,1,170
449,305,108268,2,0,P|406:321|371:351,1,85
156,324,108656,5,0,0:0:0:0:
296,271,108849,1,0,0:0:0:0:
113,223,109043,1,0,0:0:0:0:
304,344,109236,1,0,0:0:0:0:
312,315,109333,1,0,0:0:0:0:
314,285,109430,1,0,0:0:0:0:
312,255,109527,1,0,0:0:0:0:
306,226,109623,1,0,0:0:0:0:
246,112,109817,1,0,0:0:0:0:
246,112,110010,1,0,0:0:0:0:
335,109,110204,6,0,B|393:106|415:59|415:59|454:77|465:131,1,170
221,198,110785,2,0,P|180:160|192:43,1,170
256,107,111365,1,0,0:0:0:0:
87,172,111559,1,0,0:0:0:0:
277,280,111752,6,0,L|368:266,1,85
155,348,112139,1,0,0:0:0:0:
110,225,112333,1,0,0:0:0:0:
110,225,112430,1,0,0:0:0:0:
110,225,112527,2,0,L|103:164,1,42.5
214,69,112720,2,0,L|210:127,1,42.5
240,267,112914,2,0,P|273:231|334:225,1,85
397,255,113204,1,0,0:0:0:0:
430,272,113301,6,0,P|443:326|434:376,1,85
219,259,113688,1,0,0:0:0:0:
329,137,113881,1,0,0:0:0:0:
329,137,113978,1,0,0:0:0:0:
329,137,114075,2,0,L|329:209,1,42.5
471,98,114268,2,0,L|477:46,1,42.5
260,56,114462,1,0,0:0:0:0:
388,71,114656,1,0,0:0:0:0:
388,71,114752,1,0,0:0:0:0:
388,71,114849,6,0,L|384:188,1,85
143,142,115236,1,0,0:0:0:0:
234,210,115430,1,0,0:0:0:0:
248,235,115527,1,0,0:0:0:0:
254,263,115623,1,0,0:0:0:0:
249,292,115720,1,0,0:0:0:0:
236,319,115817,1,0,0:0:0:0:
155,338,116010,2,0,P|205:318|256:323,1,85
323,348,116301,1,0,0:0:0:0:
349,352,116398,6,0,P|419:359|450:357,1,85
512,229,116785,2,0,P|432:238|405:231,1,85
403,220,117075,1,0,0:0:0:0:
378,202,117172,1,0,0:0:0:0:
358,179,117268,1,0,0:0:0:0:
348,150,117365,1,0,0:0:0:0:
381,43,117559,1,0,0:0:0:0:
463,111,117752,1,0,0:0:0:0:
291,76,117946,6,0,P|243:67|119:87,1,170
293,202,118527,2,0,P|269:146|158:81,1,170
272,273,119107,2,0,P|308:229|310:184,1,85
94,202,119494,6,0,P|99:310|145:372,1,170
194,163,120075,2,0,P|137:222|133:320,1,170
295,204,120656,2,0,P|245:201|194:217,1,85
362,350,121043,5,0,0:0:0:0:
486,231,121236,1,0,0:0:0:0:
258,137,121430,1,0,0:0:0:0:
363,246,121623,2,0,B|407:166|343:158|368:61,1,170
504,68,122204,2,0,P|484:92|427:104,1,85
146,64,122591,5,0,0:0:0:0:
292,100,122785,1,0,0:0:0:0:
90,178,122978,1,0,0:0:0:0:
266,113,123172,1,0,0:0:0:0:
183,306,123365,1,0,0:0:0:0:
241,151,123559,1,0,0:0:0:0:
310,331,123752,1,0,0:0:0:0:
267,180,123946,1,0,0:0:0:0:
361,223,124139,6,0,P|420:212|448:194,1,85
323,84,124527,1,0,0:0:0:0:
267,180,124720,1,0,0:0:0:0:
267,180,124817,1,0,0:0:0:0:
267,180,124914,2,0,L|207:180,1,42.5
100,264,125107,2,0,L|164:266,1,42.5
313,289,125301,2,0,L|299:385,1,85
186,222,125688,6,0,P|180:174|188:117,1,85
264,33,126075,1,0,0:0:0:0:
381,118,126268,1,0,0:0:0:0:
381,118,126365,1,0,0:0:0:0:
381,118,126462,2,0,L|443:113,1,42.5
501,214,126656,2,0,L|442:207,1,42.5
331,289,126849,2,0,B|380:282|380:282|438:299,1,85
226,360,127236,6,0,P|205:312|212:260,1,85
274,177,127623,1,0,0:0:0:0:
197,82,127817,1,0,0:0:0:0:
168,73,127914,1,0,0:0:0:0:
137,76,128010,1,0,0:0:0:0:
108,86,128107,1,0,0:0:0:0:
90,109,128204,1,0,0:0:0:0:
50,273,128398,1,0,0:0:0:0:
175,189,128591,1,0,0:0:0:0:
43,173,128785,6,0,P|98:160|141:164,1,85
252,274,129172,2,0,P|207:268|145:278,1,85
351,355,129559,2,0,P|380:314|378:263,1,85
266,128,129946,2,0,P|298:169|347:187,1,85
505,111,130333,6,0,B|468:93|468:93|322:110,1,170
214,72,130914,1,0,0:0:0:0:
214,72,131010,1,0,0:0:0:0:
214,72,131107,2,0,L|209:131,1,42.5
115,226,131301,2,0,L|106:166,1,42.5
264,242,131494,2,0,L|246:351,1,85
356,130,131881,6,0,P|369:176|357:222,1,85
262,241,132268,1,0,0:0:0:0:
146,206,132462,1,0,0:0:0:0:
125,227,132559,1,0,0:0:0:0:
116,255,132656,1,0,0:0:0:0:
117,284,132752,1,0,0:0:0:0:
127,311,132849,1,0,0:0:0:0:
209,345,133043,2,0,L|268:351,1,42.5
438,317,133236,2,0,L|372:304,1,42.5
228,146,133430,6,0,L|245:231,1,85
439,102,133817,2,0,L|426:193,1,85
212,75,134204,2,0,L|228:166,2,85
90,133,134785,1,0,0:0:0:0:
155,246,134978,1,0,0:0:0:0:
256,192,135075,12,0,136139,0:0:0:0:
374,122,136527,6,0,B|366:197|366:197|371:224|371:224|361:308,1,178.499994552612
241,337,136914,2,0,L|109:333,1,118.999996368408
103,159,137301,1,0,0:0:0:0:
166,249,137494,1,0,0:0:0:0:
201,97,137688,1,0,0:0:0:0:
171,218,137881,1,0,0:0:0:0:
120,52,138075,6,0,P|184:12|278:41,1,178.499994552612
315,123,138462,2,0,P|366:133|455:119,1,118.999996368408
392,46,138849,1,0,0:0:0:0:
343,252,139043,1,0,0:0:0:0:
321,146,139236,1,0,0:0:0:0:
444,310,139430,1,0,0:0:0:0:
454,194,139623,6,0,B|446:269|446:269|451:296|451:296|441:380,1,178.499994552612
301,309,140010,2,0,P|367:299|419:325,1,118.999996368408
272,174,140398,1,0,0:0:0:0:
214,288,140591,1,0,0:0:0:0:
162,121,140785,1,0,0:0:0:0:
308,177,140978,1,0,0:0:0:0:
103,202,141172,6,0,L|30:201,1,59.4999981842042
252,300,141365,2,0,L|315:295,1,59.4999981842042
174,128,141559,2,0,L|163:338,1,178.499994552612
245,337,141946,2,0,B|308:324|308:324|370:341,1,118.999996368408
495,289,142333,1,0,0:0:0:0:
269,218,142527,1,0,0:0:0:0:
477,144,142720,6,0,P|489:210|445:309,1,178.499994552612
269,218,143107,2,0,P|297:163|358:141,1,118.999996368408
289,329,143494,1,0,0:0:0:0:
126,211,143688,1,0,0:0:0:0:
270,294,143881,1,0,0:0:0:0:
238,115,144075,1,0,0:0:0:0:
114,321,144268,6,0,B|91:247|91:247|94:208|94:208|78:144,1,178.499994552612
114,51,144656,2,0,B|175:38|175:38|240:57,1,118.999996368408
322,156,145043,1,0,0:0:0:0:
402,89,145236,1,0,0:0:0:0:
218,143,145430,1,0,0:0:0:0:
376,254,145623,1,0,0:0:0:0:
318,155,145817,6,0,P|291:216|381:250,1,178.499994552612
451,277,146204,2,0,P|415:321|340:332,1,118.999996368408
135,264,146591,2,0,P|171:308|246:319,1,118.999996368408
271,81,146978,1,0,0:0:0:0:
228,235,147172,1,0,0:0:0:0:
376,254,147365,6,0,B|385:181|385:181|382:152|382:152|392:71,1,178.499994552612
479,74,147752,2,0,L|468:196,1,118.999996368408
293,131,148139,2,0,P|259:124|223:124,1,59.4999981842042
89,197,148333,2,0,P|121:189|168:195,1,59.4999981842042
272,254,148527,2,0,L|193:251,1,59.4999981842042
78,331,148720,1,0,0:0:0:0:
78,331,148817,1,0,0:0:0:0:
78,331,148914,6,0,B|168:314|168:314|286:338,1,191.250007295609
303,340,149301,1,0,0:0:0:0:
441,257,149688,2,0,B|450:164|450:164|446:144|446:144|455:47,2,191.250007295609
172,178,150462,5,0,0:0:0:0:
325,155,150656,1,0,0:0:0:0:
322,199,150752,1,0,0:0:0:0:
318,243,150849,1,0,0:0:0:0:
312,287,150946,1,0,0:0:0:0:
306,331,151043,1,0,0:0:0:0:
172,178,152010,6,0,P|176:252|146:296,1,127.500004863739
71,106,152398,2,0,P|122:73|187:71,1,127.500004863739
327,183,152785,2,0,L|187:182,1,127.500004863739
334,74,153075,1,0,0:0:0:0:
374,94,153172,2,0,P|407:128|423:174,1,63.7500024318696
419,283,153365,2,0,P|402:310|379:332,1,63.7500024318696
194,324,153559,6,0,B|240:347|240:347|391:330,1,191.250007295609
155,244,153946,2,0,P|108:315|114:369,1,127.500004863739
254,239,154333,2,0,P|277:178|241:62,1,191.250007295609
170,121,154720,2,0,P|226:135|310:122,1,127.500004863739
435,76,155107,6,0,L|417:211,1,127.500004863739
445,109,155494,2,0,L|451:245,1,127.500004863739
466,142,155881,2,0,L|486:282,1,127.500004863739
447,296,156172,1,0,0:0:0:0:
415,320,156268,2,0,P|333:315|255:324,1,127.500004863739
94,260,156656,5,0,0:0:0:0:
232,226,156849,1,0,0:0:0:0:
259,190,156946,1,0,0:0:0:0:
264,145,157043,1,0,0:0:0:0:
257,101,157139,1,0,0:0:0:0:
235,61,157236,1,0,0:0:0:0:
133,87,157430,2,0,P|203:107|309:74,1,127.500004863739
316,48,157720,1,0,0:0:0:0:
360,50,157817,1,0,0:0:0:0:
396,75,157914,1,0,0:0:0:0:
416,114,158010,1,0,0:0:0:0:
442,195,158204,6,0,B|435:255|435:255|438:286|438:286|430:335,1,127.500004863739
223,302,158591,2,0,B|273:307|273:307|300:302|300:302|351:307,1,127.500004863739
189,186,158978,1,0,0:0:0:0:
124,348,159172,1,0,0:0:0:0:
124,348,159268,1,0,0:0:0:0:
124,348,159365,2,0,L|117:279,1,63.7500024318696
225,182,159559,2,0,L|214:260,1,63.7500024318696
106,160,159752,6,0,B|92:92|92:92|112:12,1,127.500004863739
299,97,160139,2,0,B|244:98|244:98|217:90|217:90|163:90,1,127.500004863739
354,28,160527,1,0,0:0:0:0:
453,176,160720,1,0,0:0:0:0:
285,168,160914,1,0,0:0:0:0:
488,199,161107,1,0,0:0:0:0:
375,122,161301,5,0,0:0:0:0:
350,211,161494,1,0,0:0:0:0:
384,300,161688,1,0,0:0:0:0:
479,337,161881,1,0,0:0:0:0:
375,122,162075,2,0,P|353:231|390:307,1,191.250007295609
457,208,162462,1,0,0:0:0:0:
465,164,162559,1,0,0:0:0:0:
467,119,162656,1,0,0:0:0:0:
460,75,162752,1,0,0:0:0:0:
445,42,162849,6,0,B|374:37|374:37|309:43,1,127.500004863739
250,94,163139,2,0,L|391:96,1,127.500004863739
177,55,163430,2,0,P|171:102|191:144,1,63.7500024318696
282,214,163623,2,0,P|284:283|262:357,1,127.500004863739
45,259,164010,2,0,P|97:253|190:257,1,127.500004863739
385,293,164398,1,0,0:0:0:0:
385,293,164785,1,0,0:0:0:0:
385,293,165172,6,0,P|434:306|471:372,1,127.500004863739
401,97,165559,1,0,0:0:0:0:
394,141,165656,1,0,0:0:0:0:
364,174,165752,1,0,0:0:0:0:
322,190,165849,1,0,0:0:0:0:
277,184,165946,6,0,P|223:154|199:92,1,127.500004863739
230,77,166236,2,0,P|215:149|157:195,1,127.500004863739
50,263,166527,2,0,P|95:255|150:266,1,63.7500024318696
265,315,166720,2,0,B|230:330|230:330|131:325,1,127.500004863739
322,227,167107,2,0,P|359:278|354:358,1,127.500004863739
446,206,167494,6,0,P|425:133|443:65,1,127.500004863739
504,41,167881,2,0,P|457:85|352:75,1,127.500004863739
203,48,168268,2,0,B|190:117|190:117|217:192,1,127.500004863739
174,291,168656,1,0,0:0:0:0:
174,291,169043,6,0,L|301:278,1,127.500004863739
419,340,169333,2,0,L|283:328,1,127.500004863739
448,160,169623,2,0,P|472:227|460:293,1,127.500004863739
374,230,169914,1,0,0:0:0:0:
374,230,170010,1,0,0:0:0:0:
174,291,170204,2,0,P|249:276|316:287,1,127.500004863739
406,118,170591,6,0,P|335:124|274:109,1,127.500004863739
205,70,170881,2,0,P|139:66|66:88,1,127.500004863739
132,205,171172,2,0,L|146:124,1,63.7500024318696
48,206,171365,2,0,P|67:270|144:308,1,127.500004863739
235,347,171752,2,0,L|85:359,1,127.500004863739
359,248,172139,6,0,L|370:379,1,127.500004863739
256,224,172430,1,0,0:0:0:0:
253,191,172527,2,0,L|253:117,1,63.7500024318696
452,52,172720,2,0,L|446:132,1,63.7500024318696
343,260,172914,2,0,B|340:178|340:178|346:146|346:146|345:66,1,191.250007295609
142,98,173301,2,0,P|195:114|281:99,1,127.500004863739
205,30,173688,6,0,B|208:210|208:210|139:167,1,255.000009727478
147,169,174462,2,0,B|212:160|212:160|310:169,1,127.500004863739
448,238,174849,1,0,0:0:0:0:
411,263,174946,1,0,0:0:0:0:
366,266,175043,1,0,0:0:0:0:
325,247,175139,1,0,0:0:0:0:
298,212,175236,6,0,P|285:142|313:78,1,127.500004863739
383,126,175527,2,0,L|238:118,1,127.500004863739
149,200,175817,2,0,L|226:189,1,63.7500024318696
88,136,176010,2,0,P|64:198|94:276,1,127.500004863739
174,319,176398,2,0,B|102:336|102:336|23:323,1,127.500004863739
274,248,176785,5,0,0:0:0:0:
274,248,177559,2,0,B|284:310|284:310|297:335|297:335|305:384,1,127.500004863739
393,261,177946,1,0,0:0:0:0:
400,216,178043,1,0,0:0:0:0:
407,172,178139,1,0,0:0:0:0:
410,127,178236,1,0,0:0:0:0:
418,87,178333,6,0,L|488:83,1,63.7500024318696
304,151,178527,1,0,0:0:0:0:
304,151,178623,2,0,P|286:97|310:32,1,127.500004863739
334,59,178914,2,0,L|214:78,1,63.7500024318696
141,146,179107,2,0,P|217:163|265:154,1,127.500004863739
81,71,179494,2,0,P|55:152|70:221,1,127.500004863739
166,354,179881,6,0,B|175:296|175:296|173:267|173:267|183:211,1,127.500004863739
334,59,180268,2,0,B|325:117|325:117|327:146|327:146|317:202,1,127.500004863739
370,337,180656,2,0,P|398:296|415:357,1,127.500004863739
345,337,181043,1,0,0:0:0:0:
345,337,181430,6,0,L|472:331,1,127.500004863739
512,299,181720,2,0,L|370:285,1,127.500004863739
284,235,182010,2,0,L|294:375,1,127.500004863739
360,216,182301,1,0,0:0:0:0:
366,171,182398,1,0,0:0:0:0:
259,77,182591,2,0,P|303:89|394:70,1,127.500004863739
170,31,182978,6,0,P|157:102|166:182,1,127.500004863739
230,230,183268,2,0,P|176:240|74:209,1,127.500004863739
19,229,183559,2,0,L|91:252,1,63.7500024318696
243,312,183752,2,0,L|107:326,1,127.500004863739
320,236,184139,2,0,P|344:304|324:382,1,127.500004863739
163,200,184527,5,0,0:0:0:0:
341,157,184720,1,0,0:0:0:0:
341,157,184817,1,0,0:0:0:0:
341,157,184914,1,0,0:0:0:0:
231,108,185107,1,0,0:0:0:0:
447,186,185301,1,0,0:0:0:0:
294,282,185494,1,0,0:0:0:0:
350,78,185688,2,0,P|339:143|354:233,1,127.500004863739
366,328,186075,6,0,P|304:313|221:328,1,127.500004863739
61,293,186462,1,0,0:0:0:0:
188,123,186656,1,0,0:0:0:0:
163,326,186849,1,0,0:0:0:0:
