osu file format v14

[General]
AudioFilename: audio.mp3
AudioLeadIn: 0
PreviewTime: -1
Countdown: 1
SampleSet: Normal
StackLeniency: 0.7
Mode: 0
LetterboxInBreaks: 0
WidescreenStoryboard: 0

[Editor]
DistanceSpacing: 0.3
BeatDivisor: 8
GridSize: 4
TimelineZoom: 1

[Metadata]
Title:despasito 2
TitleUnicode:despasito 2
Artist:despicato
ArtistUnicode:despicato
Creator:bite you death
Version:DESAPSTCO )CHALING MODE"!!(/ ULTRA HARDS Approach RAte 10
Source:
Tags:OSU!
BeatmapID:1631100
BeatmapSetID:776293

[Difficulty]
HPDrainRate:10
CircleSize:7
OverallDifficulty:10
ApproachRate:10
SliderMultiplier:3.1
SliderTickRate:1

[Events]
//Background and Video events
0,0,"727.jpg",0,0
//Break Periods
//Storyboard Layer 0 (Background)
//Storyboard Layer 1 (Fail)
//Storyboard Layer 2 (Pass)
//Storyboard Layer 3 (Foreground)
//Storyboard Sound Samples

[TimingPoints]
727,710.059171597633,4,1,0,100,1,0
37827,-50,4,1,0,100,0,0
56402,-50,4,1,0,5,0,1
60336,-50,4,3,0,100,0,0
63123,-50,4,1,0,100,0,0
64011,-50,4,3,0,100,0,0
64188,-50,4,1,0,100,0,0

[HitObjects]
240,188,727,5,12,0:0:0:0:
328,132,904,1,12,0:0:0:0:
312,204,1082,1,12,0:0:0:0:
240,120,1437,1,12,0:0:0:0:
240,132,1525,1,12,0:0:0:0:
240,132,1703,1,12,0:0:0:0:
312,120,2502,1,12,0:0:0:0:
160,148,5874,2,12,P|372:140|364:240,1,348.75
184,242,8537,2,12,B|207:265|207:265|242:242|242:242|241:160|241:160|272:235|376:206|372:246,1,310
300,176,9425,1,12,0:0:0:0:
364,104,9602,1,12,0:0:0:0:
200,116,9869,1,12,0:0:0:0:
248,92,10135,1,12,0:0:0:0:
152,136,11022,2,12,P|168:100|204:84,1,77.5
220,144,11288,2,12,B|252:152|252:152|272:92,1,77.5
236,116,11555,2,12,P|308:116|324:120,1,77.5
368,120,12531,1,12,0:0:0:0:
308,216,13064,1,12,0:0:0:0:
292,172,14040,1,12,0:0:0:0:
292,172,14306,1,12,0:0:0:0:
224,144,14750,1,12,0:0:0:0:
232,136,15016,2,12,P|240:80|352:64,1,155
184,224,15904,1,12,0:0:0:0:
56,192,16348,1,12,0:0:0:0:
160,164,16437,2,12,B|196:152|196:192|196:192|300:168,7,155
284,228,19011,2,12,P|320:292|240:352,1,155
192,268,19543,2,12,B|196:168|196:168|4:-8|480:-24|240:112|240:112|404:236|404:244,1,697.5
436,192,21318,2,12,B|432:84|344:76|344:76|232:160|232:160|272:200|272:200|132:244|252:344|428:320|352:52|360:56|84:144,1,930
32,200,23626,2,12,P|108:172|20:68,1,271.25
52,144,24336,1,12,0:0:0:0:
256,192,24425,12,12,26022,0:0:0:0:
248,192,26377,5,12,0:0:0:0:
244,184,26555,1,12,0:0:0:0:
220,104,26732,1,12,0:0:0:0:
148,96,26910,1,12,0:0:0:0:
128,164,27087,1,12,0:0:0:0:
168,180,27176,2,12,B|384:160|392:72|72:408,1,503.75
256,192,28419,12,12,28508,0:0:0:0:
256,192,28596,12,12,28685,0:0:0:0:
256,192,28685,12,12,30016,0:0:0:0:
256,192,30105,12,12,30283,0:0:0:0:
272,84,30549,6,12,B|300:172|168:224|432:80|436:84,1,232.5
168,144,31259,1,4,0:0:0:0:
196,56,31437,1,4,0:0:0:0:
200,68,31525,1,4,0:0:0:0:
152,100,31614,1,4,0:0:0:0:
144,96,31969,1,4,0:0:0:0:
352,232,32235,2,4,B|416:180|456:224|516:332|276:384|208:208,1,387.5
264,96,33212,1,4,0:0:0:0:
272,112,33300,2,4,P|284:152|292:188,1,77.5
137,244,33567,2,4,P|149:203|157:168,1,77.5
185,41,33922,1,4,0:0:0:0:
0,90,34099,2,4,B|65:55|114:105|114:105|163:157|239:124,1,232.5
205,61,34809,2,4,P|181:72|161:37,1,38.75
28,151,34987,2,4,P|52:140|72:175,1,38.75
137,244,35164,1,4,0:0:0:0:
126,355,35342,6,4,B|136:313|136:313|125:280|125:280|146:215,1,116.25
167,168,35786,1,4,0:0:0:0:
312,210,35963,2,4,B|266:246|266:246|180:216,1,116.25
128,104,36407,2,4,B|182:84|182:84|228:120,1,116.25
323,230,36762,1,4,0:0:0:0:
317,220,36851,1,4,0:0:0:0:
312,210,36940,2,4,P|307:189|305:162,1,38.75
356,115,37117,2,4,P|360:94|362:67,1,38.75
293,14,37295,6,4,B|416:49|416:49|487:15,1,193.75
308,77,37827,2,0,B|204:235|219:68|219:68|406:167|145:347|142:347|113:238|301:242|372:346|364:355|361:356|361:356|285:265|476:149|476:149|474:191|461:243|360:124|443:56|443:56|423:98|374:101|279:38|367:7|344:126|288:146|108:162|108:162|46:119|15:53|112:-8|212:45|108:162|108:162|-14:68|75:-3|167:-1|187:107|108:163|108:163|80:194|80:194|177:108|171:30|101:-3|4:67|107:161|107:161|31:256,1,2635
79,211,41200,2,0,B|176:224|176:224|212:200|357:216,1,232.5
314,241,41555,2,0,P|277:319|221:299,1,155
275,233,41910,2,0,P|366:191|441:240,1,155
345,189,42354,2,0,B|306:121|354:106|382:111|378:163|404:192,3,155
199,133,43064,1,0,0:0:0:0:
268,163,43153,1,0,0:0:0:0:
79,149,43241,1,0,0:0:0:0:
120,228,43508,1,0,0:0:0:0:
227,272,43685,1,0,0:0:0:0:
241,50,44128,1,0,0:0:0:0:
269,155,44395,2,0,B|397:126|129:100,37,232.5
127,208,54425,2,0,B|309:225|401:57|-38:108|11:273|339:247|191:346|183:374|183:374|293:266|79:299,1,697.5
190,145,55401,1,0,0:0:0:0:
195,159,55490,1,0,0:0:0:0:
5,241,55667,1,0,0:0:0:0:
45,129,55756,2,0,B|92:226|181:236|177:173|119:89,1,232.5
321,193,56644,1,0,0:0:0:0:
321,186,56732,1,0,0:0:0:0:
356,268,57087,1,0,0:0:0:0:
427,246,57176,1,0,0:0:0:0:
154,123,57265,1,0,0:0:0:0:
208,302,57708,1,0,0:0:0:0:
211,301,57798,1,0,0:0:0:0:
213,289,58064,1,0,0:0:0:0:
212,289,58508,1,0,0:0:0:0:
76,34,59040,2,14,B|104:217|104:217|218:168|171:62|72:40,1,387.5
295,36,59661,2,14,B|190:34|213:41|224:253|224:253|329:234,1,387.5
250,149,60194,2,14,P|342:142|363:143,1,77.5
472,36,60371,2,14,B|368:115|483:166|407:247,1,232.5
154,164,60726,2,14,L|149:337,1,155
159,163,60993,2,14,P|229:194|157:263,1,155
402,116,61259,2,14,P|316:239|539:252,1,465
248,0,61880,2,14,L|291:140,1,155
221,0,62147,2,14,L|176:155,1,155
272,96,62413,2,14,L|166:104,1,77.5
59,172,62590,2,14,L|71:407,1,232.5
237,134,63034,2,0,B|155:198|314:293|151:383,1,232.5
460,116,63389,2,14,L|280:125,1,155
390,130,63655,2,14,L|379:388,1,232.5
503,227,64011,6,0,P|494:286|484:223,1,155
340,161,64277,1,0,0:0:0:0:
408,233,64454,1,0,0:0:0:0:
293,268,64543,1,0,0:0:0:0:
