osu file format v14

[General]
AudioFilename: audio.mp3
AudioLeadIn: 0
PreviewTime: -1
Countdown: 1
SampleSet: Normal
StackLeniency: 0.7
Mode: 0
LetterboxInBreaks: 0
WidescreenStoryboard: 1

[Editor]
DistanceSpacing: 0.1
BeatDivisor: 4
GridSize: 4
TimelineZoom: 3.699999

[Metadata]
Title:ultimate
TitleUnicode:ultimate
Artist:denzel curry
ArtistUnicode:denzel curry
Creator:Dunois
Version:Ultimate
Source:meme
Tags:
BeatmapID:1254534
BeatmapSetID:592944

[Difficulty]
HPDrainRate:5
CircleSize:5
OverallDifficulty:5
ApproachRate:10
SliderMultiplier:1.9
SliderTickRate:1

[Events]
//Background and Video events
0,0,"menubackground.jpg",0,0
//Break Periods
//Storyboard Layer 0 (Background)
//Storyboard Layer 1 (Fail)
//Storyboard Layer 2 (Pass)
//Storyboard Layer 3 (Foreground)
//Storyboard Sound Samples

[TimingPoints]
1149.85049665992,526.777875329236,4,1,0,100,1,0

[HitObjects]
96,68,1122,6,0,B|81:109|81:109|102:218,1,142.5,8|8,0:0|0:0,0:0:0:0:
282,129,1940,2,0,L|284:78,1,47.5,2|0,0:0|0:0,0:0:0:0:
180,111,2203,6,0,L|202:252,1,142.5,8|8,0:0|0:0,0:0:0:0:
357,76,2993,2,0,L|359:25,1,47.5,2|0,0:0|0:0,0:0:0:0:
255,58,3256,6,0,L|276:198,1,142.5,8|8,0:0|0:0,0:0:0:0:
406,195,4178,2,0,L|408:148,1,47.5,2|0,0:0|0:0,0:0:0:0:
216,275,4442,54,0,P|281:298|347:275,1,95,8|8,0:0|0:0,0:0:0:0:
120,342,5232,2,0,L|115:294,1,47.5,2|0,0:0|0:0,0:0:0:0:
69,228,5495,21,8,0:0:0:0:
222,90,6549,70,0,L|218:239,2,142.5,8|8|2,0:0|0:0|0:0,0:0:0:0:
304,273,7602,2,0,P|214:326|134:187,1,285,8|2,0:0|0:0,0:0:0:0:
218,232,8788,1,8,0:0:0:0:
218,232,9578,1,8,0:0:0:0:
263,124,9709,1,8,0:0:0:0:
263,124,9841,6,0,L|369:112,1,95,4|0,0:0|0:0,0:0:0:0:
263,124,9841,1,8,0:0:0:0:
484,264,10105,2,0,L|389:274,1,95,8|0,0:0|0:0,0:0:0:0:
214,56,10368,1,0,0:0:0:0:
327,208,10500,1,2,0:0:0:0:
181,306,10631,1,10,0:0:0:0:
328,208,10763,1,0,0:0:0:0:
131,156,10895,54,0,P|118:201|128:250,1,95,2|2,0:0|0:0,0:0:0:0:
400,263,11158,2,0,P|413:218|403:169,1,95,10|0,0:0|0:0,0:0:0:0:
131,156,11422,5,2,0:0:0:0:
181,306,11685,1,0,0:0:0:0:
138,65,11817,1,10,0:0:0:0:
0,191,11948,1,2,0:0:0:0:
215,153,12080,6,0,B|268:148|268:148|310:158|310:158|369:150,1,142.5,6|0,0:0|0:0,0:0:0:0:
400,264,12343,2,0,L|300:258,1,95,8|0,0:0|0:0,0:0:0:0:
131,372,12607,2,0,P|99:337|136:242,1,142.5,2|0,0:0|0:0,0:0:0:0:
193,226,12870,1,8,0:0:0:0:
361,357,13002,1,0,0:0:0:0:
297,143,13134,2,0,L|298:248,1,95,2|0,0:0|0:0,0:0:0:0:
297,237,13265,1,0,0:0:0:0:
297,237,13397,1,8,0:0:0:0:
246,73,13529,1,0,0:0:0:0:
356,294,13660,54,0,P|304:323|252:309,1,95,2|0,0:0|0:0,0:0:0:0:
246,73,13924,1,8,0:0:0:0:
291,59,14055,1,0,0:0:0:0:
338,67,14055,1,0,0:0:0:0:
374,99,14187,1,0,0:0:0:0:
382,147,14187,2,0,B|428:149|428:149|476:139,1,95,2|0,0:0|0:0,0:0:0:0:
161,29,14450,2,0,B|115:27|115:27|67:37,1,95,8|2,0:0|0:0,0:0:0:0:
144,278,14714,5,0,0:0:0:0:
118,113,14846,1,0,0:0:0:0:
196,345,14977,2,0,P|153:362|93:344,1,95,10|0,0:0|0:0,0:0:0:0:
297,238,15241,2,0,L|402:260,1,95,2|0,0:0|0:0,0:0:0:0:
389,257,15504,1,0,0:0:0:0:
389,257,15636,1,8,0:0:0:0:
248,160,15767,1,0,0:0:0:0:
297,336,15899,5,2,0:0:0:0:
349,157,16031,1,0,0:0:0:0:
206,258,16163,1,10,0:0:0:0:
416,355,16294,1,0,0:0:0:0:
416,355,16294,1,0,0:0:0:0:
416,355,16426,2,0,L|471:344,1,47.5,2|0,0:0|0:0,0:0:0:0:
509,229,16558,2,0,L|460:215,1,47.5
403,79,16689,2,0,P|464:76|506:52,1,95,8|0,0:0|0:0,0:0:0:0:
389,257,16953,70,0,B|319:240|319:240|271:248|271:248|202:232,1,190,2|8,0:0|0:0,0:0:0:0:
297,336,17348,2,0,L|344:331,1,47.5
394,177,17479,6,0,B|324:160|324:160|276:168|276:168|207:152,1,190,6|8,0:0|0:0,0:0:0:0:
306,254,17875,1,0,0:0:0:0:
306,254,18006,1,0,0:0:0:0:
306,254,18006,1,2,0:0:0:0:
281,76,18138,1,0,0:0:0:0:
477,146,18270,1,10,0:0:0:0:
171,227,18401,1,0,0:0:0:0:
171,227,18533,54,0,L|178:327,1,95,2|0,0:0|0:0,0:0:0:0:
171,227,18533,1,0,0:0:0:0:
394,177,18796,2,0,L|401:58,1,95,8|2,0:0|0:0,0:0:0:0:
194,87,19060,1,0,0:0:0:0:
260,323,19323,1,2,0:0:0:0:
79,244,19455,1,8,0:0:0:0:
238,166,19587,5,0,0:0:0:0:
238,166,19587,1,0,0:0:0:0:
238,166,19718,1,2,0:0:0:0:
136,309,19850,1,0,0:0:0:0:
76,94,19982,1,8,0:0:0:0:
310,202,20113,5,0,0:0:0:0:
310,202,20113,1,0,0:0:0:0:
310,202,20245,1,2,0:0:0:0:
147,153,20377,1,0,0:0:0:0:
359,90,20508,1,8,0:0:0:0:
147,153,20640,1,2,0:0:0:0:
392,258,20772,2,0,P|405:207|386:146,1,95,2|0,0:0|0:0,0:0:0:0:
147,153,21035,2,0,P|190:171|237:165,1,95,8|0,0:0|0:0,0:0:0:0:
414,29,21299,2,0,P|366:9|313:21,1,95,2|0,0:0|0:0,0:0:0:0:
324,15,21562,1,0,0:0:0:0:
324,15,21562,1,8,0:0:0:0:
400,167,21694,70,0,B|451:154|451:154|513:197|491:286,1,190,2|0,0:0|0:0,0:0:0:0:
242,201,22089,2,0,L|253:98,1,95,8|0,0:0|0:0,0:0:0:0:
252,106,22352,1,0,0:0:0:0:
252,106,22352,1,2,0:0:0:0:
320,293,22484,1,0,0:0:0:0:
90,165,22616,69,8,0:0:0:0:
93,193,22747,1,0,0:0:0:0:
96,221,22747,1,0,0:0:0:0:
99,249,22879,1,0,0:0:0:0:
103,276,22879,1,2,0:0:0:0:
242,201,23011,1,0,0:0:0:0:
13,217,23274,1,8,0:0:0:0:
168,104,23406,1,2,0:0:0:0:
127,359,23537,6,0,P|77:359|35:325,1,95
320,293,23801,6,0,P|367:308|401:343,1,95,8|0,0:0|0:0,0:0:0:0:
474,104,24064,2,0,P|392:133|288:102,1,190,6|10,0:0|0:0,0:0:0:0:
457,231,24459,1,0,0:0:0:0:
457,231,24459,1,0,0:0:0:0:
457,231,24591,1,2,0:0:0:0:
385,27,24723,1,0,0:0:0:0:
320,293,24854,1,10,0:0:0:0:
376,168,24986,53,0,0:0:0:0:
376,168,25118,1,0,0:0:0:0:
376,168,25118,2,0,L|271:153,1,95,2|0,0:0|0:0,0:0:0:0:
126,248,25381,2,0,B|172:258|172:258|220:250,1,95,8|0,0:0|0:0,0:0:0:0:
368,371,25645,2,0,B|303:378|303:378|247:353|247:353|173:365,1,190,2|8,0:0|0:0,0:0:0:0:
315,245,26040,5,0,0:0:0:0:
315,245,26171,1,0,0:0:0:0:
315,245,26171,2,0,L|321:312,1,47.5,6|0,0:0|0:0,0:0:0:0:
126,248,26303,2,0,L|121:200,1,47.5
245,108,26435,2,0,L|251:175,1,47.5,10|0,0:0|0:0,0:0:0:0:
81,48,26566,2,0,L|76:0,1,47.5
416,64,26698,6,0,L|351:75,1,47.5,2|0,0:0|0:0,0:0:0:0:
202,145,26830,2,0,L|257:156,1,47.5
482,228,27093,2,0,L|417:239,1,47.5,10|0,0:0|0:0,0:0:0:0:
178,322,27225,2,0,L|227:336,1,47.5
495,335,27357,5,12,0:0:0:0:
122,53,28410,5,10,0:0:0:0:
185,123,28673,1,8,0:0:0:0:
277,144,28937,1,8,0:0:0:0:
371,144,29200,1,8,0:0:0:0:
456,103,29464,1,8,0:0:0:0:
375,277,30517,69,8,0:0:0:0:
288,237,30912,1,8,0:0:0:0:
193,243,31176,1,8,0:0:0:0:
106,281,31439,1,8,0:0:0:0:
56,362,31702,1,8,0:0:0:0:
499,185,32756,5,8,0:0:0:0:
30,34,33810,69,8,0:0:0:0:
62,144,34073,1,8,0:0:0:0:
155,208,34336,1,8,0:0:0:0:
267,225,34731,1,2,0:0:0:0:
376,194,34995,1,8,0:0:0:0:
388,181,35258,54,2,P|373:108|310:116,1,142.5,2|0,0:0|0:0,0:0:0:0:
243,140,35785,2,0,L|195:144,1,47.5,4|0,0:0|0:0,0:0:0:0:
128,89,36048,21,8,0:0:0:0:
55,147,36180,2,0,P|41:122|42:67,1,47.5,8|8,0:0|0:0,0:0:0:0:
138,177,36443,2,8,P|97:224|6:216,1,142.5
77,325,36839,2,8,L|160:339,1,47.5,10|8,0:0|0:0,0:0:0:0:
286,269,37102,2,8,L|215:257,1,47.5
264,169,37365,1,8,0:0:0:0:
243,348,37497,2,8,P|306:317|378:354,1,142.5
481,263,37892,2,8,P|426:247|401:224,1,47.5,10|8,0:0|0:0,0:0:0:0:
345,140,38155,6,8,L|429:131,1,47.5
351,38,38419,1,8,0:0:0:0:
282,247,38682,2,8,P|232:249|186:159,1,142.5
396,227,39077,2,8,L|391:319,1,47.5,10|8,0:0|0:0,0:0:0:0:
392,298,39209,1,8,0:0:0:0:
392,298,39341,1,8,0:0:0:0:
473,179,39472,1,8,0:0:0:0:
282,247,39604,1,8,0:0:0:0:
446,364,39736,70,8,B|398:347|398:347|363:356|363:356|282:337,1,142.5
477,250,40131,2,8,L|473:173,1,47.5,10|8,0:0|0:0,0:0:0:0:
208,113,40394,6,8,L|206:184,1,47.5
346,119,40658,1,8,0:0:0:0:
218,10,40789,2,8,P|171:29|68:16,1,142.5
335,12,41184,2,8,L|411:23,1,47.5,10|8,0:0|0:0,0:0:0:0:
405,22,41448,1,8,0:0:0:0:
405,22,41448,1,8,0:0:0:0:
457,141,41580,1,8,0:0:0:0:
328,224,41711,1,8,0:0:0:0:
488,313,41843,70,8,B|437:307|437:307|413:318|413:318|343:307,1,142.5
418,218,42238,2,8,L|501:229,1,47.5,10|8,0:0|0:0,0:0:0:0:
488,227,42501,1,8,0:0:0:0:
488,227,42633,1,8,0:0:0:0:
379,99,42765,1,8,0:0:0:0:
251,185,42896,1,8,0:0:0:0:
457,141,43028,5,8,0:0:0:0:
457,141,43028,1,8,0:0:0:0:
457,141,43160,2,8,L|463:58,1,47.5
333,205,43423,2,8,L|341:287,1,47.5
252,73,43687,69,8,0:0:0:0:
252,73,43950,2,0,B|178:94|118:33|118:33|126:83,1,190,0|10,0:0|2:0,0:0:0:0:
127,93,44740,6,2,L|136:248,1,142.5,6|2,0:0|0:0,0:0:0:0:
123,314,45267,1,8,0:0:0:0:
123,314,45530,1,0,0:0:0:0:
268,304,45794,2,0,L|417:312,1,142.5
486,281,46452,1,8,0:0:0:0:
403,234,46716,1,8,0:0:0:0:
359,149,46979,69,8,0:0:0:0:
368,54,47242,1,8,0:0:0:0:
440,115,47506,1,2,0:0:0:0:
403,234,47769,1,2,0:0:0:0:
259,236,48033,1,8,0:0:0:0:
93,271,48559,5,2,0:0:0:0:
93,271,48823,2,0,L|143:264,1,47.5,8|0,0:0|0:0,0:0:0:0:
149,373,49086,2,0,L|5:358,1,142.5,2|0,0:0|0:0,0:0:0:0:
297,204,49613,1,8,0:0:0:0:
297,204,49876,1,0,0:0:0:0:
418,193,50271,70,0,L|408:338,1,142.5
342,379,50798,1,2,0:0:0:0:
342,379,51062,1,2,0:0:0:0:
342,379,51325,69,0,0:0:0:0:
309,100,51588,1,8,0:0:0:0:
233,300,51852,53,0,0:0:0:0:
443,190,52115,1,8,0:0:0:0:
278,198,52378,5,0,0:0:0:0:
350,270,52642,1,8,0:0:0:0:
406,101,52905,1,8,0:0:0:0:
146,102,53169,21,2,0:0:0:0:
146,102,53432,38,0,B|186:138|231:132|231:132|269:106|324:129,1,190,4|0,0:0|0:0,0:0:0:0:
368,181,53695,1,8,0:0:0:0:
215,38,53959,1,0,0:0:0:0:
186,287,54091,5,2,0:0:0:0:
368,181,54222,1,0,0:0:0:0:
368,181,54222,1,0,0:0:0:0:
368,181,54354,1,8,0:0:0:0:
101,232,54486,1,0,0:0:0:0:
442,220,54617,6,0,P|453:175|437:132,1,47.5,2|0,0:0|0:0,0:0:0:0:
255,161,54881,1,8,0:0:0:0:
347,313,55012,1,0,0:0:0:0:
347,66,55144,1,2,0:0:0:0:
173,202,55276,1,0,0:0:0:0:
173,202,55276,1,0,0:0:0:0:
173,202,55407,1,8,0:0:0:0:
442,220,55539,1,2,0:0:0:0:
219,334,55671,54,0,P|302:345|349:311,1,142.5,2|0,0:0|0:0,0:0:0:0:
366,238,55934,2,0,B|372:192|372:192|357:145,1,95,8|0,0:0|0:0,0:0:0:0:
186,122,56198,1,2,0:0:0:0:
288,236,56329,1,0,0:0:0:0:
256,59,56461,1,10,0:0:0:0:
148,280,56593,1,2,0:0:0:0:
366,238,56724,5,0,0:0:0:0:
173,202,56856,1,2,0:0:0:0:
443,220,56988,1,10,0:0:0:0:
283,141,57119,1,2,0:0:0:0:
248,374,57251,1,2,0:0:0:0:
417,353,57383,1,0,0:0:0:0:
417,353,57515,1,0,0:0:0:0:
417,353,57515,2,0,L|365:347,1,47.5,10|0,0:0|0:0,0:0:0:0:
276,296,57646,2,0,L|224:290,1,47.5,2|0,0:0|0:0,0:0:0:0:
100,343,57910,70,0,P|66:277|110:201,1,142.5,4|0,0:0|0:0,0:0:0:0:
173,202,58173,2,0,L|277:221,1,95,8|0,0:0|0:0,0:0:0:0:
498,152,58436,2,0,P|440:190|372:177,1,142.5,2|0,0:0|0:0,0:0:0:0:
330,106,58700,2,0,L|327:8,1,95,8|0,0:0|0:0,0:0:0:0:
128,85,58963,6,0,P|188:46|262:70,1,142.5,2|0,0:0|0:0,0:0:0:0:
330,106,59227,2,0,L|322:219,1,95,8|0,0:0|0:0,0:0:0:0:
148,280,59490,5,2,0:0:0:0:
385,338,59622,1,0,0:0:0:0:
429,320,59753,1,0,0:0:0:0:
472,301,59753,1,8,0:0:0:0:
209,118,59885,1,0,0:0:0:0:
309,310,60017,54,0,L|312:208,1,95,2|0,0:0|0:0,0:0:0:0:
148,280,60280,2,0,L|145:374,1,95,8|0,0:0|0:0,0:0:0:0:
145,374,60544,1,0,0:0:0:0:
145,374,60544,1,2,0:0:0:0:
89,215,60675,1,2,0:0:0:0:
231,273,60807,1,8,0:0:0:0:
18,260,60939,1,2,0:0:0:0:
251,139,61070,38,2,P|286:135|318:120,1,47.5,2|0,0:0|0:0,0:0:0:0:
196,70,61334,22,0,P|167:135|205:219,1,142.5,4|0,0:0|0:0,0:0:0:0:
391,183,61729,38,0,P|340:99|251:139,1,190,14|0,0:0|0:0,0:0:0:0:
247,223,61992,1,8,0:0:0:0:
265,266,61992,1,0,0:0:0:0:
301,296,62124,1,2,0:0:0:0:
346,309,62124,1,2,0:0:0:0:
392,316,62256,54,0,P|343:311|299:325,1,95,4|0,0:0|0:0,0:0:0:0:
15,318,62519,2,0,P|64:323|108:309,1,95,8|0,0:0|0:0,0:0:0:0:
197,157,62782,1,2,0:0:0:0:
55,240,62914,1,0,0:0:0:0:
226,296,63046,1,8,0:0:0:0:
157,86,63177,1,0,0:0:0:0:
136,262,63309,22,0,L|146:370,1,95,2|0,0:0|0:0,0:0:0:0:
271,196,63573,2,0,P|276:138|247:93,1,95,10|0,0:0|0:0,0:0:0:0:
96,172,63836,1,2,0:0:0:0:
226,296,63968,1,0,0:0:0:0:
157,86,64099,1,8,0:0:0:0:
80,325,64231,1,2,0:0:0:0:
313,359,64363,70,0,P|323:310|300:253,1,95,2|0,0:0|0:0,0:0:0:0:
55,240,64626,1,8,0:0:0:0:
271,196,64758,1,2,0:0:0:0:
12,119,64889,2,0,P|-1:72|12:28,1,95,2|0,0:0|0:0,0:0:0:0:
251,80,65153,1,8,0:0:0:0:
176,214,65285,1,2,0:0:0:0:
144,2,65548,1,0,0:0:0:0:
332,56,65680,1,2,0:0:0:0:
188,131,65811,1,8,0:0:0:0:
372,200,65943,5,0,0:0:0:0:
372,200,65943,1,0,0:0:0:0:
372,200,66075,1,2,0:0:0:0:
226,2,66206,1,2,0:0:0:0:
101,176,66338,1,8,0:0:0:0:
328,134,66470,1,2,0:0:0:0:
52,243,66602,2,0,P|25:213|26:155,1,95,2|0,0:0|0:0,0:0:0:0:
263,249,66865,2,0,L|255:354,1,95,8|0,0:0|0:0,0:0:0:0:
255,343,66997,1,0,0:0:0:0:
255,343,67128,69,2,0:0:0:0:
188,131,67260,1,2,0:0:0:0:
344,296,67392,1,10,0:0:0:0:
172,210,67523,1,0,0:0:0:0:
431,255,67655,5,2,0:0:0:0:
128,281,67787,1,0,0:0:0:0:
322,154,67918,1,8,0:0:0:0:
398,363,68050,1,2,0:0:0:0:
68,344,68182,2,0,P|45:303|60:236,1,95,2|0,0:0|0:0,0:0:0:0:
412,172,68445,53,10,0:0:0:0:
255,76,68577,1,0,0:0:0:0:
412,172,68709,1,2,0:0:0:0:
208,292,68840,1,0,0:0:0:0:
208,292,68972,1,0,0:0:0:0:
208,292,68972,1,10,0:0:0:0:
338,74,69104,1,0,0:0:0:0:
431,255,69367,1,2,0:0:0:0:
272,233,69499,5,0,0:0:0:0:
272,233,69499,1,0,0:0:0:0:
272,233,69630,1,10,0:0:0:0:
491,200,69762,1,0,0:0:0:0:
328,156,69894,2,0,L|277:147,3,47.5,2|0|0|0,0:0|0:0|0:0|0:0,0:0:0:0:
384,262,70157,2,0,L|431:254,3,47.5,10|0|0|0,0:0|0:0|0:0|0:0,0:0:0:0:
305,335,70421,70,0,L|305:382,1,47.5,2|0,0:0|0:0,0:0:0:0:
208,292,70552,2,0,L|182:331,1,47.5
195,171,70684,2,0,L|151:190,1,47.5,10|0,0:0|0:0,0:0:0:0:
266,53,70816,2,0,L|218:47,1,47.5
398,147,70947,37,0,0:0:0:0:
398,147,71211,2,0,L|327:155,1,47.5
266,53,71474,2,0,B|315:63|315:63|361:51|361:51|418:67,1,142.5
195,171,71869,1,0,0:0:0:0:
195,171,72001,1,0,0:0:0:0:
195,171,72001,2,0,L|110:163,1,47.5
97,265,72264,2,0,L|24:272,1,47.5
73,360,72528,5,8,0:0:0:0:
73,360,72791,2,0,L|156:366,1,47.5
144,365,73055,1,0,0:0:0:0:
144,365,73186,1,0,0:0:0:0:
343,290,73450,70,0,L|267:302,1,47.5
273,301,73581,1,0,0:0:0:0:
273,301,73713,1,0,0:0:0:0:
49,136,73976,6,0,L|125:148,1,47.5
119,147,74108,1,0,0:0:0:0:
119,147,74240,1,0,0:0:0:0:
344,24,74503,70,0,L|268:36,1,47.5
273,35,74635,1,0,0:0:0:0:
273,35,74767,1,0,0:0:0:0:
267,134,74898,2,0,L|338:123,1,47.5
338,123,75293,6,0,B|303:143|303:143|260:103|187:125,1,142.5,8|8,0:0|0:0,0:0:0:0:
332,234,75688,1,0,0:0:0:0:
239,273,75820,2,0,L|237:199,1,47.5
408,199,76084,2,0,P|417:244|398:283,1,47.5
296,354,76347,70,0,P|250:319|151:332,1,142.5
81,228,76742,1,0,0:0:0:0:
81,228,76874,1,0,0:0:0:0:
81,228,76874,2,0,L|166:214,1,47.5
277,129,77269,2,0,L|201:114,1,47.5
368,61,77532,2,0,P|385:94|384:143,1,47.5
298,276,77796,2,0,P|297:236|322:200,1,47.5
348,357,78059,2,0,P|305:372|219:322,1,142.5
81,228,78454,1,0,0:0:0:0:
81,228,78454,1,0,0:0:0:0:
81,228,78586,6,0,L|81:299,1,47.5
201,363,78849,2,0,L|201:287,1,47.5
201,291,79112,1,0,0:0:0:0:
201,291,79112,1,8,0:0:0:0:
151,152,79244,1,8,0:0:0:0:
331,62,79376,5,8,0:0:0:0:
338,74,79639,6,0,L|355:225,1,142.5,4|0,0:0|0:0,0:0:0:0:
400,284,79903,2,0,B|397:333|397:333|372:376,1,95,8|0,0:0|0:0,0:0:0:0:
211,207,80166,1,0,0:0:0:0:
314,296,80298,1,0,0:0:0:0:
134,345,80429,2,0,P|120:300|131:246,1,95,8|0,0:0|0:0,0:0:0:0:
143,69,80693,6,0,P|62:65|-1:151,1,190,0|8,0:0|0:0,0:0:0:0:
29,254,81220,1,0,0:0:0:0:
29,254,81220,1,0,0:0:0:0:
29,254,81351,1,0,0:0:0:0:
96,148,81483,1,0,0:0:0:0:
211,207,81615,1,8,0:0:0:0:
261,58,81746,1,0,0:0:0:0:
370,233,81878,21,4,0:0:0:0:
370,233,82668,2,8,L|431:220,1,47.5,8|0,0:0|0:0,0:0:0:0:
295,182,82932,1,10,0:0:0:0:
370,233,83985,2,0,B|315:228|315:228|284:236|284:236|222:227,2,142.5,8|8|2,0:0|0:0|0:0,0:0:0:0:
435,294,85039,1,0,0:0:0:0:
435,294,85170,1,8,0:0:0:0:
435,294,86224,6,0,B|450:255|450:255|426:145,2,142.5,8|8|2,0:0|0:0|0:0,0:0:0:0:
500,132,87146,2,8,L|505:72,1,47.5
221,37,88068,2,0,L|225:87,1,47.5
197,166,88331,2,8,P|254:167|291:136,1,95
330,332,88858,1,8,0:0:0:0:
366,248,88990,2,8,L|314:240,1,47.5
249,303,89253,1,8,0:0:0:0:
377,323,90570,6,8,L|470:317,1,47.5
396,142,90833,1,8,0:0:0:0:
469,197,90965,2,8,P|415:230|321:187,1,142.5
415,51,91360,2,8,L|485:62,1,47.5,10|8,0:0|0:0,0:0:0:0:
297,127,91623,2,8,L|226:115,1,47.5
248,215,91887,1,8,0:0:0:0:
269,36,92019,2,8,P|206:67|134:30,1,142.5
31,121,92545,2,8,P|86:137|111:160,1,47.5,10|8,0:0|0:0,0:0:0:0:
167,244,92809,70,8,L|83:253,1,47.5
161,346,93072,1,8,0:0:0:0:
230,137,93204,2,8,P|280:135|326:225,1,142.5
116,157,93599,2,8,L|121:65,1,47.5,10|8,0:0|0:0,0:0:0:0:
120,86,93731,1,8,0:0:0:0:
120,86,93862,1,8,0:0:0:0:
39,205,93994,1,8,0:0:0:0:
230,137,94126,1,8,0:0:0:0:
66,20,94257,6,8,B|114:37|114:37|149:28|149:28|230:47,1,142.5
35,134,94652,2,8,L|39:211,1,47.5,10|8,0:0|0:0,0:0:0:0:
304,271,94916,70,8,L|306:200,1,47.5
166,265,95179,1,8,0:0:0:0:
294,374,95311,2,8,P|341:355|444:368,1,142.5
177,372,95706,2,8,L|101:361,1,47.5,10|8,0:0|0:0,0:0:0:0:
107,362,95969,1,8,0:0:0:0:
107,362,95969,1,8,0:0:0:0:
55,243,96101,1,8,0:0:0:0:
184,160,96364,1,8,0:0:0:0:
24,71,96496,6,8,B|75:77|75:77|99:66|99:66|169:77,1,142.5
94,166,96891,2,8,L|11:155,1,47.5,10|8,0:0|0:0,0:0:0:0:
24,157,97023,1,8,0:0:0:0:
24,157,97155,1,8,0:0:0:0:
133,285,97286,1,8,0:0:0:0:
261,199,97418,1,8,0:0:0:0:
55,243,97550,69,8,0:0:0:0:
55,243,97550,1,8,0:0:0:0:
55,243,97681,2,8,L|49:326,1,47.5
179,179,97945,2,8,L|171:97,1,47.5,10|8,0:0|0:0,0:0:0:0:
171,356,98208,5,8,0:0:0:0:
180,367,98472,1,8,0:0:0:0:
259,355,98603,1,8,0:0:0:0:
337,341,98735,1,8,0:0:0:0:
347,349,98998,1,2,0:0:0:0:
357,355,99262,70,0,L|368:263,1,47.5,4|0,0:0|0:0,0:0:0:0:
361,165,99525,1,8,0:0:0:0:
132,233,99789,37,8,0:0:0:0:
132,233,100447,2,0,P|68:230|21:158,2,142.5,2|8|0,0:0|0:0|0:0,0:0:0:0:
229,237,101105,1,0,0:0:0:0:
306,297,101237,2,0,L|388:284,1,47.5,8|0,0:0|0:0,0:0:0:0:
243,369,101501,6,0,B|187:360|187:360|155:366|155:366|94:354,1,142.5,0|8,0:0|0:0,0:0:0:0:
40,291,101896,1,0,0:0:0:0:
65,206,102027,2,0,L|55:112,1,95
148,136,102291,2,0,L|138:42,1,95,8|0,0:0|0:0,0:0:0:0:
255,14,102554,6,0,L|247:86,1,47.5
340,83,102817,2,0,L|332:155,1,47.5,8|0,0:0|0:0,0:0:0:0:
249,185,103081,1,0,0:0:0:0:
320,249,103213,1,0,0:0:0:0:
225,277,103344,2,0,L|146:264,1,47.5,8|0,0:0|0:0,0:0:0:0:
296,339,103608,70,0,L|366:350,1,47.5
441,291,104003,2,0,L|514:301,1,47.5,8|0,0:0|0:0,0:0:0:0:
510,208,104266,1,0,0:0:0:0:
441,153,104398,1,0,0:0:0:0:
509,94,104530,70,0,L|507:23,1,47.5,8|0,0:0|0:0,0:0:0:0:
365,131,104793,2,0,P|365:175|396:213,1,95
229,149,105056,2,0,P|226:113|213:80,1,47.5,8|0,0:0|0:0,0:0:0:0:
101,197,105320,1,0,0:0:0:0:
219,257,105451,1,0,0:0:0:0:
106,352,105583,6,0,L|94:270,1,47.5,8|0,0:0|0:0,0:0:0:0:
307,252,105846,6,0,P|298:293|279:319,1,47.5,2|0,0:0|0:0,0:0:0:0:
197,342,106110,54,0,L|51:331,1,142.5,12|0,0:0|0:0,0:0:0:0:
4,260,106373,6,0,P|1:213|16:178,1,47.5,2|0,0:0|0:0,0:0:0:0:
91,140,106637,2,0,L|166:154,1,47.5,8|0,0:0|0:0,0:0:0:0:
252,167,106900,6,0,L|335:156,1,47.5,2|0,0:0|0:0,0:0:0:0:
411,208,107163,2,0,P|418:243|410:277,1,47.5,8|0,0:0|0:0,0:0:0:0:
334,341,107427,53,2,0:0:0:0:
307,351,107558,1,2,0:0:0:0:
278,356,107558,1,2,0:0:0:0:
245,360,107690,1,0,0:0:0:0:
207,355,107822,5,0,0:0:0:0:
162,326,107822,1,0,0:0:0:0:
127,261,107954,1,8,0:0:0:0:
136,183,107954,1,0,0:0:0:0:
182,111,108085,6,0,B|246:91|246:91|300:117|300:117|358:87|428:144,1,237.5,4|8,0:0|0:0,0:0:0:0:
162,326,108480,1,0,0:0:0:0:
162,326,108480,1,0,0:0:0:0:
162,326,108612,2,0,L|148:220,1,95,2|0,0:0|0:0,0:0:0:0:
322,138,108875,2,0,L|316:252,1,95,8|0,0:0|0:0,0:0:0:0:
94,109,109139,2,0,P|163:103|211:153,1,142.5,2|0,0:0|0:0,0:0:0:0:
227,229,109402,2,0,B|243:279|243:279|281:314,1,95,8|0,0:0|0:0,0:0:0:0:
279,42,109666,53,2,0:0:0:0:
136,183,109797,1,0,0:0:0:0:
325,227,109929,1,8,0:0:0:0:
229,114,110061,1,2,0:0:0:0:
151,268,110192,6,0,L|161:370,1,95,2|0,0:0|0:0,0:0:0:0:
325,227,110456,2,0,L|315:132,1,95,8|0,0:0|0:0,0:0:0:0:
315,132,110719,1,0,0:0:0:0:
315,132,110719,1,2,0:0:0:0:
227,229,110851,1,0,0:0:0:0:
425,162,110983,1,10,0:0:0:0:
290,19,111114,1,2,0:0:0:0:
277,301,111246,5,2,0:0:0:0:
512,164,111378,1,0,0:0:0:0:
290,19,111641,1,10,0:0:0:0:
470,85,111773,1,8,0:0:0:0:
470,85,111773,1,8,0:0:0:0:
470,85,111904,1,10,0:0:0:0:
227,229,112036,53,8,0:0:0:0:
227,229,112036,1,8,0:0:0:0:
227,229,112168,2,0,L|214:174,1,47.5,8|0,0:0|0:0,0:0:0:0:
360,238,112299,2,0,L|354:289,1,47.5,2|0,0:0|0:0,0:0:0:0:
447,321,112431,6,0,P|488:272|445:162,1,190,4|0,0:0|0:0,0:0:0:0:
357,138,112695,2,0,L|246:151,1,95,10|0,0:0|0:0,0:0:0:0:
107,16,112958,2,0,P|114:63|203:105,1,142.5,2|0,0:0|0:0,0:0:0:0:
302,52,113221,2,0,L|402:58,1,95,8|0,0:0|0:0,0:0:0:0:
175,207,113485,6,0,P|118:181|34:209,1,142.5,2|0,0:0|0:0,0:0:0:0:
129,345,113748,2,0,L|232:331,1,95,10|0,0:0|0:0,0:0:0:0:
29,307,114012,1,2,0:0:0:0:
327,266,114143,1,0,0:0:0:0:
322,313,114275,1,0,0:0:0:0:
316,360,114275,1,10,0:0:0:0:
225,94,114407,69,0,0:0:0:0:
451,283,114538,2,0,L|443:181,1,95,2|0,0:0|0:0,0:0:0:0:
207,287,114802,2,0,L|214:381,1,95,8|0,0:0|0:0,0:0:0:0:
214,381,115065,1,0,0:0:0:0:
214,381,115065,1,2,0:0:0:0:
263,181,115197,1,0,0:0:0:0:
109,248,115328,1,10,0:0:0:0:
347,199,115592,1,2,0:0:0:0:
61,183,115724,5,2,0:0:0:0:
285,263,115855,1,2,0:0:0:0:
238,31,115987,1,10,0:0:0:0:
142,177,116119,1,0,0:0:0:0:
424,177,116250,69,2,0:0:0:0:
210,109,116382,1,2,0:0:0:0:
210,109,116382,1,2,0:0:0:0:
210,109,116514,2,0,L|263:107,1,47.5,10|0,0:0|0:0,0:0:0:0:
415,284,116645,2,0,L|354:279,1,47.5,2|0,0:0|0:0,0:0:0:0:
390,97,116777,6,0,P|441:92|490:119,1,95,4|0,0:0|0:0,0:0:0:0:
285,263,117040,2,0,P|234:268|185:241,1,95,8|0,0:0|0:0,0:0:0:0:
390,97,117304,1,2,0:0:0:0:
512,285,117436,1,0,0:0:0:0:
285,263,117567,1,8,0:0:0:0:
471,188,117699,1,0,0:0:0:0:
472,188,117831,54,0,L|479:74,1,95,6|0,0:0|0:0,0:0:0:0:
471,188,117831,1,0,0:0:0:0:
198,227,118094,2,0,L|202:337,1,95,8|0,0:0|0:0,0:0:0:0:
366,223,118357,1,2,0:0:0:0:
193,108,118489,1,0,0:0:0:0:
108,285,118621,1,8,0:0:0:0:
366,223,118753,1,2,0:0:0:0:
105,136,118884,2,0,P|92:90|102:44,1,95,2|0,0:0|0:0,0:0:0:0:
303,49,119148,5,8,0:0:0:0:
198,227,119411,1,2,0:0:0:0:
433,267,119543,2,0,B|446:229|446:229|437:175,1,95,2|0,0:0|0:0,0:0:0:0:
193,108,119806,1,8,0:0:0:0:
366,223,119938,1,0,0:0:0:0:
140,384,120069,5,2,0:0:0:0:
193,108,120201,1,0,0:0:0:0:
256,348,120333,1,10,0:0:0:0:
39,290,120465,1,2,0:0:0:0:
260,173,120596,69,0,0:0:0:0:
120,309,120728,1,2,0:0:0:0:
270,97,120860,1,8,0:0:0:0:
339,332,120991,1,2,0:0:0:0:
92,217,121123,69,6,0:0:0:0:
339,223,121255,1,0,0:0:0:0:
383,207,121386,1,0,0:0:0:0:
429,194,121386,1,8,0:0:0:0:
418,365,121518,1,0,0:0:0:0:
345,133,121650,5,2,0:0:0:0:
481,303,121781,1,2,0:0:0:0:
202,292,121913,1,10,0:0:0:0:
346,46,122045,1,0,0:0:0:0:
512,201,122177,69,6,0:0:0:0:
202,292,122308,1,0,0:0:0:0:
427,48,122440,1,10,0:0:0:0:
418,365,122572,1,2,0:0:0:0:
225,101,122703,2,0,P|178:96|112:117,1,95,2|0,0:0|0:0,0:0:0:0:
349,318,122967,2,0,L|361:219,1,95,8|0,0:0|0:0,0:0:0:0:
101,308,123362,1,2,0:0:0:0:
234,177,123494,1,0,0:0:0:0:
234,177,123494,1,0,0:0:0:0:
234,177,123625,1,10,0:0:0:0:
290,384,123757,1,2,0:0:0:0:
162,239,123889,6,0,P|145:193|165:135,1,95,2|0,0:0|0:0,0:0:0:0:
443,282,124152,2,2,L|431:380,1,95,10|2,0:0|0:0,0:0:0:0:
432,376,124284,1,0,0:0:0:0:
432,376,124415,1,2,0:0:0:0:
406,185,124547,1,2,0:0:0:0:
275,302,124679,1,8,0:0:0:0:
512,338,124810,1,2,0:0:0:0:
350,260,124942,53,0,0:0:0:0:
309,219,124942,1,8,0:0:0:0:
252,219,125074,1,8,0:0:0:0:
202,246,125206,1,8,0:0:0:0:
184,299,125206,1,10,0:0:0:0:
139,342,125337,1,8,0:0:0:0:
77,349,125337,1,8,0:0:0:0:
8,263,125469,22,0,L|15:157,1,95,4|0,0:0|0:0,0:0:0:0:
20,324,125469,1,8,0:0:0:0:
202,246,125732,2,0,L|195:340,1,95,8|0,0:0|0:0,0:0:0:0:
194,340,125996,1,0,0:0:0:0:
194,340,125996,1,2,0:0:0:0:
138,149,126127,1,0,0:0:0:0:
275,302,126259,1,10,0:0:0:0:
138,149,126391,1,2,0:0:0:0:
309,219,126522,5,0,0:0:0:0:
97,264,126654,1,2,0:0:0:0:
97,264,126786,1,2,0:0:0:0:
97,264,126786,1,10,0:0:0:0:
48,63,127049,1,2,0:0:0:0:
261,17,127181,69,2,0:0:0:0:
298,65,127181,1,2,0:0:0:0:
298,126,127313,1,2,0:0:0:0:
263,177,127313,1,0,0:0:0:0:
206,202,127444,1,10,0:0:0:0:
172,253,127444,1,0,0:0:0:0:
171,314,127576,1,2,0:0:0:0:
208,362,127576,1,0,0:0:0:0:
268,376,127708,54,0,L|328:362,1,47.5,2|0,0:0|0:0,0:0:0:0:
397,277,127839,2,0,P|425:323|421:373,1,95,2|8,0:0|0:0,0:0:0:0:
216,166,128103,6,0,L|276:180,1,47.5,2|0,0:0|0:0,0:0:0:0:
479,199,128235,2,0,P|507:153|503:103,1,95,2|0,0:0|0:0,0:0:0:0:
46,271,128498,22,0,L|101:264,1,47.5,10|0,0:0|0:0,0:0:0:0:
297,126,128630,1,2,0:0:0:0:
343,149,128630,1,0,0:0:0:0:
389,171,128761,37,2,0:0:0:0:
267,293,128893,5,0,0:0:0:0:
113,215,129025,69,10,0:0:0:0:
141,44,129156,37,2,0:0:0:0:
311,16,129288,37,2,0:0:0:0:
444,290,129420,1,0,0:0:0:0:
444,290,129551,1,0,0:0:0:0:
444,290,129551,2,0,L|396:285,1,47.5,10|0,0:0|0:0,0:0:0:0:
249,130,129683,2,0,L|296:125,1,47.5
272,245,129815,6,0,L|267:292,1,47.5,6|0,0:0|0:0,0:0:0:0:
113,215,129947,2,0,L|105:168,1,47.5,2|0,0:0|0:0,0:0:0:0:
254,82,130078,2,0,L|249:129,1,47.5,8|0,0:0|0:0,0:0:0:0:
158,301,130210,2,0,P|108:310|51:287,1,95,2|0,0:0|0:0,0:0:0:0:
351,167,130473,1,2,0:0:0:0:
396,181,130605,1,0,0:0:0:0:
441,195,130605,1,8,0:0:0:0:
311,16,130737,1,0,0:0:0:0:
245,325,131000,5,2,0:0:0:0:
512,240,131132,1,0,0:0:0:0:
311,16,131263,1,10,0:0:0:0:
429,293,131395,2,0,L|432:86,1,190,2|2,0:0|0:0,0:0:0:0:
270,139,131790,2,0,L|281:238,1,95,10|0,0:0|0:0,0:0:0:0:
277,290,131922,1,0,0:0:0:0:
245,325,132054,5,2,0:0:0:0:
188,333,132054,1,2,0:0:0:0:
133,317,132185,1,2,0:0:0:0:
99,271,132185,1,0,0:0:0:0:
105,214,132317,1,10,0:0:0:0:
145,172,132317,1,2,0:0:0:0:
169,120,132449,1,2,0:0:0:0:
162,63,132449,1,0,0:0:0:0:
122,22,132580,70,0,L|72:14,1,47.5,2|0,0:0|0:0,0:0:0:0:
270,139,132712,2,0,L|331:130,1,47.5
145,172,132844,2,0,L|154:218,1,47.5,10|0,0:0|0:0,0:0:0:0:
14,349,132976,2,0,L|16:299,1,47.5,2|0,0:0|0:0,0:0:0:0:
273,363,133107,54,0,B|331:383|331:383|381:356|456:377,1,190,4|10,1:0|0:0,0:0:0:0:
219,199,133502,2,0,B|161:179|161:179|100:210|36:184,1,190,2|8,0:0|0:0,0:0:0:0:
471,192,133897,1,8,0:0:0:0:
476,174,134161,5,6,0:0:0:0:
275,266,134292,1,0,0:0:0:0:
176,92,134424,1,10,0:0:0:0:
353,279,134556,1,2,0:0:0:0:
95,353,134819,69,2,0:0:0:0:
175,92,134951,1,0,0:0:0:0:
354,278,135083,1,10,0:0:0:0:
118,161,135214,1,2,0:0:0:0:
330,22,135346,5,6,0:0:0:0:
203,228,135478,1,2,0:0:0:0:
203,228,135478,1,0,0:0:0:0:
203,228,135609,1,10,0:0:0:0:
89,82,135741,1,0,0:0:0:0:
367,94,135873,69,2,0:0:0:0:
253,309,136004,1,0,0:0:0:0:
415,175,136136,1,10,0:0:0:0:
175,92,136268,1,2,0:0:0:0:
97,308,136400,5,6,0:0:0:0:
175,92,136531,1,0,0:0:0:0:
346,315,136663,1,10,0:0:0:0:
262,43,136795,1,2,0:0:0:0:
69,210,136926,69,2,0:0:0:0:
415,263,137058,1,0,0:0:0:0:
175,92,137190,1,10,0:0:0:0:
159,384,137321,1,2,0:0:0:0:
485,221,137453,5,6,0:0:0:0:
261,43,137585,1,0,0:0:0:0:
489,302,137717,1,10,0:0:0:0:
160,384,137848,1,2,0:0:0:0:
484,384,137980,69,2,0:0:0:0:
470,52,138112,1,2,0:0:0:0:
303,288,138243,6,0,P|343:340|427:338,1,142.5,10|0,0:0|0:0,0:0:0:0:
385,270,138638,70,0,B|336:282|336:282|291:266|291:266|251:291|191:278,1,190,4|0,0:0|0:0,0:0:0:0:
231,199,138902,1,8,0:0:0:0:
489,302,139033,1,2,0:0:0:0:
231,199,139165,1,0,0:0:0:0:
339,17,139297,1,2,0:0:0:0:
339,17,139297,1,0,0:0:0:0:
339,17,139429,2,0,P|349:70|339:110,1,95,10|2,0:0|0:0,0:0:0:0:
66,283,139692,37,4,0:0:0:0:
253,93,139824,1,2,0:0:0:0:
341,346,139955,1,8,0:0:0:0:
176,140,140087,53,2,0:0:0:0:
176,140,140087,1,2,0:0:0:0:
176,140,140219,1,4,0:0:0:0:
426,324,140350,1,2,0:0:0:0:
456,29,140482,1,8,0:0:0:0:
69,186,140614,5,2,0:0:0:0:
69,186,140745,1,2,0:0:0:0:
69,186,140745,1,4,0:0:0:0:
472,197,140877,1,0,0:0:0:0:
121,36,141009,53,0,0:0:0:0:
426,324,141141,1,0,0:0:0:0:
279,0,141272,5,0,0:0:0:0:
264,377,141404,1,0,0:0:0:0:
433,53,141536,69,0,0:0:0:0:
109,330,141667,1,0,0:0:0:0:
279,0,141799,5,0,0:0:0:0:
313,51,141931,1,0,0:0:0:0:
318,112,141931,1,0,0:0:0:0:
289,166,142062,1,0,0:0:0:0:
240,205,142062,1,0,0:0:0:0:
211,259,142194,1,0,0:0:0:0:
216,320,142194,1,0,0:0:0:0:
250,371,142326,1,0,0:0:0:0:
311,375,142458,6,0,L|383:362,1,47.5,4|0,0:0|0:0,0:0:0:0:
414,188,142589,2,0,L|466:200,1,47.5
164,267,142721,2,0,L|236:254,1,47.5,4|0,0:0|0:0,0:0:0:0:
271,101,142853,2,0,L|323:113,1,47.5
124,119,142984,37,4,0:0:0:0:
10,349,144038,1,8,0:0:0:0:
8,339,145091,1,8,0:0:0:0:
455,183,146277,1,8,0:0:0:0:
136,288,147330,69,8,0:0:0:0:
134,278,148384,1,8,0:0:0:0:
134,268,149437,1,8,0:0:0:0:
415,309,150623,1,8,0:0:0:0:
150,143,151149,1,8,0:0:0:0:
150,143,151676,5,12,0:0:0:0:
257,128,152730,1,8,0:0:0:0:
287,319,153783,1,8,0:0:0:0:
215,23,154968,69,8,0:0:0:0:
176,346,156022,1,8,0:0:0:0:
130,59,157076,6,0,B|237:19|224:88|315:56,1,190,2|0,0:0|0:0,0:0:0:0:
256,192,158261,12,0,160236,0:0:0:0:
256,196,162607,69,12,0:0:0:0:
256,196,163134,1,8,0:0:0:0:
256,196,163660,1,8,0:0:0:0:
256,196,164187,1,8,0:0:0:0:
256,196,164714,1,8,0:0:0:0:
256,196,165241,1,8,0:0:0:0:
256,196,165899,1,8,0:0:0:0:
256,196,166426,1,8,0:0:0:0:
311,296,166953,5,8,0:0:0:0:
311,296,167479,1,8,0:0:0:0:
311,296,168006,1,8,0:0:0:0:
311,296,168533,1,8,0:0:0:0:
159,346,169060,69,8,0:0:0:0:
462,310,169718,1,8,0:0:0:0:
342,164,171299,70,0,P|286:185|225:77,1,190,8|8,0:0|0:0,0:0:0:0:
289,9,171694,2,0,L|488:27,1,190,8|8,0:0|0:0,0:0:0:0:
512,127,172089,2,0,P|512:175|491:219,1,95,2|0,0:0|0:0,0:0:0:0:
399,262,172352,6,0,B|333:255|333:255|193:283,1,190,8|8,0:0|0:0,0:0:0:0:
249,174,172747,2,0,B|127:198|127:198|61:191,1,190,8|8,0:0|0:0,0:0:0:0:
17,270,173274,2,0,P|10:318|35:369,1,95,2|0,0:0|0:0,0:0:0:0:
118,384,173537,70,0,B|192:378|192:378|244:387|244:387|317:382,1,190,8|8,0:0|0:0,0:0:0:0:
437,275,173932,2,0,B|374:279|374:279|322:270|322:270|248:276,1,190,8|8,0:0|0:0,0:0:0:0:
395,371,174328,2,0,L|502:364,1,95,2|0,0:0|0:0,0:0:0:0:
512,103,174591,6,0,P|432:101|382:199,1,190,8|8,0:0|0:0,0:0:0:0:
466,177,174986,2,0,P|421:120|312:138,1,190,8|8,0:0|0:0,0:0:0:0:
246,196,175381,2,0,P|193:205|143:203,1,95,2|0,0:0|0:0,0:0:0:0:
106,120,175645,70,0,L|135:309,1,190,8|8,0:0|0:0,0:0:0:0:
217,364,176040,2,0,P|281:373|338:265,1,190,8|8,0:0|0:0,0:0:0:0:
322,175,176435,2,0,B|312:130|312:130|319:68,1,95,2|0,0:0|0:0,0:0:0:0:
181,21,176698,6,0,B|206:121|206:121|192:220,1,190,8|8,0:0|0:0,0:0:0:0:
61,345,177225,2,0,B|36:245|36:245|50:146,1,190,8|8,0:0|0:0,0:0:0:0:
209,290,177620,2,0,L|207:390,1,95,2|0,0:0|0:0,0:0:0:0:
445,273,177883,70,0,B|440:146|306:132|306:132|175:198|175:198|43:200|25:73,1,570,0|8,0:0|0:0,0:0:0:0:
27,88,178937,5,8,0:0:0:0:
121,38,179727,70,0,L|196:53,1,47.5,8|0,0:0|0:0,0:0:0:0:
178,133,179990,22,0,P|234:92|256:235,1,285,4|8,0:0|0:0,0:0:0:0:
33,279,180386,5,0,0:0:0:0:
33,279,180517,1,0,0:0:0:0:
33,279,180517,1,2,0:0:0:0:
245,164,180649,1,0,0:0:0:0:
121,38,180912,1,8,0:0:0:0:
312,224,181044,5,0,0:0:0:0:
312,224,181044,1,0,0:0:0:0:
312,224,181176,2,0,P|333:184|326:129,1,95,2|0,0:0|0:0,0:0:0:0:
115,233,181439,2,0,L|126:337,1,95,8|0,0:0|0:0,0:0:0:0:
213,29,181702,6,0,B|168:23|168:23|100:44,1,95,2|0,0:0|0:0,0:0:0:0:
121,38,181834,1,0,0:0:0:0:
121,38,181966,1,10,0:0:0:0:
221,268,182098,1,0,0:0:0:0:
385,133,182229,54,0,L|372:38,1,95,2|0,0:0|0:0,0:0:0:0:
115,233,182493,2,0,L|128:331,1,95,8|0,0:0|0:0,0:0:0:0:
127,327,182624,1,0,0:0:0:0:
127,327,182756,1,2,0:0:0:0:
240,133,182888,1,0,0:0:0:0:
0,270,183019,1,10,0:0:0:0:
373,238,183151,1,0,0:0:0:0:
215,54,183283,5,2,0:0:0:0:
296,349,183414,1,0,0:0:0:0:
0,270,183546,1,10,0:0:0:0:
215,54,183678,1,0,0:0:0:0:
464,198,183810,2,0,L|456:299,1,95,2|0,0:0|0:0,0:0:0:0:
95,353,184073,5,8,0:0:0:0:
88,277,184205,1,8,0:0:0:0:
85,201,184205,1,0,0:0:0:0:
77,46,184336,38,0,B|149:32|149:32|225:57,1,142.5,4|0,0:0|0:0,0:0:0:0:
82,125,184336,1,8,0:0:0:0:
292,89,184731,5,8,0:0:0:0:
168,313,184863,1,0,0:0:0:0:
432,370,184995,2,0,L|438:184,1,142.5,2|0,0:0|0:0,0:0:0:0:
424,114,185258,1,8,0:0:0:0:
85,201,185390,1,0,0:0:0:0:
242,19,185522,70,0,L|263:245,1,190,2|0,0:0|0:0,0:0:0:0:
298,304,185785,2,0,L|314:160,1,142.5,8|0,0:0|0:0,0:0:0:0:
12,160,186048,6,0,P|4:212|35:260,1,95,2|0,0:0|0:0,0:0:0:0:
23,249,186180,1,0,0:0:0:0:
23,249,186312,1,10,0:0:0:0:
292,89,186443,1,2,0:0:0:0:
184,283,186575,6,0,L|178:183,1,95,2|0,0:0|0:0,0:0:0:0:
400,81,186839,2,0,L|394:175,1,95,8|0,0:0|0:0,0:0:0:0:
394,175,187102,1,0,0:0:0:0:
394,175,187102,1,2,0:0:0:0:
97,371,187234,1,2,0:0:0:0:
174,71,187365,1,10,0:0:0:0:
401,281,187497,1,2,0:0:0:0:
217,244,187629,38,2,P|201:208|203:163,1,47.5,2|0,0:0|0:0,0:0:0:0:
293,269,187892,54,0,P|268:306|166:307,1,142.5,12|0,0:0|0:0,0:0:0:0:
66,182,188155,54,0,P|111:155|215:256,1,190,12|0,0:0|0:0,0:0:0:0:
259,343,188419,1,8,0:0:0:0:
333,367,188551,1,0,0:0:0:0:
412,360,188682,1,8,0:0:0:0:
479,319,188682,1,8,0:0:0:0:
508,243,188814,22,0,L|496:139,1,95,6|0,0:0|0:0,0:0:0:0:
333,72,189077,1,8,0:0:0:0:
508,243,189209,1,2,0:0:0:0:
333,72,189341,2,0,L|322:176,1,95,2|0,0:0|0:0,0:0:0:0:
323,166,189472,1,0,0:0:0:0:
323,166,189604,1,10,0:0:0:0:
271,0,189736,1,2,0:0:0:0:
399,243,189868,54,0,P|361:268|299:267,1,95,2|0,0:0|0:0,0:0:0:0:
