osu file format v14

[General]
AudioFilename: audio.mp3
AudioLeadIn: 0
PreviewTime: -1
Countdown: 1
SampleSet: Normal
StackLeniency: 0.7
Mode: 0
LetterboxInBreaks: 0
WidescreenStoryboard: 0

[Editor]
Bookmarks: 177,13688,104183
DistanceSpacing: 1.5
BeatDivisor: 4
GridSize: 4
TimelineZoom: 0.8000001

[Metadata]
Title:going My way
TitleUnicode:going My way
Artist:denshadeD
ArtistUnicode:電車でD
Creator:kaz somei
Version:true duel
Source:
Tags:
BeatmapID:1409536
BeatmapSetID:665948

[Difficulty]
HPDrainRate:5
CircleSize:5
OverallDifficulty:5.7
ApproachRate:7
SliderMultiplier:1.4
SliderTickRate:1

[Events]
//Background and Video events
0,0,"b481e2d7_1351480701630.jpg",0,0
//Break Periods
2,68395,79678
//Storyboard Layer 0 (Background)
//Storyboard Layer 1 (Fail)
//Storyboard Layer 2 (Pass)
//Storyboard Layer 3 (Foreground)
//Storyboard Sound Samples

[TimingPoints]
88,386.971944534021,4,1,0,100,1,0
42074,-50,4,1,0,100,0,0
43428,-50,4,1,0,100,0,1
43815,-50,4,1,0,100,0,1
68195,-50,4,1,0,100,0,0
68291,-62.5,4,1,0,100,0,0
97991,-125,4,1,0,100,0,0
99152,-58.8235294117647,4,1,0,100,0,1
122371,-83.3333333333333,4,1,0,100,0,0
137656,-50,4,1,0,100,0,0
139204,-58.8235294117647,4,1,0,100,0,0
140752,-50,4,1,0,100,0,0
143848,-55.5555555555556,4,1,0,100,0,0
145492,-62.5,4,1,0,100,0,0
150039,-83.3333333333333,4,1,0,100,0,0
154876,-66.6666666666667,4,1,0,100,0,1

[Colours]
Combo1 : 157,79,79
Combo2 : 0,202,0
Combo3 : 18,124,255
Combo4 : 242,24,57

[HitObjects]
252,184,12465,5,0,0:0:0:0:
252,112,12660,1,0,0:0:0:0:
256,264,12858,1,8,0:0:0:0:
196,140,13245,1,0,0:0:0:0:
228,76,13438,1,0,0:0:0:0:
244,80,13535,1,0,0:0:0:0:
264,88,13632,1,0,0:0:0:0:
304,116,13825,1,0,0:0:0:0:
316,172,14024,5,0,0:0:0:0:
316,172,14218,1,0,0:0:0:0:
320,176,14401,1,8,0:0:0:0:
268,64,14696,1,0,0:0:0:0:
160,72,14889,1,0,0:0:0:0:
160,72,14986,1,0,0:0:0:0:
160,72,15083,1,8,0:0:0:0:
160,72,15276,1,0,0:0:0:0:
176,116,15566,5,0,0:0:0:0:
184,156,15760,1,0,0:0:0:0:
188,208,15953,1,0,0:0:0:0:
140,272,16340,1,0,0:0:0:0:
208,232,16534,1,0,0:0:0:0:
200,192,16631,1,0,0:0:0:0:
196,152,16727,1,0,0:0:0:0:
196,104,16921,1,0,0:0:0:0:
252,88,17114,6,0,L|264:156,1,70
320,104,17501,1,4,0:0:0:0:
338,82,17598,1,4,0:0:0:0:
376,108,17791,2,4,L|340:196,1,70
349,172,18275,1,4,0:0:0:0:
352,180,18468,1,0,0:0:0:0:
276,176,18662,5,0,0:0:0:0:
76,176,18856,1,0,0:0:0:0:
276,224,19049,1,0,0:0:0:0:
324,232,19308,1,0,0:0:0:0:
324,232,19533,2,0,L|364:228,2,35
320,224,19920,1,0,0:0:0:0:
252,192,20210,5,0,0:0:0:0:
256,52,20404,1,0,0:0:0:0:
252,192,20599,1,0,0:0:0:0:
372,112,20887,1,0,0:0:0:0:
376,116,21124,1,0,0:0:0:0:
376,116,21221,1,0,0:0:0:0:
376,116,21318,1,0,0:0:0:0:
372,112,21513,1,8,0:0:0:0:
260,108,21758,5,0,0:0:0:0:
172,276,21951,1,0,0:0:0:0:
348,272,22145,1,8,0:0:0:0:
260,224,22435,1,0,0:0:0:0:
264,180,22682,1,0,0:0:0:0:
264,180,22779,1,0,0:0:0:0:
264,180,22877,1,0,0:0:0:0:
264,180,23072,1,8,0:0:0:0:
268,168,23306,6,0,L|356:112,1,105
388,180,23790,2,0,L|228:232,1,140
180,200,24533,1,0,0:0:0:0:
172,96,24727,1,0,0:0:0:0:
232,108,24854,6,0,L|276:108,4,35
268,164,25507,2,0,L|376:168,1,105
344,236,26015,1,0,0:0:0:0:
264,232,26208,1,0,0:0:0:0:
156,184,26402,5,0,0:0:0:0:
146,85,26595,2,0,L|230:88,1,70
216,88,26982,2,0,P|288:112|216:184,1,210
223,187,27740,1,0,0:0:0:0:
212,124,27949,6,0,L|264:124,4,35
247,124,28533,1,0,0:0:0:0:
247,124,28627,1,0,0:0:0:0:
312,148,28820,2,0,P|296:212|180:212,1,175
184,180,29497,5,0,0:0:0:0:
184,184,29691,1,0,0:0:0:0:
160,124,29884,1,0,0:0:0:0:
160,124,29981,2,0,L|340:112,1,175
334,112,30774,1,0,0:0:0:0:
334,112,31045,6,0,L|392:116,4,35
372,116,31626,1,0,0:0:0:0:
452,132,31819,2,0,P|444:188|336:188,1,175,4|0,0:0|0:0,0:0:0:0:
272,184,32449,1,0,0:0:0:0:
136,200,32593,6,0,L|280:288,1,140
348,200,33367,1,0,0:0:0:0:
116,208,33561,1,0,0:0:0:0:
248,84,33754,1,0,0:0:0:0:
336,156,34141,5,0,0:0:0:0:
312,168,34238,1,0,0:0:0:0:
288,180,34335,1,0,0:0:0:0:
264,192,34431,1,0,0:0:0:0:
236,204,34528,1,0,0:0:0:0:
208,216,34625,1,0,0:0:0:0:
184,228,34721,1,0,0:0:0:0:
152,240,34818,1,0,0:0:0:0:
120,256,34915,1,0,0:0:0:0:
88,272,35302,2,0,L|176:232,1,70
120,152,35689,6,0,L|220:128,1,70
248,160,36076,1,0,0:0:0:0:
264,168,36173,1,0,0:0:0:0:
328,220,36366,2,0,L|368:148,1,70
424,188,36850,1,0,0:0:0:0:
288,140,37043,1,0,0:0:0:0:
288,140,37237,6,0,L|104:296,1,210
128,272,38011,1,0,0:0:0:0:
220,268,38978,6,0,L|92:196,1,140
97,199,39559,2,0,P|179:111|176:104,1,140
180,117,40139,2,0,L|240:161,1,70
144,224,42267,2,14,B|136:128|136:128|152:112|180:108|216:120|212:128|208:156|192:160|168:168|168:168|216:220,1,280
256,128,42848,2,14,B|256:208|256:212|260:216|268:224|280:228|288:232|308:228|320:216|324:192|328:168|320:120,1,210
380,240,43332,2,14,B|384:152|384:152|448:240|448:240|456:124,1,280
453,157,43815,1,4,0:0:0:0:
292,160,44009,1,0,0:0:0:0:
392,80,44202,1,0,0:0:0:0:
376,248,44396,1,0,0:0:0:0:
367,104,44589,2,4,L|179:104,1,175
136,184,44976,5,0,0:0:0:0:
336,192,45170,1,0,0:0:0:0:
220,96,45363,1,12,0:0:0:0:
228,318,45557,1,8,0:0:0:0:
228,228,45750,2,0,L|360:92,1,140
416,160,46137,2,0,L|272:304,1,140
252,340,46524,5,0,0:0:0:0:
116,176,46911,1,4,0:0:0:0:
348,188,47105,1,0,0:0:0:0:
116,176,47298,1,0,0:0:0:0:
116,124,47685,2,14,P|160:200|236:240,1,140
201,228,48072,2,14,B|304:216|360:128|356:128,1,140
324,167,48459,2,14,L|176:112,1,140
193,118,48846,1,14,0:0:0:0:
384,196,49233,1,0,0:0:0:0:
56,196,49426,1,0,0:0:0:0:
256,40,49620,5,0,0:0:0:0:
244,328,50007,2,0,L|248:144,1,140
336,132,50587,2,0,B|200:152|192:164|196:180|216:208|264:180|232:160|132:88,1,280
208,224,51555,2,0,L|368:208,1,140
380,140,51942,1,0,0:0:0:0:
216,136,52135,1,0,0:0:0:0:
368,208,52329,1,0,0:0:0:0:
248,68,52522,1,0,0:0:0:0:
296,136,52716,2,0,B|200:188|200:188|256:196,1,140
264,248,53103,1,0,0:0:0:0:
248,48,53296,1,0,0:0:0:0:
352,152,53683,2,0,B|172:148|172:148|168:264,1,280
256,192,54651,5,0,0:0:0:0:
260,192,54844,1,0,0:0:0:0:
260,192,55038,1,0,0:0:0:0:
336,156,55328,2,0,B|252:56|168:84|168:200,1,210
260,192,55811,5,12,0:0:0:0:
364,308,56005,1,0,0:0:0:0:
260,192,56198,1,12,0:0:0:0:
248,328,56392,1,0,0:0:0:0:
260,192,56585,1,12,0:0:0:0:
144,280,56779,1,0,0:0:0:0:
260,192,56972,1,12,0:0:0:0:
120,196,57166,1,0,0:0:0:0:
260,192,57359,5,12,0:0:0:0:
184,104,57553,1,0,0:0:0:0:
260,192,57746,1,12,0:0:0:0:
260,108,57940,1,0,0:0:0:0:
260,192,58133,1,12,0:0:0:0:
364,188,58327,1,0,0:0:0:0:
260,192,58520,1,12,0:0:0:0:
336,308,58714,1,0,0:0:0:0:
260,192,58907,5,8,0:0:0:0:
356,184,59294,2,0,L|200:176,2,140
368,120,59875,1,0,0:0:0:0:
260,180,60069,1,0,0:0:0:0:
152,248,60262,1,0,0:0:0:0:
24,328,60456,5,0,0:0:0:0:
344,168,60842,1,0,0:0:0:0:
68,176,61036,1,0,0:0:0:0:
212,176,61229,1,0,0:0:0:0:
156,156,61423,2,0,L|328:156,2,140
156,216,62003,6,0,P|244:296|348:200,1,280
352,136,62583,2,0,P|256:48|152:164,1,280
232,212,63357,1,0,0:0:0:0:
368,188,65099,5,0,0:0:0:0:
96,192,65486,1,0,0:0:0:0:
256,56,65679,1,0,0:0:0:0:
248,308,66066,1,0,0:0:0:0:
256,200,66453,1,0,0:0:0:0:
256,192,66647,8,0,68195,0:0:0:0:
352,120,80578,5,0,0:0:0:0:
244,192,80771,1,0,0:0:0:0:
120,244,80965,1,0,0:0:0:0:
453,62,81352,2,0,L|318:102,1,112
330,104,81642,1,0,0:0:0:0:
307,115,81739,1,0,0:0:0:0:
225,157,81932,1,0,0:0:0:0:
245,60,82126,6,0,L|130:57,2,112
382,67,82803,1,0,0:0:0:0:
426,172,82996,1,0,0:0:0:0:
409,196,83093,1,0,0:0:0:0:
387,221,83190,1,0,0:0:0:0:
305,268,83383,1,0,0:0:0:0:
275,139,83673,6,0,P|190:87|191:193,1,224
170,176,84447,2,0,P|230:233|236:113,1,224
402,153,85221,5,0,0:0:0:0:
236,241,85415,1,0,0:0:0:0:
141,207,85608,1,0,0:0:0:0:
141,207,85705,1,0,0:0:0:0:
103,88,85899,2,0,P|178:65|231:90,1,112
281,127,86382,2,0,L|168:151,1,112
99,168,86769,5,0,0:0:0:0:
196,286,86963,1,0,0:0:0:0:
197,82,87156,1,0,0:0:0:0:
396,187,87543,2,0,L|242:167,1,112
284,172,87833,1,0,0:0:0:0:
284,172,87930,1,0,0:0:0:0:
205,173,88124,1,0,0:0:0:0:
88,212,88317,5,0,0:0:0:0:
396,198,88511,1,0,0:0:0:0:
84,62,88704,1,0,0:0:0:0:
251,127,89091,1,0,0:0:0:0:
324,152,89285,1,0,0:0:0:0:
345,159,89381,1,0,0:0:0:0:
380,165,89478,1,0,0:0:0:0:
471,174,89672,1,0,0:0:0:0:
439,251,89865,6,0,P|388:287|326:265,2,112
365,152,90639,2,0,L|191:195,2,168
375,224,91413,5,0,0:0:0:0:
391,290,91606,2,0,L|252:301,1,112
279,298,91897,1,0,0:0:0:0:
190,289,92090,2,0,P|113:198|116:158,1,112
123,141,92574,1,0,0:0:0:0:
204,75,92767,1,0,0:0:0:0:
426,121,92961,5,0,0:0:0:0:
71,201,93541,1,0,0:0:0:0:
374,198,93734,1,0,0:0:0:0:
162,104,94702,5,0,0:0:0:0:
189,308,94896,1,0,0:0:0:0:
371,103,95089,1,0,0:0:0:0:
408,302,95283,1,0,0:0:0:0:
273,196,95573,1,0,0:0:0:0:
178,182,95863,2,0,P|118:166|106:111,1,112
250,187,97991,6,2,L|316:187,2,56
193,179,98669,6,0,L|112:134,1,84
123,129,99152,6,0,P|206:82|214:84,1,112
390,93,99539,1,4,0:0:0:0:
309,146,99733,1,0,0:0:0:0:
201,204,99926,1,0,0:0:0:0:
79,271,100120,1,0,0:0:0:0:
324,276,100313,1,4,0:0:0:0:
123,84,100507,1,0,0:0:0:0:
228,84,100700,6,0,P|296:116|296:176,1,140
288,248,101087,1,4,0:0:0:0:
68,252,101281,1,0,0:0:0:0:
376,124,101474,1,0,0:0:0:0:
160,136,101668,1,0,0:0:0:0:
300,68,101861,1,4,0:0:0:0:
252,208,102055,1,0,0:0:0:0:
204,328,102248,5,0,0:0:0:0:
176,140,102635,2,12,L|320:156,2,119.000002269745
292,184,103216,1,14,0:0:0:0:
184,180,103409,1,14,0:0:0:0:
292,184,103603,1,14,0:0:0:0:
184,180,103796,5,14,0:0:0:0:
108,176,104183,1,0,0:0:0:0:
308,336,104376,1,0,0:0:0:0:
372,100,104570,1,0,0:0:0:0:
308,92,104763,6,6,P|232:104|192:152,1,119.000002269745
160,200,105150,1,2,0:0:0:0:
148,312,105344,1,4,0:0:0:0:
268,256,105731,2,2,B|316:184|316:184|316:232,1,119.000002269745
180,256,106311,6,10,B|168:108|168:108|136:208,1,238.00000453949
144,84,107085,2,6,L|268:84,1,119.000002269745
332,80,107472,2,6,P|424:124|436:176,1,119.000002269745
452,196,107859,1,6,0:0:0:0:
352,188,108053,5,6,0:0:0:0:
300,120,108246,1,6,0:0:0:0:
268,92,108440,6,0,B|180:128|180:128|240:296,1,238.00000453949
320,200,109020,1,0,0:0:0:0:
144,200,109407,1,0,0:0:0:0:
368,104,109794,1,0,0:0:0:0:
336,200,110375,5,6,0:0:0:0:
148,120,110568,1,6,0:0:0:0:
328,112,110761,1,6,0:0:0:0:
152,208,111052,1,6,0:0:0:0:
240,56,111342,1,6,0:0:0:0:
248,288,111535,6,4,B|304:240|304:240|192:304|148:232,1,238.00000453949
168,176,112309,1,6,0:0:0:0:
372,180,112600,1,0,0:0:0:0:
264,92,112890,1,0,0:0:0:0:
256,276,113083,5,6,0:0:0:0:
156,184,113470,2,0,P|168:108|220:84,2,119.000002269745
268,120,114147,2,6,B|296:188|296:188|196:248|164:240,1,178.500003404617
112,264,114631,5,6,0:0:0:0:
140,132,115018,1,0,0:0:0:0:
384,144,115212,1,0,0:0:0:0:
140,132,115405,1,0,0:0:0:0:
384,200,115598,1,0,0:0:0:0:
136,200,115792,1,0,0:0:0:0:
388,268,115986,1,0,0:0:0:0:
136,268,116179,6,14,B|144:176|208:108|296:96|296:96|288:232|120:268,1,476.00000907898
376,208,117147,1,0,0:0:0:0:
176,208,117340,1,0,0:0:0:0:
388,132,117533,1,0,0:0:0:0:
184,128,117727,5,0,0:0:0:0:
244,80,118114,1,0,0:0:0:0:
248,272,118307,1,0,0:0:0:0:
144,160,118694,1,0,0:0:0:0:
236,160,119081,1,0,0:0:0:0:
336,212,119468,1,4,0:0:0:0:
420,44,119662,1,4,0:0:0:0:
248,168,119855,1,4,0:0:0:0:
480,72,120049,1,4,0:0:0:0:
282,69,120242,1,4,0:0:0:0:
476,220,120436,1,4,0:0:0:0:
304,232,120629,1,4,0:0:0:0:
152,200,120823,6,0,P|164:100|296:76,1,238.00000453949
282,69,121403,1,0,0:0:0:0:
324,152,121790,2,0,B|328:232|328:232|228:140|232:144|232:144|232:264,1,297.500005674362
232,76,123919,5,0,0:0:0:0:
252,80,124015,1,0,0:0:0:0:
276,92,124112,1,0,0:0:0:0:
304,112,124209,1,0,0:0:0:0:
320,128,124305,1,0,0:0:0:0:
336,148,124402,1,0,0:0:0:0:
344,172,124499,1,0,0:0:0:0:
352,200,124596,1,0,0:0:0:0:
344,264,124886,2,0,L|248:256,2,83.9999974365235
348,204,125466,6,0,B|348:116|348:116|252:116,1,167.999994873047
264,116,126240,2,0,B|176:116|176:116|176:196,1,167.999994873047
232,48,127014,5,0,0:0:0:0:
232,68,127111,1,0,0:0:0:0:
232,88,127208,1,0,0:0:0:0:
232,112,127305,1,0,0:0:0:0:
232,132,127401,1,0,0:0:0:0:
232,156,127498,1,0,0:0:0:0:
232,176,127595,1,0,0:0:0:0:
232,200,127691,1,0,0:0:0:0:
232,220,127788,1,0,0:0:0:0:
236,288,127982,2,0,L|356:284,2,83.9999974365235
152,136,128562,5,0,0:0:0:0:
152,136,128659,1,0,0:0:0:0:
304,136,128852,1,0,0:0:0:0:
304,136,128949,1,0,0:0:0:0:
440,140,129143,1,0,0:0:0:0:
440,140,129239,1,0,0:0:0:0:
284,248,129530,2,0,B|228:244|232:244|232:192,2,83.9999974365235
128,44,130110,5,0,0:0:0:0:
132,72,130207,1,0,0:0:0:0:
140,96,130304,1,0,0:0:0:0:
152,116,130400,1,0,0:0:0:0:
164,140,130497,1,0,0:0:0:0:
184,160,130594,1,0,0:0:0:0:
204,180,130691,1,0,0:0:0:0:
232,200,130787,1,0,0:0:0:0:
260,216,130884,1,0,0:0:0:0:
324,244,131078,2,0,P|248:220|232:232,2,83.9999974365235
160,296,131658,6,0,B|152:192|152:192|208:116,1,167.999994873047
336,168,132432,1,0,0:0:0:0:
160,176,132625,1,0,0:0:0:0:
320,96,132819,1,0,0:0:0:0:
212,248,133012,1,0,0:0:0:0:
316,152,133206,5,0,0:0:0:0:
320,172,133303,1,0,0:0:0:0:
324,188,133399,1,0,0:0:0:0:
320,208,133496,1,0,0:0:0:0:
312,232,133593,1,0,0:0:0:0:
300,248,133690,1,0,0:0:0:0:
288,264,133786,1,0,0:0:0:0:
268,280,133883,1,0,0:0:0:0:
248,296,134077,6,0,P|184:324|128:296,1,125.999996154785
135,303,134560,1,0,0:0:0:0:
116,132,134754,6,0,L|152:52,1,83.9999974365235
268,80,135141,2,0,L|244:128,1,41.9999987182618
116,128,135431,2,0,B|184:36|184:36,1,83.9999974365235
260,76,135915,2,0,L|212:172,1,83.9999974365235
140,128,136302,6,0,B|164:72|312:36|416:200|416:200|240:216,1,503.999984619141
152,344,137850,6,0,B|148:44|144:44|144:44|284:40|300:128|272:152|152:152|152:152|344:324,1,839.999974365235
140,56,139397,6,0,B|144:184|148:288|148:296|156:308|164:320|144:372|220:408|324:388|328:308|328:256|312:36,1,714.000013618469
152,312,140945,6,0,B|148:64|148:64|320:332|320:332|316:28,1,840
128,344,142493,6,0,B|132:36|132:36|292:20|432:192|264:388|88:356|128:344,1,840
108,36,144041,6,0,B|108:160|112:308|92:368|188:388|296:380|332:320|356:236|340:160|324:12,1,755.999976928712
324,72,145589,6,0,B|140:72|140:72|140:184|140:184|292:184|292:184|140:184|140:184|144:296|144:296|344:300,1,896
208,40,147524,6,0,B|212:324|212:324|384:328,1,448
344,256,148588,5,0,0:0:0:0:
408,264,148781,1,0,0:0:0:0:
200,248,149265,1,0,0:0:0:0:
144,284,149458,1,0,0:0:0:0:
224,72,150426,5,0,0:0:0:0:
144,268,150619,1,0,0:0:0:0:
344,168,150813,1,0,0:0:0:0:
124,148,151006,1,0,0:0:0:0:
316,264,151296,1,0,0:0:0:0:
224,176,151587,1,0,0:0:0:0:
256,196,151780,1,0,0:0:0:0:
396,176,153715,5,0,0:0:0:0:
256,176,153909,1,0,0:0:0:0:
120,184,154102,1,0,0:0:0:0:
316,260,154393,1,0,0:0:0:0:
200,88,154683,1,0,0:0:0:0:
180,264,154876,6,0,P|288:220|336:144,1,210.000008010865
372,48,155457,1,0,0:0:0:0:
356,136,155650,1,0,0:0:0:0:
384,308,155844,1,0,0:0:0:0:
160,140,156037,1,0,0:0:0:0:
216,336,156231,1,0,0:0:0:0:
288,224,156424,6,0,P|312:152|280:96,1,105.000004005432
252,56,156811,1,0,0:0:0:0:
184,264,157005,1,0,0:0:0:0:
324,72,157198,1,0,0:0:0:0:
256,272,157392,1,0,0:0:0:0:
408,72,157585,1,0,0:0:0:0:
336,260,157779,1,0,0:0:0:0:
440,168,157972,1,0,0:0:0:0:
364,112,158939,5,0,0:0:0:0:
168,112,159133,1,0,0:0:0:0:
168,268,159326,1,0,0:0:0:0:
368,268,159520,5,0,0:0:0:0:
336,108,160487,2,0,L|184:108,1,105.000004005432
232,184,160874,6,0,L|352:184,1,105.000004005432
344,268,161455,2,0,L|228:264,1,105.000004005432
216,264,162035,2,0,P|164:176|208:88,1,210.000008010865
256,76,162809,1,0,0:0:0:0:
176,280,163003,1,0,0:0:0:0:
356,168,163196,1,0,0:0:0:0:
148,172,163390,1,0,0:0:0:0:
360,300,163583,1,0,0:0:0:0:
256,76,163777,1,0,0:0:0:0:
176,280,163970,1,0,0:0:0:0:
320,88,164164,6,0,P|368:172|284:288,1,210.000008010865
252,296,164744,1,0,0:0:0:0:
176,300,165131,2,0,P|104:264|100:136,1,210.000008010865
340,148,166098,5,0,0:0:0:0:
112,152,166292,1,0,0:0:0:0:
340,208,166485,1,0,0:0:0:0:
156,216,166776,1,0,0:0:0:0:
308,276,167066,1,0,0:0:0:0:
200,276,167259,5,0,0:0:0:0:
304,92,167646,2,0,B|240:88|240:88|244:152,1,105.000004005432
240,176,168033,2,0,B|244:240|244:240|176:240,1,105.000004005432
192,240,168324,1,0,0:0:0:0:
308,236,168614,1,0,0:0:0:0:
372,188,168807,5,0,0:0:0:0:
372,144,169194,2,0,B|380:84|380:84|328:80,1,105.000004005432
272,68,169581,2,0,B|200:68|200:68|216:136,1,105.000004005432
216,136,169871,1,0,0:0:0:0:
216,224,170162,1,0,0:0:0:0:
224,308,170355,5,0,0:0:0:0:
256,148,171323,2,0,P|180:152|172:192,3,105.000004005432
344,192,172870,5,0,0:0:0:0:
160,192,173064,1,0,0:0:0:0:
368,112,173451,2,0,L|116:116,1,210.000008010865
158,115,174032,1,0,0:0:0:0:
172,252,174418,6,0,L|392:240,1,210.000008010865
372,112,175192,1,0,0:0:0:0:
168,124,175386,1,0,0:0:0:0:
368,192,175579,1,0,0:0:0:0:
180,200,175773,1,0,0:0:0:0:
264,60,175966,1,0,0:0:0:0:
268,152,176160,5,0,0:0:0:0:
276,268,176353,1,0,0:0:0:0:
176,124,176547,6,0,L|400:112,1,210.000008010865
400,192,177127,1,0,0:0:0:0:
280,280,177514,1,0,0:0:0:0:
144,320,177901,1,0,0:0:0:0:
360,148,178095,5,0,0:0:0:0:
108,160,178288,1,0,0:0:0:0:
368,80,178482,1,0,0:0:0:0:
168,248,178675,1,0,0:0:0:0:
268,56,178869,1,0,0:0:0:0:
272,268,179062,1,0,0:0:0:0:
192,64,179256,1,4,0:0:0:0:
