osu file format v14

[General]
AudioFilename: audio.mp3
AudioLeadIn: 0
PreviewTime: -1
Countdown: 1
SampleSet: Normal
StackLeniency: 0.7
Mode: 0
LetterboxInBreaks: 0
WidescreenStoryboard: 1

[Editor]
Bookmarks: 177,13688,104183
DistanceSpacing: 1.5
BeatDivisor: 4
GridSize: 4
TimelineZoom: 0.8000001

[Metadata]
Title:going My way
TitleUnicode:going My way
Artist:denshadeD
ArtistUnicode:電車でD
Creator:kaz somei
Version:Easy race
Source:
Tags:
BeatmapID:1409535
BeatmapSetID:665948

[Difficulty]
HPDrainRate:1.8
CircleSize:3.5
OverallDifficulty:5
ApproachRate:6
SliderMultiplier:1.4
SliderTickRate:1

[Events]
//Background and Video events
0,0,"b481e2d7_1351480701630.jpg",0,0
//Break Periods
//Storyboard Layer 0 (Background)
//Storyboard Layer 1 (Fail)
//Storyboard Layer 2 (Pass)
//Storyboard Layer 3 (Foreground)
//Storyboard Sound Samples

[TimingPoints]
88,386.971944534021,4,1,0,100,1,0
42074,-66.6666666666667,4,1,0,100,0,0
43428,-50,4,1,0,100,0,1
43815,-66.6666666666667,4,1,0,100,0,1
68195,-50,4,1,0,100,0,0
68291,-62.5,4,1,0,100,0,0
97991,-125,4,1,0,100,0,0
99152,-58.8235294117647,4,1,0,100,0,1
122371,-83.3333333333333,4,1,0,100,0,0
137656,-50,4,1,0,100,0,0
139204,-58.8235294117647,4,1,0,100,0,0
140752,-50,4,1,0,100,0,0
143848,-55.5555555555556,4,1,0,100,0,0
145492,-62.5,4,1,0,100,0,0
150039,-83.3333333333333,4,1,0,100,0,0
154876,-66.6666666666667,4,1,0,100,0,1

[Colours]
Combo1 : 157,79,79
Combo2 : 0,202,0
Combo3 : 18,124,255
Combo4 : 242,24,57

[HitObjects]
396,152,12471,6,0,B|308:80|208:64|208:64|212:216|212:216|248:272,1,420
132,296,14018,6,0,B|104:176|200:72|320:76|364:96|392:152|392:192,1,420
184,316,15566,6,0,B|280:96|280:96|332:292,1,420
320,140,17114,5,0,0:0:0:0:
200,176,17501,1,0,0:0:0:0:
200,212,17888,1,0,0:0:0:0:
248,308,18275,1,0,0:0:0:0:
144,288,18662,6,0,B|144:128|144:128|292:128|292:128|288:264,1,420
256,276,20210,6,0,B|436:280|436:280|432:84|432:80|428:72|420:68|408:72|396:68|380:72,1,420
232,52,21758,6,0,B|184:56|184:56|148:72|140:100|152:144|164:192|216:228|260:260|256:312|228:328|212:332|200:328|192:324|180:316|144:272,1,420
232,144,23306,5,0,0:0:0:0:
352,132,24080,1,0,0:0:0:0:
304,216,24467,1,0,0:0:0:0:
140,232,24854,6,0,P|96:152|332:72,1,420
352,92,26402,6,0,L|420:144,2,70
336,112,27176,2,0,L|292:184,2,70
336,104,27949,2,0,B|176:44|104:80|96:100|92:112|96:120|96:124|96:128|100:128|104:132|112:140|120:144|128:152|136:168|132:176|120:184|108:188|92:208|96:244|136:272,1,420
244,272,29497,6,0,L|316:268,2,70
236,168,30271,2,0,L|332:164,2,70
264,32,31045,6,0,B|232:60|232:72|248:92|292:112|304:124|300:144|292:148|280:152|260:156|232:168|208:176|220:204|248:212|264:216|296:228|308:244|316:252|308:268|288:272|268:272|240:276|228:288|224:296|240:320|256:336|296:336|320:332|356:312|360:304,1,420
416,300,32593,6,0,B|456:248|452:204|440:200|436:196|432:196|420:196|368:188|368:188|356:192|348:200|344:212|344:224|344:232|344:240|336:244|332:248|316:252|312:252|304:252|296:244|284:240|272:228|264:220|264:208|264:200|264:184|268:172|272:164|288:120,1,420
296,92,34141,6,0,B|220:72|220:72|204:196|204:200|296:208|308:204|328:200|344:188|364:168|368:136|360:112|360:88|392:72,1,420
368,84,35689,5,0,0:0:0:0:
320,144,36463,1,0,0:0:0:0:
296,168,36850,1,0,0:0:0:0:
260,188,37043,2,0,L|204:136,1,70
96,216,37817,6,0,L|168:268,1,70
264,76,38978,5,0,0:0:0:0:
264,76,39172,1,0,0:0:0:0:
264,76,39365,1,0,0:0:0:0:
264,76,39559,2,0,P|260:96|160:164,1,140
170,164,40139,2,0,L|96:120,1,70
260,184,42267,6,0,B|180:172|180:172|204:112,1,105.000004005432
208,112,42654,2,0,P|268:60|400:96,1,210.000008010865
428,116,43235,2,0,P|464:188|448:208,1,105.000004005432
380,208,43815,6,0,P|312:240|176:212,1,210.000008010865
152,196,44396,1,0,0:0:0:0:
232,80,44783,1,0,0:0:0:0:
112,88,44976,5,0,0:0:0:0:
132,176,45363,2,0,P|208:240|352:256,1,210.000008010865
360,264,45944,1,0,0:0:0:0:
392,96,46331,2,0,L|272:96,1,105.000004005432
292,168,47492,6,0,L|180:172,1,105.000004005432
184,260,47879,2,0,L|312:256,1,105.000004005432
296,88,49039,6,0,L|184:100,2,105.000004005432
340,80,49620,5,0,0:0:0:0:
432,76,50007,2,0,P|444:164|404:184,1,105.000004005432
360,168,50587,2,0,B|280:200|232:128|208:120|200:120|200:128|152:176,1,210.000008010865
252,44,52716,6,0,B|212:108|228:128|248:136|272:144|296:168|296:188|256:212|240:228,1,210.000008010865
247,221,53296,1,0,0:0:0:0:
244,80,53683,1,0,0:0:0:0:
308,76,54070,1,0,0:0:0:0:
264,140,54651,6,0,L|148:144,2,105.000004005432
264,140,55231,2,0,P|344:168|336:300,1,210.000008010865
356,276,55811,5,0,0:0:0:0:
248,232,56198,2,0,L|164:156,1,105.000004005432
124,104,56585,2,0,P|212:64|328:116,1,210.000008010865
368,152,57166,2,0,L|272:196,1,105.000004005432
252,196,57746,5,0,0:0:0:0:
252,88,58133,2,0,P|172:88|104:200,1,210.000008010865
108,280,58714,1,0,0:0:0:0:
108,280,58907,1,0,0:0:0:0:
300,148,59875,6,0,P|220:168|212:200,3,105.000004005432
208,136,61423,5,0,0:0:0:0:
236,136,61617,1,0,0:0:0:0:
264,140,61810,1,0,0:0:0:0:
300,144,62003,6,0,P|368:168|304:288,1,210.000008010865
280,304,62583,2,0,P|172:276|192:160,1,210.000008010865
165,191,63357,1,0,0:0:0:0:
232,88,65099,6,0,L|336:140,1,105.000004005432
300,208,65486,2,0,L|196:152,1,105.000004005432
228,220,66066,1,0,0:0:0:0:
284,140,66453,6,0,B|184:136|116:128|116:128|176:36|176:36|204:196|212:276|216:288|232:296|256:304|272:304|292:304|324:288|344:268|344:268|332:200|388:88|388:88|280:144,1,945.00003604889
