osu file format v14

[General]
AudioFilename: audio.ogg
AudioLeadIn: 0
PreviewTime: 92343
Countdown: 0
SampleSet: Soft
StackLeniency: 0.2
Mode: 0
LetterboxInBreaks: 0
EpilepsyWarning: 1
WidescreenStoryboard: 1

[Editor]
Bookmarks: 29713,44937,58593
DistanceSpacing: 0.1
BeatDivisor: 4
GridSize: 16
TimelineZoom: 1.6

[Metadata]
Title:Saihate no Yuusha ni Love Song o
TitleUnicode:最果ての勇者にラブソングを
Artist:deli. + dadaco
ArtistUnicode:deli.+駄々子
Creator:Hey lululu
Version:LOVE
Source:SOUND VOLTEX EXCEED GEAR
Tags:SDVX VI eg konami BPLS2 BEMANI PRO LEAGUE -SEASON 2- arcade rhythm video game english metal Stuvz oTwinkle Poyoyo GfMRT YamYA Silent_Rock Silent Rock Matsuyuki_Ame Matsuyuki Ame Leegod Nerova_Riuz_GX Nerova Riuz GX MiyohashiKoori RiverKnowFarm Sanayui Alty -_AzRaeL_- AzRaeL JHC_ arronchu1207 lu^3
BeatmapID:3985631
BeatmapSetID:1929593

[Difficulty]
HPDrainRate:5
CircleSize:4.5
OverallDifficulty:10
ApproachRate:10
SliderMultiplier:1.8
SliderTickRate:1

[Events]
//Background and Video events
0,0,"BG.jpg",0,0
//Break Periods
2,16369,29263
//Storyboard Layer 0 (Background)
//Storyboard Layer 1 (Fail)
//Storyboard Layer 2 (Pass)
//Storyboard Layer 3 (Foreground)
Sprite,Foreground,Centre,"sb\glow.png",476,247 S,0,112322,,0.5 C,0,112322,,255,128,192 F,0,112322,112822,1,0
Sprite,Foreground,Centre,"sb\glow.png",461.0726,216.804 S,0,112349,,0.5 C,0,112349,,255,128,192 F,0,112349,112849,1,0
Sprite,Foreground,Centre,"sb\glow.png",472.7944,185.155 S,0,112377,,0.5 C,0,112377,,255,128,192 F,0,112377,112877,1,0
Sprite,Foreground,Centre,"sb\glow.png",490.6973,160.0908 S,0,112405,,0.5 C,0,112405,,255,128,192 F,0,112405,112905,1,0
Sprite,Foreground,Centre,"sb\glow.png",502.0696,128.4517 S,0,112433,,0.5 C,0,112433,,255,128,192 F,0,112433,112933,1,0
Sprite,Foreground,Centre,"sb\glow.png",507.7334,104.3814 S,0,112461,,0.5 C,0,112461,,255,128,192 F,0,112461,112961,1,0
Sprite,Foreground,Centre,"sb\glow.png",521.6631,73.64011 S,0,112489,,0.5 C,0,112489,,255,128,192 F,0,112489,112989,1,0
Sprite,Foreground,Centre,"sb\glow.png",535.5927,42.89882 S,0,112517,,0.5 C,0,112517,,255,128,192 F,0,112517,113017,1,0
Sprite,Foreground,Centre,"sb\glow.png",536.8851,74.75126 S,0,112545,,0.5 C,0,112545,,255,128,192 F,0,112545,113045,1,0
Sprite,Foreground,Centre,"sb\glow.png",548.01,115.7314 S,0,112573,,0.5 C,0,112573,,255,128,192 F,0,112573,113073,1,0
Sprite,Foreground,Centre,"sb\glow.png",557.4466,150.4924 S,0,112601,,0.5 C,0,112601,,255,128,192 F,0,112601,113101,1,0
Sprite,Foreground,Centre,"sb\glow.png",563.7628,173.7588 S,0,112629,,0.5 C,0,112629,,255,128,192 F,0,112629,113129,1,0
Sprite,Foreground,Centre,"sb\glow.png",565.9999,181.9997 S,0,112657,,0.5 C,0,112657,,255,128,192 F,0,112657,113157,1,0
Sprite,Foreground,Centre,"sb\glow.png",580.8319,212.0027 S,0,112685,,0.5 C,0,112685,,255,128,192 F,0,112685,113185,1,0
Sprite,Foreground,Centre,"sb\glow.png",569.2806,243.6424 S,0,112713,,0.5 C,0,112713,,255,128,192 F,0,112713,113213,1,0
Sprite,Foreground,Centre,"sb\glow.png",551.4173,268.7488 S,0,112741,,0.5 C,0,112741,,255,128,192 F,0,112741,113241,1,0
Sprite,Foreground,Centre,"sb\glow.png",540.0032,300.3458 S,0,112769,,0.5 C,0,112769,,255,128,192 F,0,112769,113269,1,0
Sprite,Foreground,Centre,"sb\glow.png",534.3029,324.4645 S,0,112797,,0.5 C,0,112797,,255,128,192 F,0,112797,113297,1,0
Sprite,Foreground,Centre,"sb\glow.png",520.4261,355.1631 S,0,112825,,0.5 C,0,112825,,255,128,192 F,0,112825,113325,1,0
Sprite,Foreground,Centre,"sb\glow.png",506.4964,385.9044 S,0,112853,,0.5 C,0,112853,,255,128,192 F,0,112853,113353,1,0
Sprite,Foreground,Centre,"sb\glow.png",477.45,402.6302 S,0,112881,,0.5 C,0,112881,,255,128,192 F,0,112881,113381,1,0
Sprite,Foreground,Centre,"sb\glow.png",441.084,402.4569 S,0,112909,,0.5 C,0,112909,,255,128,192 F,0,112909,113409,1,0
Sprite,Foreground,Centre,"sb\glow.png",410.156,402.2177 S,0,112937,,0.5 C,0,112937,,255,128,192 F,0,112937,113437,1,0
Sprite,Foreground,Centre,"sb\glow.png",389.4124,402.0573 S,0,112965,,0.5 C,0,112965,,255,128,192 F,0,112965,113465,1,0
Sprite,Foreground,Centre,"sb\glow.png",382.0012,402 S,0,112993,,0.5 C,0,112993,,255,128,192 F,0,112993,113493,1,0
Sprite,Foreground,Centre,"sb\glow.png",371.6011,398.1004 S,0,113021,,0.5 C,0,113021,,128,128,192 F,0,113021,113521,1,0
Sprite,Foreground,Centre,"sb\glow.png",361.0674,394.1503 S,0,113049,,0.5 C,0,113049,,128,128,192 F,0,113049,113549,1,0
Sprite,Foreground,Centre,"sb\glow.png",350.5337,390.2002 S,0,113077,,0.5 C,0,113077,,128,128,192 F,0,113077,113577,1,0
Sprite,Foreground,Centre,"sb\glow.png",340,386.25 S,0,113105,,0.5 C,0,113105,,128,128,192 F,0,113105,113605,1,0
Sprite,Foreground,Centre,"sb\glow.png",329.4663,382.2999 S,0,113133,,0.5 C,0,113133,,128,128,192 F,0,113133,113633,1,0
Sprite,Foreground,Centre,"sb\glow.png",322.1358,374.5046 S,0,113161,,0.5 C,0,113161,,128,128,192 F,0,113161,113661,1,0
Sprite,Foreground,Centre,"sb\glow.png",323.0379,364.5182 S,0,113189,,0.5 C,0,113189,,128,128,192 F,0,113189,113689,1,0
Sprite,Foreground,Centre,"sb\glow.png",327.7048,354.3062 S,0,113217,,0.5 C,0,113217,,128,128,192 F,0,113217,113717,1,0
Sprite,Foreground,Centre,"sb\glow.png",332.4193,344.0916 S,0,113245,,0.5 C,0,113245,,128,128,192 F,0,113245,113745,1,0
Sprite,Foreground,Centre,"sb\glow.png",337.1337,333.8771 S,0,113273,,0.5 C,0,113273,,128,128,192 F,0,113273,113773,1,0
Sprite,Foreground,Centre,"sb\glow.png",341.8481,323.6626 S,0,113301,,0.5 C,0,113301,,128,128,192 F,0,113301,113801,1,0
Sprite,Foreground,Centre,"sb\glow.png",349.6523,316.6241 S,0,113329,,0.5 C,0,113329,,128,128,192 F,0,113329,113829,1,0
Sprite,Foreground,Centre,"sb\glow.png",359.9927,313.8523 S,0,113357,,0.5 C,0,113357,,128,128,192 F,0,113357,113857,1,0
Sprite,Foreground,Centre,"sb\glow.png",370.4912,317.8043 S,0,113385,,0.5 C,0,113385,,128,128,192 F,0,113385,113885,1,0
Sprite,Foreground,Centre,"sb\glow.png",380.9913,321.8428 S,0,113413,,0.5 C,0,113413,,128,128,192 F,0,113413,113913,1,0
Sprite,Foreground,Centre,"sb\glow.png",391.4915,325.8813 S,0,113441,,0.5 C,0,113441,,128,128,192 F,0,113441,113941,1,0
Sprite,Foreground,Centre,"sb\glow.png",401.9916,329.9198 S,0,113469,,0.5 C,0,113469,,128,128,192 F,0,113469,113969,1,0
Sprite,Foreground,Centre,"sb\glow.png",410.9308,335.5402 S,0,113497,,0.5 C,0,113497,,128,128,192 F,0,113497,113997,1,0
Sprite,Foreground,Centre,"sb\glow.png",412.5287,345.8236 S,0,113525,,0.5 C,0,113525,,128,128,192 F,0,113525,114025,1,0
Sprite,Foreground,Centre,"sb\glow.png",407.6512,355.9242 S,0,113553,,0.5 C,0,113553,,128,128,192 F,0,113553,114053,1,0
Sprite,Foreground,Centre,"sb\glow.png",402.6911,366.0217 S,0,113581,,0.5 C,0,113581,,128,128,192 F,0,113581,114081,1,0
Sprite,Foreground,Centre,"sb\glow.png",397.7309,376.1192 S,0,113609,,0.5 C,0,113609,,128,128,192 F,0,113609,114109,1,0
Sprite,Foreground,Centre,"sb\glow.png",392.7708,386.2167 S,0,113637,,0.5 C,0,113637,,128,128,192 F,0,113637,114137,1,0
Sprite,Foreground,Centre,"sb\glow.png",387.8106,396.3141 S,0,113665,,0.5 C,0,113665,,128,128,192 F,0,113665,114165,1,0
Sprite,Foreground,Centre,"sb\glow.png",388.2231,402.7334 S,0,113693,,0.5 C,0,113693,,128,128,192 F,0,113693,114193,1,0
Sprite,Foreground,Centre,"sb\glow.png",388.6322,408.1396 S,0,113721,,0.5 C,0,113721,,128,128,192 F,0,113721,114221,1,0
Sprite,Foreground,Centre,"sb\glow.png",388.9052,411.7467 S,0,113749,,0.5 C,0,113749,,128,128,192 F,0,113749,114249,1,0
Sprite,Foreground,Centre,"sb\glow.png",388.4097,412.8116 S,0,113777,,0.5 C,0,113777,,128,128,192 F,0,113777,114277,1,0
Sprite,Foreground,Centre,"sb\glow.png",316.5468,389.8766 S,0,113805,,0.5 C,0,113805,,128,128,192 F,0,113805,114305,1,0
Sprite,Foreground,Centre,"sb\glow.png",255.7027,370.4583 S,0,113833,,0.5 C,0,113833,,128,128,192 F,0,113833,114333,1,0
Sprite,Foreground,Centre,"sb\glow.png",215.1305,357.5097 S,0,113861,,0.5 C,0,113861,,128,128,192 F,0,113861,114361,1,0
Sprite,Foreground,Centre,"sb\glow.png",200.8427,353.1202 S,0,113889,,0.5 C,0,113889,,136,0,136 F,0,113889,114389,1,0
Sprite,Foreground,Centre,"sb\glow.png",174.0225,373.6078 S,0,113917,,0.5 C,0,113917,,136,0,136 F,0,113917,114417,1,0
Sprite,Foreground,Centre,"sb\glow.png",147.285,394.1072 S,0,113945,,0.5 C,0,113945,,136,0,136 F,0,113945,114445,1,0
Sprite,Foreground,Centre,"sb\glow.png",134.824,416.5328 S,0,113973,,0.5 C,0,113973,,136,0,136 F,0,113973,114473,1,0
Sprite,Foreground,Centre,"sb\glow.png",167.2199,425.9968 S,0,114001,,0.5 C,0,114001,,136,0,136 F,0,114001,114501,1,0
Sprite,Foreground,Centre,"sb\glow.png",199.5893,435.401 S,0,114029,,0.5 C,0,114029,,136,0,136 F,0,114029,114529,1,0
Sprite,Foreground,Centre,"sb\glow.png",227.2418,434.4922 S,0,114057,,0.5 C,0,114057,,136,0,136 F,0,114057,114557,1,0
Sprite,Foreground,Centre,"sb\glow.png",217.4749,402.1863 S,0,114085,,0.5 C,0,114085,,136,0,136 F,0,114085,114585,1,0
Sprite,Foreground,Centre,"sb\glow.png",208.3731,369.8559 S,0,114113,,0.5 C,0,114113,,136,0,136 F,0,114113,114613,1,0
Sprite,Foreground,Centre,"sb\glow.png",309.2918,334.3098 S,0,114141,,0.5 C,0,114141,,136,0,136 F,0,114141,114641,1,0
Sprite,Foreground,Centre,"sb\glow.png",394.8027,304.1908 S,0,114169,,0.5 C,0,114169,,136,0,136 F,0,114169,114669,1,0
Sprite,Foreground,Centre,"sb\glow.png",451.9286,284.0696 S,0,114196,,0.5 C,0,114196,,136,0,136 F,0,114196,114696,1,0
Sprite,Foreground,Centre,"sb\glow.png",472,277 S,0,114224,,0.5 C,0,114224,,136,0,136 F,0,114224,114724,1,0
Sprite,Foreground,Centre,"sb\glow.png",498.4852,256.1103 S,0,114252,,0.5 C,0,114252,,136,0,136 F,0,114252,114752,1,0
Sprite,Foreground,Centre,"sb\glow.png",524.9845,235.2094 S,0,114280,,0.5 C,0,114280,,136,0,136 F,0,114280,114780,1,0
Sprite,Foreground,Centre,"sb\glow.png",537.1899,212.4852 S,0,114308,,0.5 C,0,114308,,136,0,136 F,0,114308,114808,1,0
Sprite,Foreground,Centre,"sb\glow.png",504.8178,203.0142 S,0,114336,,0.5 C,0,114336,,136,0,136 F,0,114336,114836,1,0
Sprite,Foreground,Centre,"sb\glow.png",472.4218,193.5502 S,0,114364,,0.5 C,0,114364,,136,0,136 F,0,114364,114864,1,0
Sprite,Foreground,Centre,"sb\glow.png",445.7663,195.4865 S,0,114392,,0.5 C,0,114392,,136,0,136 F,0,114392,114892,1,0
Sprite,Foreground,Centre,"sb\glow.png",455.5137,227.7762 S,0,114420,,0.5 C,0,114420,,136,0,136 F,0,114420,114920,1,0
Sprite,Foreground,Centre,"sb\glow.png",465.2806,260.0821 S,0,114448,,0.5 C,0,114448,,136,0,136 F,0,114448,114948,1,0
Sprite,Foreground,Centre,"sb\glow.png",393.7594,275.3378 S,0,114476,,0.5 C,0,114476,,136,0,136 F,0,114476,114976,1,0
Sprite,Foreground,Centre,"sb\glow.png",333.0487,288.272 S,0,114504,,0.5 C,0,114504,,136,0,136 F,0,114504,115004,1,0
Sprite,Foreground,Centre,"sb\glow.png",292.4065,296.9307 S,0,114532,,0.5 C,0,114532,,136,0,136 F,0,114532,115032,1,0
Sprite,Foreground,Centre,"sb\glow.png",278.0007,299.9998 S,0,114560,,0.5 C,0,114560,,136,0,136 F,0,114560,115060,1,0
Sprite,Foreground,Centre,"sb\glow.png",268.281,294.4905 S,0,114588,,0.5 C,0,114588,,160,131,226 F,0,114588,115088,1,0
Sprite,Foreground,Centre,"sb\glow.png",258.4941,288.9425 S,0,114616,,0.5 C,0,114616,,160,131,226 F,0,114616,115116,1,0
Sprite,Foreground,Centre,"sb\glow.png",248.7073,283.3946 S,0,114644,,0.5 C,0,114644,,160,131,226 F,0,114644,115144,1,0
Sprite,Foreground,Centre,"sb\glow.png",238.9204,277.8466 S,0,114672,,0.5 C,0,114672,,160,131,226 F,0,114672,115172,1,0
Sprite,Foreground,Centre,"sb\glow.png",229.1336,272.2986 S,0,114700,,0.5 C,0,114700,,160,131,226 F,0,114700,115200,1,0
Sprite,Foreground,Centre,"sb\glow.png",219.3467,266.7507 S,0,114728,,0.5 C,0,114728,,160,131,226 F,0,114728,115228,1,0
Sprite,Foreground,Centre,"sb\glow.png",209.5599,261.2027 S,0,114756,,0.5 C,0,114756,,160,131,226 F,0,114756,115256,1,0
Sprite,Foreground,Centre,"sb\glow.png",199.773,255.6548 S,0,114784,,0.5 C,0,114784,,160,131,226 F,0,114784,115284,1,0
Sprite,Foreground,Centre,"sb\glow.png",189.9861,250.1068 S,0,114812,,0.5 C,0,114812,,160,131,226 F,0,114812,115312,1,0
Sprite,Foreground,Centre,"sb\glow.png",180.1993,244.5588 S,0,114840,,0.5 C,0,114840,,160,131,226 F,0,114840,115340,1,0
Sprite,Foreground,Centre,"sb\glow.png",170.4124,239.0109 S,0,114868,,0.5 C,0,114868,,160,131,226 F,0,114868,115368,1,0
Sprite,Foreground,Centre,"sb\glow.png",160.6256,233.4629 S,0,114896,,0.5 C,0,114896,,160,131,226 F,0,114896,115396,1,0
Sprite,Foreground,Centre,"sb\glow.png",150.8387,227.9149 S,0,114924,,0.5 C,0,114924,,160,131,226 F,0,114924,115424,1,0
Sprite,Foreground,Centre,"sb\glow.png",141.0518,222.367 S,0,114952,,0.5 C,0,114952,,160,131,226 F,0,114952,115452,1,0
Sprite,Foreground,Centre,"sb\glow.png",131.265,216.819 S,0,114980,,0.5 C,0,114980,,160,131,226 F,0,114980,115480,1,0
Sprite,Foreground,Centre,"sb\glow.png",121.4781,211.271 S,0,115008,,0.5 C,0,115008,,160,131,226 F,0,115008,115508,1,0
Sprite,Foreground,Centre,"sb\glow.png",114.3899,202.5851 S,0,115036,,0.5 C,0,115036,,160,131,226 F,0,115036,115536,1,0
Sprite,Foreground,Centre,"sb\glow.png",110.9305,192.9415 S,0,115064,,0.5 C,0,115064,,160,131,226 F,0,115064,115564,1,0
Sprite,Foreground,Centre,"sb\glow.png",113.3048,181.963 S,0,115092,,0.5 C,0,115092,,160,131,226 F,0,115092,115592,1,0
Sprite,Foreground,Centre,"sb\glow.png",115.7197,170.9752 S,0,115120,,0.5 C,0,115120,,160,131,226 F,0,115120,115620,1,0
Sprite,Foreground,Centre,"sb\glow.png",118.1346,159.9875 S,0,115148,,0.5 C,0,115148,,160,131,226 F,0,115148,115648,1,0
Sprite,Foreground,Centre,"sb\glow.png",120.5495,148.9997 S,0,115176,,0.5 C,0,115176,,160,131,226 F,0,115176,115676,1,0
Sprite,Foreground,Centre,"sb\glow.png",122.9644,138.012 S,0,115204,,0.5 C,0,115204,,160,131,226 F,0,115204,115704,1,0
Sprite,Foreground,Centre,"sb\glow.png",125.3793,127.0242 S,0,115232,,0.5 C,0,115232,,160,131,226 F,0,115232,115732,1,0
Sprite,Foreground,Centre,"sb\glow.png",127.7942,116.0364 S,0,115260,,0.5 C,0,115260,,160,131,226 F,0,115260,115760,1,0
Sprite,Foreground,Centre,"sb\glow.png",130.9334,105.6313 S,0,115288,,0.5 C,0,115288,,160,131,226 F,0,115288,115788,1,0
Sprite,Foreground,Centre,"sb\glow.png",141.0989,100.8774 S,0,115316,,0.5 C,0,115316,,160,131,226 F,0,115316,115816,1,0
Sprite,Foreground,Centre,"sb\glow.png",151.3135,96.16302 S,0,115344,,0.5 C,0,115344,,160,131,226 F,0,115344,115844,1,0
Sprite,Foreground,Centre,"sb\glow.png",161.528,91.44861 S,0,115372,,0.5 C,0,115372,,160,131,226 F,0,115372,115872,1,0
Sprite,Foreground,Centre,"sb\glow.png",171.7425,86.73421 S,0,115400,,0.5 C,0,115400,,160,131,226 F,0,115400,115900,1,0
Sprite,Foreground,Centre,"sb\glow.png",181.9583,82.04242 S,0,115428,,0.5 C,0,115428,,160,131,226 F,0,115428,115928,1,0
Sprite,Foreground,Centre,"sb\glow.png",192.6077,85.6026 S,0,115456,,0.5 C,0,115456,,160,131,226 F,0,115456,115956,1,0
Sprite,Foreground,Centre,"sb\glow.png",203.2601,89.2204 S,0,115484,,0.5 C,0,115484,,160,131,226 F,0,115484,115984,1,0
Sprite,Foreground,Centre,"sb\glow.png",213.9125,92.8382 S,0,115512,,0.5 C,0,115512,,160,131,226 F,0,115512,116012,1,0
Sprite,Foreground,Centre,"sb\glow.png",224.5649,96.45601 S,0,115540,,0.5 C,0,115540,,160,131,226 F,0,115540,116040,1,0
Sprite,Foreground,Centre,"sb\glow.png",235.1386,99.75433 S,0,115568,,0.5 C,0,115568,,160,131,226 F,0,115568,116068,1,0
Sprite,Foreground,Centre,"sb\glow.png",242.9118,91.68242 S,0,115596,,0.5 C,0,115596,,160,131,226 F,0,115596,116096,1,0
Sprite,Foreground,Centre,"sb\glow.png",250.6655,83.53114 S,0,115624,,0.5 C,0,115624,,160,131,226 F,0,115624,116124,1,0
Sprite,Foreground,Centre,"sb\glow.png",258.4191,75.37987 S,0,115652,,0.5 C,0,115652,,160,131,226 F,0,115652,116152,1,0
Sprite,Foreground,Centre,"sb\glow.png",266.1728,67.22858 S,0,115680,,0.5 C,0,115680,,160,131,226 F,0,115680,116180,1,0
Sprite,Foreground,Centre,"sb\glow.png",273.9265,59.0773 S,0,115708,,0.5 C,0,115708,,160,131,226 F,0,115708,116208,1,0
Sprite,Foreground,Centre,"sb\glow.png",285.116,58.22006 S,0,115736,,0.5 C,0,115736,,160,131,226 F,0,115736,116236,1,0
Sprite,Foreground,Centre,"sb\glow.png",296.3384,57.43239 S,0,115764,,0.5 C,0,115764,,160,131,226 F,0,115764,116264,1,0
Sprite,Foreground,Centre,"sb\glow.png",307.5608,56.64486 S,0,115792,,0.5 C,0,115792,,160,131,226 F,0,115792,116292,1,0
Sprite,Foreground,Centre,"sb\glow.png",318.7832,55.85732 S,0,115820,,0.5 C,0,115820,,160,131,226 F,0,115820,116320,1,0
Sprite,Foreground,Centre,"sb\glow.png",330.0056,55.06978 S,0,115848,,0.5 C,0,115848,,160,131,226 F,0,115848,116348,1,0
Sprite,Foreground,Centre,"sb\glow.png",337.5616,62.88201 S,0,115876,,0.5 C,0,115876,,160,131,226 F,0,115876,116376,1,0
Sprite,Foreground,Centre,"sb\glow.png",344.766,71.51917 S,0,115904,,0.5 C,0,115904,,160,131,226 F,0,115904,116404,1,0
Sprite,Foreground,Centre,"sb\glow.png",351.968,80.16165 S,0,115932,,0.5 C,0,115932,,160,131,226 F,0,115932,116432,1,0
Sprite,Foreground,Centre,"sb\glow.png",359.1701,88.80414 S,0,115960,,0.5 C,0,115960,,160,131,226 F,0,115960,116460,1,0
Sprite,Foreground,Centre,"sb\glow.png",366.3722,97.44662 S,0,115988,,0.5 C,0,115988,,160,131,226 F,0,115988,116488,1,0
Sprite,Foreground,Centre,"sb\glow.png",373.5743,106.0891 S,0,116016,,0.5 C,0,116016,,160,131,226 F,0,116016,116516,1,0
Sprite,Foreground,Centre,"sb\glow.png",380.7763,114.7316 S,0,116044,,0.5 C,0,116044,,160,131,226 F,0,116044,116544,1,0
Sprite,Foreground,Centre,"sb\glow.png",387.9784,123.3741 S,0,116071,,0.5 C,0,116071,,160,131,226 F,0,116071,116571,1,0
Sprite,Foreground,Centre,"sb\glow.png",389.839,133.4377 S,0,116099,,0.5 C,0,116099,,160,131,226 F,0,116099,116599,1,0
Sprite,Foreground,Centre,"sb\glow.png",387.6947,144.4257 S,0,116127,,0.5 C,0,116127,,160,131,226 F,0,116127,116627,1,0
Sprite,Foreground,Centre,"sb\glow.png",381.6697,153.9197 S,0,116155,,0.5 C,0,116155,,160,131,226 F,0,116155,116655,1,0
Sprite,Foreground,Centre,"sb\glow.png",375.6177,163.4032 S,0,116183,,0.5 C,0,116183,,160,131,226 F,0,116183,116683,1,0
Sprite,Foreground,Centre,"sb\glow.png",369.5658,172.8866 S,0,116211,,0.5 C,0,116211,,160,131,226 F,0,116211,116711,1,0
Sprite,Foreground,Centre,"sb\glow.png",363.5138,182.3701 S,0,116239,,0.5 C,0,116239,,160,131,226 F,0,116239,116739,1,0
Sprite,Foreground,Centre,"sb\glow.png",357.4619,191.8536 S,0,116267,,0.5 C,0,116267,,160,131,226 F,0,116267,116767,1,0
Sprite,Foreground,Centre,"sb\glow.png",351.4099,201.3371 S,0,116295,,0.5 C,0,116295,,160,131,226 F,0,116295,116795,1,0
Sprite,Foreground,Centre,"sb\glow.png",345.3579,210.8205 S,0,116323,,0.5 C,0,116323,,160,131,226 F,0,116323,116823,1,0
Sprite,Foreground,Centre,"sb\glow.png",339.306,220.304 S,0,116351,,0.5 C,0,116351,,160,131,226 F,0,116351,116851,1,0
Sprite,Foreground,Centre,"sb\glow.png",333.254,229.7875 S,0,116379,,0.5 C,0,116379,,160,131,226 F,0,116379,116879,1,0
Sprite,Foreground,Centre,"sb\glow.png",327.2021,239.271 S,0,116407,,0.5 C,0,116407,,160,131,226 F,0,116407,116907,1,0
Sprite,Foreground,Centre,"sb\glow.png",321.1501,248.7545 S,0,116435,,0.5 C,0,116435,,160,131,226 F,0,116435,116935,1,0
Sprite,Foreground,Centre,"sb\glow.png",315.0982,258.2379 S,0,116463,,0.5 C,0,116463,,160,131,226 F,0,116463,116963,1,0
Sprite,Foreground,Centre,"sb\glow.png",309.0462,267.7214 S,0,116491,,0.5 C,0,116491,,160,131,226 F,0,116491,116991,1,0
Sprite,Foreground,Centre,"sb\glow.png",302.9943,277.2049 S,0,116519,,0.5 C,0,116519,,160,131,226 F,0,116519,117019,1,0
Sprite,Foreground,Centre,"sb\glow.png",296.9423,286.6884 S,0,116547,,0.5 C,0,116547,,160,131,226 F,0,116547,117047,1,0
Sprite,Foreground,Centre,"sb\glow.png",291.0409,295.9359 S,0,116575,,0.5 C,0,116575,,160,131,226 F,0,116575,117075,1,0
Sprite,Foreground,Centre,"sb\glow.png",0,0 S,0,112322,,0.5 C,0,112322,,255,128,192 M,0,112322,112349,476,247,461.0726,216.804 M,0,112349,112377,461.0726,216.804,472.7944,185.155 M,0,112377,112405,472.7944,185.155,490.6973,160.0908 M,0,112405,112433,490.6973,160.0908,502.0696,128.4517 M,0,112433,112461,502.0696,128.4517,507.7334,104.3814 M,0,112461,112489,507.7334,104.3814,521.6631,73.64011 M,0,112489,112517,521.6631,73.64011,535.5927,42.89882 M,0,112517,112545,535.5927,42.89882,536.8851,74.75127 M,16,112545,112658,536.8851,74.75127,566,182 C,0,112658,,255,128,192 M,0,112658,112685,566,182,580.9274,212.196 M,0,112685,112713,580.9274,212.196,569.2056,243.845 M,0,112713,112741,569.2056,243.845,551.3027,268.9092 M,0,112741,112769,551.3027,268.9092,539.9304,300.5483 M,0,112769,112797,539.9304,300.5483,534.2666,324.6186 M,0,112797,112825,534.2666,324.6186,520.3369,355.3599 M,0,112825,112853,520.3369,355.3599,506.4073,386.1012 M,0,112853,112881,506.4073,386.1012,477.2635,402.7367 M,16,112881,112994,477.2635,402.7367,382,402 C,0,112994,,128,128,192 M,0,112994,113021,382,402,371.4663,398.0499 M,0,113021,113049,371.4663,398.0499,360.9326,394.0997 M,0,113049,113077,360.9326,394.0997,350.3989,390.1496 M,0,113077,113105,350.3989,390.1496,339.8652,386.1994 M,0,113105,113133,339.8652,386.1994,329.3315,382.2493 M,0,113133,113161,329.3315,382.2493,322.0425,374.4042 M,0,113161,113189,322.0425,374.4042,323.0508,364.39 M,0,113189,113217,323.0508,364.39,327.7652,354.1754 M,0,113217,113245,327.7652,354.1754,332.4796,343.9609 M,0,113245,113273,332.4796,343.9609,337.194,333.7464 M,0,113273,113301,337.194,333.7464,341.9084,323.5318 M,0,113301,113329,341.9084,323.5318,349.7527,316.5345 M,0,113329,113357,349.7527,316.5345,360.1255,313.8175 M,0,113357,113385,360.1255,313.8175,370.6256,317.856 M,0,113385,113413,370.6256,317.856,381.1257,321.8945 M,0,113413,113441,381.1257,321.8945,391.6259,325.933 M,0,113441,113469,391.6259,325.933,402.126,329.9715 M,0,113469,113497,402.126,329.9715,411.045,335.6124 M,0,113497,113525,411.045,335.6124,412.5479,345.956 M,0,113525,113553,412.5479,345.956,407.5878,356.0535 M,0,113553,113581,407.5878,356.0535,402.6276,366.1509 M,0,113581,113609,402.6276,366.1509,397.6674,376.2484 M,0,113609,113637,397.6674,376.2484,392.7073,386.3459 M,0,113637,113665,392.7073,386.3459,387.7471,396.4434 M,16,113665,113777,387.7471,396.4434,389,413 C,0,113777,,128,128,192 M,16,113777,113889,389,413,201,353 C,0,113889,,136,0,136 M,0,113889,113916,201,353,174.1799,373.4876 M,0,113916,113944,174.1799,373.4876,147.3597,393.9752 M,0,113944,113972,147.3597,393.9752,134.6339,416.4773 M,0,113972,114000,134.6339,416.4773,167.0298,425.9413 M,0,114000,114028,167.0298,425.9413,199.4258,435.4053 M,0,114028,114056,199.4258,435.4053,227.2991,434.6817 M,0,114056,114084,227.2991,434.6817,217.5322,402.3758 M,0,114084,114112,217.5322,402.3758,207.7653,370.0699 M,16,114112,114225,207.7653,370.0699,472,277 C,0,114225,,136,0,136 M,0,114225,114252,472,277,498.4993,256.0991 M,0,114252,114280,498.4993,256.0991,524.9987,235.1982 M,0,114280,114308,524.9987,235.1982,537.1964,212.4731 M,0,114308,114336,537.1964,212.4731,504.8005,203.0091 M,0,114336,114364,504.8005,203.0091,472.4046,193.5452 M,0,114364,114392,472.4046,193.5452,445.752,195.4875 M,0,114392,114420,445.752,195.4875,455.5189,227.7934 M,0,114420,114448,455.5189,227.7934,465.2858,260.0993 M,16,114448,114561,465.2858,260.0993,278,300 C,0,114561,,160,131,226 M,0,114561,114588,278,300,268.2131,294.452 M,0,114588,114616,268.2131,294.452,258.4263,288.9041 M,0,114616,114644,258.4263,288.9041,248.6394,283.3561 M,0,114644,114672,248.6394,283.3561,238.8526,277.8081 M,0,114672,114700,238.8526,277.8081,229.0657,272.2602 M,0,114700,114728,229.0657,272.2602,219.2789,266.7122 M,0,114728,114756,219.2789,266.7122,209.492,261.1642 M,0,114756,114784,209.492,261.1642,199.7051,255.6163 M,0,114784,114812,199.7051,255.6163,189.9183,250.0683 M,0,114812,114840,189.9183,250.0683,180.1314,244.5204 M,0,114840,114868,180.1314,244.5204,170.3446,238.9724 M,0,114868,114896,170.3446,238.9724,160.5577,233.4244 M,0,114896,114924,160.5577,233.4244,150.7708,227.8765 M,0,114924,114952,150.7708,227.8765,140.984,222.3285 M,0,114952,114980,140.984,222.3285,131.1971,216.7805 M,0,114980,115008,131.1971,216.7805,121.4103,211.2326 M,0,115008,115036,121.4103,211.2326,114.3409,202.5247 M,0,115036,115064,114.3409,202.5247,110.9067,192.8746 M,0,115064,115092,110.9067,192.8746,113.3216,181.8868 M,0,115092,115120,113.3216,181.8868,115.7365,170.899 M,0,115120,115148,115.7365,170.899,118.1514,159.9113 M,0,115148,115176,118.1514,159.9113,120.5663,148.9235 M,0,115176,115204,120.5663,148.9235,122.9811,137.9358 M,0,115204,115232,122.9811,137.9358,125.396,126.948 M,0,115232,115260,125.396,126.948,127.8109,115.9603 M,0,115260,115288,127.8109,115.9603,130.9552,105.5591 M,0,115288,115316,130.9552,105.5591,141.1697,100.8447 M,0,115316,115344,141.1697,100.8447,151.3843,96.13033 M,0,115344,115372,151.3843,96.13033,161.5988,91.41592 M,0,115372,115400,161.5988,91.41592,171.8134,86.70152 M,0,115400,115428,171.8134,86.70152,182.0291,82.00989 M,0,115428,115456,182.0291,82.00989,192.6815,85.62769 M,0,115456,115484,192.6815,85.62769,203.3339,89.24548 M,0,115484,115512,203.3339,89.24548,213.9864,92.86329 M,0,115512,115540,213.9864,92.86329,224.6388,96.48109 M,0,115540,115568,224.6388,96.48109,235.2119,99.77718 M,0,115568,115596,235.2119,99.77718,242.9656,91.6259 M,0,115596,115624,242.9656,91.6259,250.7193,83.47462 M,0,115624,115652,250.7193,83.47462,258.4729,75.32335 M,0,115652,115680,258.4729,75.32335,266.2266,67.17207 M,0,115680,115708,266.2266,67.17207,273.9802,59.02079 M,0,115708,115736,273.9802,59.02079,285.1938,58.21447 M,0,115736,115764,285.1938,58.21447,296.4162,57.42693 M,0,115764,115792,296.4162,57.42693,307.6386,56.6394 M,0,115792,115820,307.6386,56.6394,318.861,55.85186 M,0,115820,115848,318.861,55.85186,330.0834,55.06432 M,0,115848,115876,330.0834,55.06432,337.6138,62.93659 M,0,115876,115904,337.6138,62.93659,344.8159,71.57909 M,0,115904,115932,344.8159,71.57909,352.018,80.22157 M,0,115932,115960,352.018,80.22157,359.2201,88.86406 M,0,115960,115988,359.2201,88.86406,366.4221,97.50655 M,0,115988,116016,366.4221,97.50655,373.6242,106.149 M,0,116016,116044,373.6242,106.149,380.8263,114.7915 M,0,116044,116072,380.8263,114.7915,388.0284,123.434 M,0,116072,116100,388.0284,123.434,389.8516,133.5076 M,0,116100,116128,389.8516,133.5076,387.6797,144.502 M,0,116128,116156,387.6797,144.502,381.6277,153.9854 M,0,116156,116184,381.6277,153.9854,375.5758,163.4689 M,0,116184,116212,375.5758,163.4689,369.5238,172.9524 M,0,116212,116240,369.5238,172.9524,363.4719,182.4359 M,0,116240,116268,363.4719,182.4359,357.4199,191.9193 M,0,116268,116296,357.4199,191.9193,351.368,201.4028 M,0,116296,116324,351.368,201.4028,345.316,210.8863 M,0,116324,116352,345.316,210.8863,339.264,220.3698 M,0,116352,116380,339.264,220.3698,333.2121,229.8532 M,0,116380,116408,333.2121,229.8532,327.1601,239.3367 M,0,116408,116435,327.1601,239.3367,321.1082,248.8202 M,0,116435,116463,321.1082,248.8202,315.0562,258.3037 M,0,116463,116491,315.0562,258.3037,309.0042,267.7872 M,0,116491,116519,309.0042,267.7872,302.9523,277.2706 M,0,116519,116547,302.9523,277.2706,296.9003,286.7541 M,0,116547,116575,296.9003,286.7541,291,296
Sprite,Foreground,Centre,"SB\a.png",320,240 S,0,92622,,0
Sprite,Foreground,Centre,"SB\a.png",0,0 M,0,92622,,480,480 F,22,92622,94122,1,0
Sprite,Foreground,Centre,"SB\a.png",0,0 M,0,92622,,480,0 R,0,92622,,3.141593 F,22,92622,94122,1,0
Sprite,Foreground,Centre,"SB\a.png",0,0 M,0,92733,,532,480 F,22,92733,94233,1,0
Sprite,Foreground,Centre,"SB\a.png",0,0 M,0,92733,,532,0 R,0,92733,,3.141593 F,22,92733,94233,1,0
Sprite,Foreground,Centre,"SB\a.png",0,0 M,0,92845,,511,480 F,22,92845,94345,1,0
Sprite,Foreground,Centre,"SB\a.png",0,0 M,0,92845,,511,0 R,0,92845,,3.141593 F,22,92845,94345,1,0
Sprite,Foreground,Centre,"SB\a.png",0,0 M,0,92956,,563,480 F,22,92956,94456,1,0
Sprite,Foreground,Centre,"SB\a.png",0,0 M,0,92956,,563,0 R,0,92956,,3.141593 F,22,92956,94456,1,0
Sprite,Foreground,Centre,"SB\a.png",0,0 M,0,93294,,472,480 F,22,93294,94794,1,0
Sprite,Foreground,Centre,"SB\a.png",0,0 M,0,93294,,472,0 R,0,93294,,3.141593 F,22,93294,94794,1,0
Sprite,Foreground,Centre,"SB\a.png",0,0 M,0,93405,,535,480 F,22,93405,94905,1,0
Sprite,Foreground,Centre,"SB\a.png",0,0 M,0,93405,,535,0 R,0,93405,,3.141593 F,22,93405,94905,1,0
Sprite,Foreground,Centre,"SB\a.png",0,0 M,0,93517,,509,480 F,22,93517,95017,1,0
Sprite,Foreground,Centre,"SB\a.png",0,0 M,0,93517,,509,0 R,0,93517,,3.141593 F,22,93517,95017,1,0
Sprite,Foreground,Centre,"SB\a.png",0,0 M,0,93628,,572,480 F,22,93628,95128,1,0
Sprite,Foreground,Centre,"SB\a.png",0,0 M,0,93628,,572,0 R,0,93628,,3.141593 F,22,93628,95128,1,0
Sprite,Foreground,Centre,"SB\a.png",0,0 M,0,94189,,437,480 F,22,94189,95689,1,0
Sprite,Foreground,Centre,"SB\a.png",0,0 M,0,94189,,437,0 R,0,94189,,3.141593 F,22,94189,95689,1,0
Sprite,Foreground,Centre,"SB\a.png",0,0 M,0,94301,,397,480 F,22,94301,95801,1,0
Sprite,Foreground,Centre,"SB\a.png",0,0 M,0,94301,,397,0 R,0,94301,,3.141593 F,22,94301,95801,1,0
Sprite,Foreground,Centre,"SB\a.png",0,0 M,0,94413,,353,480 F,22,94413,95913,1,0
Sprite,Foreground,Centre,"SB\a.png",0,0 M,0,94413,,353,0 R,0,94413,,3.141593 F,22,94413,95913,1,0
Sprite,Foreground,Centre,"SB\a.png",0,0 M,0,94524,,310,480 F,22,94524,96024,1,0
Sprite,Foreground,Centre,"SB\a.png",0,0 M,0,94524,,310,0 R,0,94524,,3.141593 F,22,94524,96024,1,0
Sprite,Foreground,Centre,"SB\a.png",0,0 M,0,94860,,310,480 F,22,94860,96360,1,0
Sprite,Foreground,Centre,"SB\a.png",0,0 M,0,94860,,310,0 R,0,94860,,3.141593 F,22,94860,96360,1,0
Sprite,Foreground,Centre,"SB\a.png",0,0 M,0,94972,,263,480 F,22,94972,96472,1,0
Sprite,Foreground,Centre,"SB\a.png",0,0 M,0,94972,,263,0 R,0,94972,,3.141593 F,22,94972,96472,1,0
Sprite,Foreground,Centre,"SB\a.png",0,0 M,0,95083,,218,480 F,22,95083,96583,1,0
Sprite,Foreground,Centre,"SB\a.png",0,0 M,0,95083,,218,0 R,0,95083,,3.141593 F,22,95083,96583,1,0
Sprite,Foreground,Centre,"SB\a.png",0,0 M,0,95196,,152,480 F,22,95196,96696,1,0
Sprite,Foreground,Centre,"SB\a.png",0,0 M,0,95196,,152,0 R,0,95196,,3.141593 F,22,95196,96696,1,0
Sprite,Foreground,Centre,"SB\a.png",0,0 M,0,95308,,239,480 F,22,95308,96808,1,0
Sprite,Foreground,Centre,"SB\a.png",0,0 M,0,95308,,239,0 R,0,95308,,3.141593 F,22,95308,96808,1,0
Sprite,Foreground,Centre,"SB\a.png",0,0 M,0,95420,,218,480 F,22,95420,96920,1,0
Sprite,Foreground,Centre,"SB\a.png",0,0 M,0,95420,,218,0 R,0,95420,,3.141593 F,22,95420,96920,1,0
Sprite,Foreground,Centre,"SB\a.png",0,0 M,0,95756,,110,480 F,22,95756,97256,1,0
Sprite,Foreground,Centre,"SB\a.png",0,0 M,0,95756,,110,0 R,0,95756,,3.141593 F,22,95756,97256,1,0
Sprite,Foreground,Centre,"SB\a.png",0,0 M,0,95868,,175,480 F,22,95868,97368,1,0
Sprite,Foreground,Centre,"SB\a.png",0,0 M,0,95868,,175,0 R,0,95868,,3.141593 F,22,95868,97368,1,0
Sprite,Foreground,Centre,"SB\a.png",0,0 M,0,95980,,239,480 F,22,95980,97480,1,0
Sprite,Foreground,Centre,"SB\a.png",0,0 M,0,95980,,239,0 R,0,95980,,3.141593 F,22,95980,97480,1,0
Sprite,Foreground,Centre,"SB\a.png",0,0 M,0,96092,,301,480 F,22,96092,97592,1,0
Sprite,Foreground,Centre,"SB\a.png",0,0 M,0,96092,,301,0 R,0,96092,,3.141593 F,22,96092,97592,1,0
Sprite,Foreground,Centre,"SB\a.png",0,0 M,0,96427,,110,480 F,22,96427,97927,1,0
Sprite,Foreground,Centre,"SB\a.png",0,0 M,0,96427,,110,0 R,0,96427,,3.141593 F,22,96427,97927,1,0
Sprite,Foreground,Centre,"SB\a.png",0,0 M,0,96539,,183,480 F,22,96539,98039,1,0
Sprite,Foreground,Centre,"SB\a.png",0,0 M,0,96539,,183,0 R,0,96539,,3.141593 F,22,96539,98039,1,0
Sprite,Foreground,Centre,"SB\a.png",0,0 M,0,96651,,256,480 F,22,96651,98151,1,0
Sprite,Foreground,Centre,"SB\a.png",0,0 M,0,96651,,256,0 R,0,96651,,3.141593 F,22,96651,98151,1,0
Sprite,Foreground,Centre,"SB\a.png",0,0 M,0,96763,,327,480 F,22,96763,98263,1,0
Sprite,Foreground,Centre,"SB\a.png",0,0 M,0,96763,,327,0 R,0,96763,,3.141593 F,22,96763,98263,1,0
Sprite,Foreground,Centre,"SB\a.png",0,0 M,0,96875,,387,480 F,22,96875,98375,1,0
Sprite,Foreground,Centre,"SB\a.png",0,0 M,0,96875,,387,0 R,0,96875,,3.141593 F,22,96875,98375,1,0
Sprite,Foreground,Centre,"SB\a.png",0,0 M,0,96987,,387,480 F,22,96987,98487,1,0
Sprite,Foreground,Centre,"SB\a.png",0,0 M,0,96987,,387,0 R,0,96987,,3.141593 F,22,96987,98487,1,0
Sprite,Foreground,Centre,"SB\a.png",0,0 M,0,97099,,387,480 F,22,97099,98599,1,0
Sprite,Foreground,Centre,"SB\a.png",0,0 M,0,97099,,387,0 R,0,97099,,3.141593 F,22,97099,98599,1,0
Sprite,Foreground,Centre,"SB\a.png",0,0 M,0,97323,,494,480 F,22,97323,98823,1,0
Sprite,Foreground,Centre,"SB\a.png",0,0 M,0,97323,,494,0 R,0,97323,,3.141593 F,22,97323,98823,1,0
Sprite,Foreground,Centre,"SB\a.png",0,0 M,0,97435,,521,480 F,22,97435,98935,1,0
Sprite,Foreground,Centre,"SB\a.png",0,0 M,0,97435,,521,0 R,0,97435,,3.141593 F,22,97435,98935,1,0
Sprite,Foreground,Centre,"SB\a.png",0,0 M,0,97547,,452,480 F,22,97547,99047,1,0
Sprite,Foreground,Centre,"SB\a.png",0,0 M,0,97547,,452,0 R,0,97547,,3.141593 F,22,97547,99047,1,0
Sprite,Foreground,Centre,"SB\a.png",0,0 M,0,97659,,425,480 F,22,97659,99159,1,0
Sprite,Foreground,Centre,"SB\a.png",0,0 M,0,97659,,425,0 R,0,97659,,3.141593 F,22,97659,99159,1,0
Sprite,Foreground,Centre,"SB\a.png",0,0 M,0,97995,,440,480 F,22,97995,99495,1,0
Sprite,Foreground,Centre,"SB\a.png",0,0 M,0,97995,,440,0 R,0,97995,,3.141593 F,22,97995,99495,1,0
Sprite,Foreground,Centre,"SB\a.png",0,0 M,0,98107,,413,480 F,22,98107,99607,1,0
Sprite,Foreground,Centre,"SB\a.png",0,0 M,0,98107,,413,0 R,0,98107,,3.141593 F,22,98107,99607,1,0
Sprite,Foreground,Centre,"SB\a.png",0,0 M,0,98219,,415,480 F,22,98219,99719,1,0
Sprite,Foreground,Centre,"SB\a.png",0,0 M,0,98219,,415,0 R,0,98219,,3.141593 F,22,98219,99719,1,0
Sprite,Foreground,Centre,"SB\a.png",0,0 M,0,98331,,388,480 F,22,98331,99831,1,0
Sprite,Foreground,Centre,"SB\a.png",0,0 M,0,98331,,388,0 R,0,98331,,3.141593 F,22,98331,99831,1,0
Sprite,Foreground,Centre,"SB\a.png",0,0 M,0,98442,,424,480 F,22,98442,99942,1,0
Sprite,Foreground,Centre,"SB\a.png",0,0 M,0,98442,,424,0 R,0,98442,,3.141593 F,22,98442,99942,1,0
Sprite,Foreground,Centre,"SB\a.png",0,0 M,0,98554,,378,480 F,22,98554,100054,1,0
Sprite,Foreground,Centre,"SB\a.png",0,0 M,0,98554,,378,0 R,0,98554,,3.141593 F,22,98554,100054,1,0
Sprite,Foreground,Centre,"SB\a.png",0,0 M,0,98665,,414,480 F,22,98665,100165,1,0
Sprite,Foreground,Centre,"SB\a.png",0,0 M,0,98665,,414,0 R,0,98665,,3.141593 F,22,98665,100165,1,0
Sprite,Foreground,Centre,"SB\a.png",0,0 M,0,98778,,380,480 F,22,98778,100278,1,0
Sprite,Foreground,Centre,"SB\a.png",0,0 M,0,98778,,380,0 R,0,98778,,3.141593 F,22,98778,100278,1,0
Sprite,Foreground,Centre,"SB\ring.png",0,0 M,0,29713,,115,221 F,22,29713,30213,1,0 S,22,29713,30213,0.25,0.5
Sprite,Foreground,Centre,"SB\ring.png",0,0 M,0,29769,,135,214 F,22,29769,30269,1,0 S,22,29769,30269,0.25,0.5
Sprite,Foreground,Centre,"SB\ring.png",0,0 M,0,29937,,105,336 F,22,29937,30437,1,0 S,22,29937,30437,0.25,0.5
Sprite,Foreground,Centre,"SB\ring.png",0,0 M,0,30049,,220,427 F,22,30049,30549,1,0 S,22,30049,30549,0.25,0.5
Sprite,Foreground,Centre,"SB\ring.png",0,0 M,0,30105,,240,434 F,22,30105,30605,1,0 S,22,30105,30605,0.25,0.5
Sprite,Foreground,Centre,"SB\ring.png",0,0 M,0,30273,,283,297 F,22,30273,30773,1,0 S,22,30273,30773,0.25,0.5
Sprite,Foreground,Centre,"SB\ring.png",0,0 M,0,30385,,382,196 F,22,30385,30885,1,0 S,22,30385,30885,0.25,0.5
//Storyboard Layer 4 (Overlay)
//Storyboard Sound Samples

[TimingPoints]
1058,223.880597014925,4,2,1,40,1,0
1058,-200,4,2,1,40,0,0
4192,223.880597014925,7,3,1,60,1,0
10460,223.880597014925,4,3,1,60,1,0
12251,223.880597014925,6,3,1,60,1,0
14042,-125,6,3,1,60,0,0
14490,-166.666666666667,6,3,1,60,0,0
14938,-100,6,2,1,60,0,0
16281,223.880597014925,4,2,1,40,1,0
29713,-100,4,2,1,60,0,0
30441,-100,4,2,1,5,0,0
30497,-100,4,2,1,60,0,0
44489,-200,4,2,1,60,0,0
44601,-125,4,2,1,60,0,0
44713,-90.9090909090909,4,2,1,60,0,0
44825,-71.4285714285714,4,2,1,60,0,0
44937,223.880597014925,7,3,1,60,1,0
44937,-100,7,3,1,60,0,0
46504,223.880597014925,4,3,1,60,1,0
46504,-125,4,3,1,60,0,0
46839,-100,4,3,1,60,0,0
48295,223.880597014925,7,3,1,60,1,0
49862,223.880597014925,4,3,1,60,1,0
51653,223.880597014925,7,3,1,60,1,0
53220,223.880597014925,4,3,1,60,1,0
55122,-100,4,2,1,60,0,0
55234,-100,4,2,1,60,0,0
58537,-100,4,2,1,5,0,0
58593,-100,4,3,1,70,0,0
65757,-83.3333333333333,4,3,1,70,0,0
73369,-83.3333333333333,4,2,1,70,0,0
74712,-100,4,2,1,60,0,0
81876,-66.6666666666667,4,3,1,70,0,0
87585,-192.307692307692,4,2,1,70,0,0
90831,-192.307692307692,4,2,1,50,0,0
91055,-192.307692307692,4,2,1,40,0,0
91279,-192.307692307692,4,2,1,30,0,0
91503,-192.307692307692,4,2,1,20,0,0
91727,-192.307692307692,4,2,1,5,0,0
92399,-192.307692307692,4,2,1,50,0,0
92622,223.880597014925,7,2,1,40,1,0
99562,223.880597014925,7,2,1,60,1,0
99562,-200,7,2,1,60,0,0
100233,-100,7,2,1,60,0,0
102696,-200,7,2,1,60,0,0
103367,-100,7,2,1,60,0,0
104263,223.880597014925,4,3,1,60,1,0
106054,223.880597014925,7,3,1,70,1,0
106054,-66.6666666666667,7,3,1,70,0,0
112322,-66.6666666666667,7,2,1,60,0,0
112994,-200,7,2,1,60,0,0
113889,-66.6666666666667,7,2,1,60,0,0
114561,-200,7,2,1,60,0,0
116576,-200,7,2,1,5,0,0
116632,-200,7,2,1,30,0,0
119710,-200,7,2,1,5,0,0

[Colours]
Combo1 : 136,0,136
Combo2 : 160,131,226
Combo3 : 255,128,192
Combo4 : 128,128,192

[HitObjects]
61,133,1058,5,2,0:0:0:0:
61,133,2401,2,0,L|168:119,1,90,2|0,0:0|0:0,0:0:0:0:
234,110,2737,1,0,0:0:0:0:
378,149,2849,2,0,B|403:111|403:111|371:70|371:70|316:67,1,135,2|0,0:0|0:0,0:0:0:0:
256,192,3240,12,4,4192,0:2:0:0:
22,277,4975,6,0,P|11:262|13:230,1,45
102,239,5087,1,8,0:2:0:0:
144,228,5143,1,8,0:2:0:0:
184,247,5199,1,8,0:2:0:0:
203,287,5255,1,8,0:2:0:0:
192,329,5311,2,0,P|203:355|233:374,1,45,8|0,0:2|0:0,0:0:0:0:
352,331,5423,5,8,0:2:0:0:
395,335,5479,1,8,0:2:0:0:
433,312,5535,1,8,0:2:0:0:
449,271,5591,1,8,0:2:0:0:
438,229,5647,2,0,P|421:208|426:168,1,45,8|0,0:2|0:0,0:0:0:0:
469,25,5759,5,10,0:2:0:0:
434,33,5815,1,8,0:2:0:0:
418,0,5871,1,8,0:2:0:0:
391,24,5927,1,8,0:2:0:0:
356,13,5983,1,8,0:2:0:0:
351,49,6039,1,0,0:0:0:0:
318,59,6094,1,10,0:2:0:0:
327,93,6150,1,8,0:2:0:0:
293,104,6206,5,8,0:2:0:0:
285,139,6262,1,8,0:2:0:0:
319,154,6318,1,8,0:2:0:0:
294,181,6374,1,0,0:0:0:0:
306,216,6430,1,10,0:2:0:0:
270,222,6486,1,8,0:2:0:0:
260,255,6542,1,8,0:2:0:0:
227,246,6598,1,8,0:2:0:0:
210,278,6654,5,8,0:2:0:0:
168,293,6710,1,0,0:0:0:0:
125,282,6766,1,10,0:2:0:0:
95,250,6822,1,8,0:2:0:0:
87,206,6878,1,8,0:2:0:0:
106,165,6934,1,8,0:2:0:0:
143,142,6990,1,8,0:2:0:0:
181,119,7046,1,0,0:0:0:0:
197,78,7102,1,4,3:3:0:0:
185,36,7158,1,0,0:0:0:0:
149,10,7214,1,2,0:2:0:0:
105,11,7270,1,0,0:0:0:0:
71,39,7326,5,0,0:0:0:0:
265,30,7438,2,0,B|286:17|286:17|371:5,1,90,8|0,0:2|0:0,0:0:0:0:
460,68,7662,2,0,L|393:81,1,45,12|0,0:3|0:0,0:0:0:0:
251,180,7774,5,12,0:3:0:0:
251,180,7830,1,0,0:0:0:0:
251,180,7886,1,0,0:0:0:0:
251,180,7941,1,0,0:0:0:0:
251,180,7997,2,0,L|295:171,1,45,8|0,0:2|0:0,0:0:0:0:
484,200,8109,5,10,0:2:0:0:
484,200,8165,1,0,0:0:0:0:
484,200,8221,1,0,0:2:0:0:
484,200,8277,1,0,0:0:0:0:
484,200,8333,2,0,L|439:208,1,45,10|0,0:2|0:0,0:0:0:0:
277,345,8445,5,8,0:2:0:0:
277,345,8501,1,0,0:0:0:0:
277,345,8557,1,2,0:2:0:0:
277,345,8613,1,0,0:0:0:0:
277,345,8669,5,4,0:3:0:0:
299,348,8725,1,0,0:0:0:0:
321,352,8781,1,0,0:0:0:0:
343,356,8837,1,0,0:0:0:0:
367,360,8893,5,4,0:3:0:0:
410,351,8949,1,0,0:0:0:0:
435,315,9005,1,0,0:0:0:0:
429,272,9061,1,0,0:0:0:0:
395,244,9117,1,4,0:3:0:0:
351,235,9173,1,0,0:0:0:0:
326,199,9229,1,0,0:0:0:0:
332,156,9285,1,0,0:0:0:0:
366,128,9341,5,8,2:0:0:0:
428,161,9415,5,8,2:0:0:0:
483,114,9490,5,8,2:0:0:0:
473,42,9565,5,8,2:0:0:0:
411,9,9639,5,8,2:0:0:0:
356,56,9714,5,8,2:0:0:0:
419,87,9789,5,0,3:2:0:0:
207,171,10460,5,2,0:2:0:0:
205,176,10535,1,0,0:0:0:0:
203,182,10609,1,0,0:0:0:0:
202,188,10684,1,0,0:0:0:0:
200,194,10759,1,0,0:0:0:0:
199,199,10833,1,0,0:0:0:0:
262,244,10908,5,10,0:2:0:0:
267,244,10983,1,0,0:0:0:0:
273,242,11057,1,0,0:0:0:0:
279,240,11132,1,0,0:0:0:0:
285,239,11206,1,0,0:0:0:0:
290,237,11281,1,0,0:0:0:0:
298,160,11356,5,10,0:2:0:0:
295,155,11430,1,0,0:0:0:0:
291,151,11505,1,0,0:0:0:0:
286,147,11580,1,4,0:0:0:0:
282,142,11654,1,0,0:0:0:0:
278,139,11729,1,0,0:0:0:0:
250,44,11803,5,2,0:2:0:0:
192,62,11878,1,0,0:0:0:0:
136,83,11953,1,0,0:0:0:0:
82,108,12027,5,0,0:0:0:0:
84,113,12102,1,0,0:0:0:0:
86,118,12177,1,0,0:0:0:0:
108,198,12251,5,14,0:2:0:0:
126,255,12326,1,0,0:0:0:0:
147,312,12400,1,0,0:0:0:0:
166,368,12475,5,2,0:2:0:0:
171,365,12550,1,0,0:0:0:0:
176,363,12624,1,0,0:0:0:0:
262,340,12699,5,8,0:2:0:0:
320,322,12774,1,8,0:2:0:0:
376,301,12848,1,8,0:2:0:0:
432,282,12923,5,2,0:2:0:0:
430,276,12997,1,0,0:0:0:0:
427,270,13072,1,0,0:0:0:0:
404,186,13147,5,8,0:2:0:0:
386,128,13221,1,8,0:2:0:0:
365,72,13296,1,8,0:2:0:0:
346,16,13371,5,2,0:2:0:0:
340,18,13445,1,0,0:0:0:0:
334,20,13520,1,0,0:0:0:0:
242,58,13594,5,4,0:2:0:0:
209,93,13669,1,0,0:0:0:0:
163,111,13744,1,0,0:0:0:0:
100,147,13818,6,0,P|87:116|95:86,2,60
267,139,14042,5,4,0:0:0:0:
291,167,14117,1,4,0:0:0:0:
326,184,14191,1,4,0:0:0:0:
388,217,14266,6,0,P|399:193|394:169,2,48
274,238,14490,5,2,0:2:0:0:
253,260,14565,1,0,0:0:0:0:
225,273,14639,1,0,0:0:0:0:
165,307,14714,6,0,P|154:285|159:260,2,35.9999989013672,4|4|4,0:0|0:0|0:0,0:0:0:0:
252,362,14938,5,2,3:2:0:0:
258,367,14994,5,0,0:0:0:0:
252,361,15050,5,0,0:0:0:0:
257,367,15106,5,0,0:0:0:0:
253,360,15162,5,0,0:0:0:0:
256,368,15218,5,0,0:0:0:0:
254,360,15274,5,0,0:0:0:0:
255,368,15330,5,0,0:0:0:0:
255,360,15386,5,0,0:0:0:0:
254,368,15442,5,0,0:0:0:0:
256,360,15497,5,0,0:0:0:0:
253,368,15553,5,0,0:0:0:0:
257,361,15609,5,0,0:0:0:0:
252,367,15665,5,0,0:0:0:0:
258,362,15721,5,0,0:0:0:0:
251,366,15777,5,0,0:0:0:0:
258,363,15833,5,0,0:0:0:0:
251,365,15889,5,0,0:0:0:0:
258,364,15945,5,0,0:0:0:0:
251,364,16001,5,0,0:0:0:0:
258,365,16057,5,0,0:0:0:0:
251,363,16113,5,0,0:0:0:0:
258,366,16169,5,0,0:0:0:0:
51,165,29713,5,8,3:2:0:0:
71,158,29769,2,0,L|56:213,1,45,8|0,3:2|3:2,0:0:0:0:
41,280,29937,1,0,3:2:0:0:
156,371,30049,5,4,3:0:0:0:
176,378,30105,2,0,L|161:323,1,45,4|0,3:0|3:0,0:0:0:0:
219,241,30273,1,0,3:0:0:0:
318,140,30385,6,0,L|332:192,1,45,8|0,3:2|0:0,0:0:0:0:
462,317,30609,6,0,B|486:289|486:289|459:263|459:263|343:288,1,180,6|8,3:2|3:2,0:0:0:0:
192,328,30945,1,2,3:2:0:0:
250,384,31057,1,0,0:0:0:0:
276,307,31169,1,0,3:2:0:0:
136,264,31280,2,0,B|123:246|123:246|142:161,1,90,10|0,3:2|0:0,0:0:0:0:
201,0,31504,6,0,B|248:36|248:36|219:163,1,180,2|0,3:1|3:2,0:0:0:0:
354,276,31840,2,0,B|364:219|364:219|310:204|310:204|323:140,1,180,2|0,3:1|3:2,0:0:0:0:
441,46,32176,2,0,L|424:134,1,90,8|0,3:2|0:0,0:0:0:0:
175,199,32400,6,0,L|66:219,1,90,2|0,3:2|0:0,0:0:0:0:
9,230,32624,1,10,3:2:0:0:
191,209,32736,2,0,L|300:189,1,90,2|2,3:2|0:0,0:0:0:0:
357,178,32960,1,2,3:2:0:0:
117,137,33072,2,0,L|8:157,1,90,10|0,3:2|0:0,0:0:0:0:
232,117,33295,5,2,3:2:0:0:
191,209,33407,1,0,0:0:0:0:
117,137,33519,1,2,3:2:0:0:
158,37,33631,5,2,3:2:0:0:
158,37,33743,1,4,3:3:0:0:
158,37,33855,1,2,3:2:0:0:
191,209,33967,2,0,L|214:319,1,90,10|0,3:2|0:0,0:0:0:0:
342,360,34191,6,0,B|455:383|455:383|492:364|470:315,1,180,6|8,3:2|3:2,0:0:0:0:
366,281,34527,2,0,L|272:264,1,90,2|0,3:2|0:0,0:0:0:0:
184,369,34751,1,0,3:2:0:0:
27,275,34863,2,0,L|115:291,1,90,10|0,3:2|0:0,0:0:0:0:
350,181,35086,6,0,B|364:157|364:157|349:88,1,90,2|0,3:1|0:0,0:0:0:0:
324,8,35310,1,0,3:2:0:0:
365,196,35422,2,0,B|379:220|379:220|364:289,1,90,2|0,3:1|0:0,0:0:0:0:
339,369,35646,1,0,3:2:0:0:
200,202,35758,2,0,L|105:215,1,90,8|0,3:2|0:0,0:0:0:0:
12,143,35982,5,2,3:2:0:0:
12,143,36206,1,10,3:2:0:0:
86,110,36318,1,2,3:2:0:0:
20,62,36430,1,2,0:0:0:0:
12,143,36542,1,2,3:2:0:0:
79,188,36654,1,10,3:2:0:0:
154,157,36766,1,0,0:0:0:0:
164,76,36878,6,0,L|270:97,1,90,2|0,3:2|0:0,0:0:0:0:
396,121,37101,1,2,3:2:0:0:
405,258,37213,2,0,B|368:282|368:282|324:230,1,90,6|0,3:2|0:0,0:0:0:0:
316,148,37437,1,2,3:2:0:0:
407,35,37549,1,10,3:2:0:0:
462,175,37661,1,2,3:2:0:0:
407,35,37773,6,0,B|365:-2|365:-2|226:20,1,180,6|0,3:2|3:2,0:0:0:0:
70,130,38109,2,0,B|112:93|112:93|251:115,1,180,10|0,3:2|3:2,0:0:0:0:
328,211,38445,1,10,3:2:0:0:
108,339,38669,5,0,3:2:0:0:
107,333,38743,1,0,3:2:0:0:
107,327,38818,1,0,3:2:0:0:
86,252,38892,5,4,3:3:0:0:
145,261,38967,1,4,3:3:0:0:
204,270,39042,1,4,3:3:0:0:
263,280,39116,5,0,3:2:0:0:
268,290,39340,1,0,3:2:0:0:
424,347,39564,6,0,L|325:367,1,90,2|0,3:1|0:0,0:0:0:0:
256,384,39788,1,0,3:2:0:0:
127,237,39900,2,0,L|215:219,1,90,10|0,3:2|0:0,0:0:0:0:
256,384,40124,1,0,3:2:0:0:
295,185,40236,2,0,L|335:265,1,90,10|0,3:2|0:0,0:0:0:0:
161,344,40460,5,4,3:3:0:0:
163,338,40516,1,4,3:3:0:0:
165,333,40572,1,4,3:3:0:0:
167,328,40628,1,4,3:3:0:0:
169,323,40683,2,0,L|221:309,1,45,4|0,3:3|3:0,0:0:0:0:
333,244,40795,5,4,3:3:0:0:
335,250,40851,1,4,3:3:0:0:
337,255,40907,1,4,3:3:0:0:
339,260,40963,1,4,3:3:0:0:
341,265,41019,2,0,L|332:319,1,45,4|0,3:3|3:0,0:0:0:0:
256,384,41131,5,12,3:2:0:0:
118,91,41355,6,0,L|54:79,1,45,10|0,3:2|3:2,0:0:0:0:
155,15,41467,2,0,L|91:3,1,45,0|0,3:2|3:2,0:0:0:0:
208,84,41579,1,0,3:2:0:0:
468,152,41691,6,0,L|531:163,1,45,10|0,3:2|3:2,0:0:0:0:
459,68,41803,2,0,L|522:79,1,45,0|0,3:2|3:2,0:0:0:0:
385,115,41915,1,0,3:2:0:0:
287,152,42027,5,10,3:2:0:0:
278,196,42082,1,0,3:0:0:0:
270,240,42138,1,0,3:0:0:0:
159,212,42251,5,10,3:2:0:0:
159,207,42307,1,0,3:2:0:0:
157,202,42363,1,0,3:2:0:0:
157,197,42419,1,0,3:2:0:0:
157,192,42475,1,0,3:2:0:0:
388,252,42586,5,10,3:2:0:0:
390,247,42642,1,0,3:2:0:0:
392,242,42698,1,0,3:2:0:0:
394,238,42754,1,0,3:2:0:0:
396,234,42810,1,0,3:2:0:0:
255,329,42922,5,10,3:2:0:0:
262,284,42977,1,0,3:0:0:0:
269,240,43033,1,0,3:0:0:0:
320,0,43146,5,8,0:1:0:0:
307,3,43202,1,0,0:0:0:0:
315,13,43258,5,8,0:1:0:0:
326,21,43314,1,0,0:0:0:0:
315,29,43370,5,8,0:1:0:0:
302,33,43426,1,0,0:0:0:0:
311,43,43482,5,8,0:1:0:0:
322,51,43538,1,0,0:0:0:0:
310,56,43594,5,8,0:1:0:0:
297,59,43650,1,0,0:0:0:0:
305,69,43706,5,8,0:1:0:0:
316,77,43762,1,0,0:0:0:0:
303,81,43818,5,8,0:1:0:0:
290,85,43874,1,0,0:0:0:0:
299,94,43930,5,8,0:1:0:0:
309,102,43986,1,0,0:0:0:0:
299,111,44042,5,8,0:2:0:0:
250,163,44154,1,8,0:2:0:0:
143,207,44266,1,8,0:2:0:0:
15,225,44378,1,8,0:2:0:0:
57,159,44489,6,0,P|71:151|91:149,1,22.5,10|0,0:2|0:0,0:0:0:0:
160,105,44601,2,0,P|175:102|195:108,1,36,10|0,0:2|0:0,0:0:0:0:
266,271,44713,2,0,P|285:286|316:294,1,49.5000015106202,10|0,0:2|0:0,0:0:0:0:
430,185,44825,2,0,P|463:181|500:160,1,62.9999980773926,10|0,0:2|0:0,0:0:0:0:
460,43,44937,6,0,P|420:5|350:11,2,90,2|0|2,0:2|0:0|0:2,0:0:0:0:
336,120,45272,2,0,L|224:147,1,90,2|0,0:2|0:0,0:0:0:0:
171,162,45496,1,2,0:2:0:0:
90,202,45608,5,10,0:2:0:0:
14,152,45720,1,0,0:0:0:0:
96,115,45832,1,0,0:0:0:0:
80,205,45944,5,2,0:2:0:0:
15,142,46056,1,0,0:0:0:0:
103,121,46168,1,0,0:0:0:0:
59,292,46280,6,0,B|85:296|85:296|172:277,1,90,2|0,0:2|0:0,0:0:0:0:
321,263,46504,6,0,P|361:247|330:267,1,144,6|0,0:2|0:0,0:0:0:0:
246,126,46839,6,0,P|178:126|233:143,1,180,2|0,0:2|0:0,0:0:0:0:
430,125,47175,5,2,0:2:0:0:
435,111,47249,1,0,0:0:0:0:
439,97,47324,1,0,0:0:0:0:
444,83,47398,5,10,0:2:0:0:
457,200,47511,1,2,0:2:0:0:
470,317,47623,1,2,0:2:0:0:
299,255,47735,2,0,B|285:228|285:228|319:148,1,90,10|8,0:2|0:2,0:0:0:0:
483,324,47959,5,2,0:2:0:0:
469,198,48071,1,2,0:2:0:0:
456,73,48184,1,10,0:2:0:0:
382,221,48295,6,0,L|365:330,1,90,2|0,0:2|0:0,0:0:0:0:
356,384,48518,1,2,0:2:0:0:
282,226,48630,2,0,L|299:117,1,90,2|0,0:2|0:0,0:0:0:0:
308,63,48853,1,2,0:2:0:0:
192,142,48966,5,10,0:2:0:0:
121,197,49078,1,0,0:0:0:0:
35,169,49190,1,0,0:0:0:0:
211,148,49302,5,2,0:2:0:0:
124,210,49414,1,0,0:0:0:0:
19,179,49526,1,0,0:0:0:0:
229,153,49638,5,2,0:2:0:0:
5,187,49750,1,0,0:0:0:0:
0,310,49862,5,10,0:2:0:0:
58,300,49937,1,8,0:2:0:0:
118,288,50012,1,8,0:2:0:0:
176,278,50086,5,0,0:0:0:0:
178,283,50161,1,0,0:0:0:0:
179,288,50236,1,0,0:0:0:0:
243,323,50309,5,4,0:3:0:0:
286,315,50384,1,4,0:3:0:0:
331,306,50459,1,4,0:3:0:0:
401,293,50533,5,2,0:2:0:0:
403,298,50608,1,0,0:0:0:0:
404,303,50683,1,0,0:0:0:0:
416,367,50757,5,4,0:3:0:0:
419,329,50831,1,4,0:3:0:0:
422,292,50906,1,4,0:3:0:0:
425,254,50980,1,2,0:2:0:0:
428,217,51055,1,0,0:0:0:0:
431,180,51130,1,0,0:0:0:0:
465,117,51205,5,4,0:1:0:0:
435,132,51279,1,0,2:0:0:0:
410,112,51354,1,0,2:0:0:0:
395,45,51429,1,0,2:0:0:0:
444,15,51503,1,0,2:0:0:0:
492,51,51578,1,0,2:0:0:0:
442,66,51653,6,0,L|321:87,1,90,2|0,0:2|0:0,0:0:0:0:
247,128,51876,1,2,0:2:0:0:
157,76,51988,2,0,P|133:27|155:-5,1,90,2|0,0:2|0:0,0:0:0:0:
252,141,52212,1,2,0:2:0:0:
174,238,52324,6,0,B|50:266|50:266|0:249,1,180,14|0,0:2|0:0,0:0:0:0:
143,325,52660,2,0,B|266:296|266:296|308:241,1,180,2|0,0:2|0:0,0:0:0:0:
327,153,52996,1,2,0:2:0:0:
327,153,53108,1,0,0:0:0:0:
147,5,53220,5,2,0:2:0:0:
98,36,53294,1,0,0:0:0:0:
95,93,53369,1,0,0:0:0:0:
141,129,53443,5,0,0:2:0:0:
145,127,53517,1,0,0:0:0:0:
152,125,53592,1,0,0:0:0:0:
159,121,53667,5,2,0:2:0:0:
432,39,53817,1,4,0:0:0:0:
447,28,53891,2,0,P|414:6|351:22,1,90,4|0,0:0|0:0,0:0:0:0:
233,173,54115,5,2,0:2:0:0:
287,203,54190,1,2,0:2:0:0:
243,223,54264,1,2,0:2:0:0:
274,253,54339,1,10,0:2:0:0:
252,268,54414,1,10,0:2:0:0:
257,302,54488,1,10,0:2:0:0:
264,340,54563,5,0,0:0:0:0:
264,343,54637,1,0,0:0:0:0:
265,347,54712,1,0,0:0:0:0:
265,351,54786,1,0,0:0:0:0:
266,354,54861,1,0,0:0:0:0:
267,358,54936,1,0,0:0:0:0:
267,362,55010,1,2,3:2:0:0:
455,207,55234,5,0,0:0:0:0:
388,180,55346,1,0,0:0:0:0:
378,108,55458,1,0,0:0:0:0:
434,64,55570,1,0,0:0:0:0:
501,91,55682,1,0,0:0:0:0:
511,162,55794,1,0,0:0:0:0:
454,219,55906,5,0,0:0:0:0:
380,185,56018,1,0,0:0:0:0:
308,223,56130,1,0,0:0:0:0:
234,187,56242,1,0,0:0:0:0:
198,259,56354,5,0,0:0:0:0:
272,295,56466,1,0,0:0:0:0:
308,223,56578,1,0,0:0:0:0:
234,189,56690,1,2,0:0:0:0:
256,192,57809,12,0,58537,0:0:0:0:
71,265,58593,5,4,0:2:0:0:
15,205,58705,1,0,0:0:0:0:
93,184,58817,1,2,0:2:0:0:
65,276,58928,5,2,0:2:0:0:
7,194,59040,1,0,0:0:0:0:
105,182,59152,1,2,0:2:0:0:
174,259,59264,5,10,0:2:0:0:
213,265,59375,1,0,0:0:0:0:
253,271,59487,1,2,0:2:0:0:
292,277,59599,1,2,0:2:0:0:
332,283,59711,1,0,0:0:0:0:
372,289,59823,1,2,0:2:0:0:
463,304,59936,6,0,B|452:271|452:271|453:265|453:265|442:225|442:225|446:210,1,90,10|0,0:2|0:0,0:0:0:0:
395,373,60160,1,2,0:2:0:0:
395,373,60272,1,2,0:2:0:0:
316,354,60384,5,12,0:2:0:0:
249,308,60496,1,0,0:0:0:0:
176,344,60608,1,2,0:2:0:0:
255,227,60719,5,2,0:2:0:0:
249,308,60831,1,0,0:0:0:0:
176,343,60943,1,2,0:2:0:0:
106,301,61055,6,0,L|116:247,1,45,10|0,0:2|0:0,0:0:0:0:
124,288,61167,2,0,L|134:234,1,45,2|0,0:2|0:0,0:0:0:0:
155,162,61279,5,2,0:2:0:0:
231,136,61391,1,0,0:0:0:0:
201,60,61503,1,2,0:2:0:0:
125,86,61615,1,2,0:2:0:0:
328,165,61727,6,0,B|356:175|356:175|447:153,1,90,10|0,0:2|0:0,0:0:0:0:
476,106,61951,1,2,0:2:0:0:
476,106,62063,1,2,0:2:0:0:
323,145,62175,6,0,B|307:116|307:116|310:86|310:86|316:77|316:77|326:22|326:22|345:85,1,180,14|0,0:2|0:0,0:0:0:0:
405,206,62511,1,2,0:2:0:0:
318,159,62622,2,0,B|333:191|333:191|323:270,1,90,2|0,0:2|0:0,0:0:0:0:
315,353,62846,1,10,0:2:0:0:
315,353,62958,1,2,0:2:0:0:
261,292,63070,5,0,0:0:0:0:
187,325,63182,1,2,0:2:0:0:
113,358,63294,1,2,0:2:0:0:
33,340,63406,1,0,0:0:0:0:
95,235,63518,6,0,L|189:249,1,90,10|0,0:2|0:0,0:0:0:0:
355,267,63742,5,0,0:2:0:0:
359,267,63816,1,2,2:0:0:0:
364,268,63891,1,2,2:0:0:0:
369,269,63966,6,0,B|396:215|396:215|369:96,1,180,10|0,0:2|0:0,0:0:0:0:
273,133,64302,1,2,0:2:0:0:
283,231,64414,2,0,B|258:282|258:282|217:305,1,90
87,255,64637,2,0,B|123:264|123:264|190:233,1,90,10|0,0:2|0:0,0:0:0:0:
88,117,64861,6,0,L|-23:138,1,90,10|0,0:2|0:0,0:0:0:0:
100,97,65085,2,0,L|188:80,1,90,2|0,0:2|0:0,0:0:0:0:
355,9,65309,5,10,0:2:0:0:
352,19,65364,1,8,0:2:0:0:
349,30,65420,1,8,0:2:0:0:
346,41,65476,1,8,0:2:0:0:
344,52,65532,1,10,0:2:0:0:
404,106,65645,1,0,0:0:0:0:
484,73,65757,6,0,L|474:-3,1,53.9999983520508,6|0,0:2|0:0,0:0:0:0:
395,184,65869,1,0,0:0:0:0:
404,188,65925,1,0,0:0:0:0:
413,192,65981,1,8,0:2:0:0:
386,278,66093,6,0,L|376:354,1,53.9999983520508,8|0,0:2|0:0,0:0:0:0:
297,167,66205,1,0,0:0:0:0:
306,163,66261,1,0,0:0:0:0:
315,159,66317,1,8,0:2:0:0:
295,83,66428,6,0,L|285:7,1,53.9999983520508,8|0,0:2|0:0,0:0:0:0:
206,194,66540,1,0,0:0:0:0:
215,198,66596,1,0,0:0:0:0:
224,202,66652,1,8,0:2:0:0:
200,283,66764,6,0,L|190:359,1,53.9999983520508
111,172,66876,1,8,0:2:0:0:
120,168,66932,1,0,0:0:0:0:
129,164,66988,1,8,0:2:0:0:
75,39,67100,5,2,0:2:0:0:
66,43,67156,1,0,0:0:0:0:
57,47,67212,2,0,B|51:74|51:74|74:114,1,53.9999983520508
21,265,67324,5,10,0:2:0:0:
12,261,67380,1,0,0:0:0:0:
3,257,67436,2,0,B|-3:230|-3:230|20:190,1,53.9999983520508
175,99,67548,6,0,L|237:107,1,53.9999983520508,6|0,0:2|0:0,0:0:0:0:
127,264,67660,1,0,0:0:0:0:
124,253,67716,1,0,0:0:0:0:
120,242,67772,1,8,0:2:0:0:
311,135,67884,6,0,L|258:129,1,53.9999983520508,8|0,0:2|0:0,0:0:0:0:
203,272,67996,1,0,0:0:0:0:
207,283,68052,1,0,0:0:0:0:
210,294,68108,1,8,0:2:0:0:
346,159,68219,6,0,L|408:167,1,53.9999983520508,8|0,0:2|0:0,0:0:0:0:
298,324,68331,1,0,0:0:0:0:
295,313,68387,1,0,0:0:0:0:
291,302,68443,1,8,0:2:0:0:
486,197,68555,6,0,L|433:191,1,53.9999983520508
378,334,68667,1,8,0:2:0:0:
382,345,68723,1,0,0:0:0:0:
385,356,68779,1,8,0:2:0:0:
486,125,68891,5,2,0:2:0:0:
495,121,68947,1,0,0:0:0:0:
504,117,69003,2,0,B|510:90|510:90|487:50,1,53.9999983520508
442,273,69115,5,2,0:2:0:0:
451,277,69171,1,0,0:0:0:0:
460,281,69227,2,0,B|466:308|466:308|443:348,1,53.9999983520508
291,380,69339,6,0,L|277:316,1,53.9999983520508,6|0,0:2|0:0,0:0:0:0:
132,310,69451,1,0,0:0:0:0:
121,313,69507,1,0,0:0:0:0:
110,316,69563,1,8,0:2:0:0:
212,278,69675,6,0,L|226:214,1,53.9999983520508,8|0,0:2|0:0,0:0:0:0:
371,208,69787,1,0,0:0:0:0:
382,211,69843,1,0,0:0:0:0:
393,214,69899,1,8,0:2:0:0:
297,189,70011,6,0,L|283:125,1,53.9999983520508,8|0,0:2|0:0,0:0:0:0:
138,119,70123,1,0,0:0:0:0:
127,122,70179,1,0,0:0:0:0:
116,125,70235,1,8,0:2:0:0:
219,88,70346,6,0,L|233:24,1,53.9999983520508
378,18,70458,1,8,0:2:0:0:
389,21,70514,1,0,0:0:0:0:
400,24,70570,1,8,0:2:0:0:
210,174,70682,5,2,0:2:0:0:
201,178,70738,1,0,0:0:0:0:
192,182,70794,2,0,B|186:209|186:209|209:249,1,53.9999983520508
322,284,70906,5,2,0:2:0:0:
323,293,70962,1,0,0:0:0:0:
324,303,71018,2,0,B|348:315|348:315|393:303,1,53.9999983520508
496,224,71130,6,0,B|505:199|505:199|491:148|491:148|493:139|493:139|477:96|477:96|446:75|446:75|461:122,1,215.999993408203,4|0,3:2|0:0,0:0:0:0:
425,303,71466,5,0,1:1:0:0:
422,316,71521,1,0,1:1:0:0:
419,328,71577,1,0,1:1:0:0:
416,342,71633,1,0,1:1:0:0:
414,355,71689,1,0,1:1:0:0:
323,148,71802,5,0,1:1:0:0:
327,122,71858,1,0,1:1:0:0:
333,94,71914,1,0,1:1:0:0:
339,70,71970,1,0,1:1:0:0:
345,44,72025,1,0,1:1:0:0:
210,174,72137,5,0,1:1:0:0:
198,226,72192,1,0,1:1:0:0:
186,274,72248,1,0,1:1:0:0:
174,330,72304,1,0,1:1:0:0:
166,382,72360,1,0,1:1:0:0:
82,105,72473,5,0,0:0:0:0:
110,99,72528,1,0,0:0:0:0:
140,94,72584,1,0,0:0:0:0:
169,89,72640,1,0,0:0:0:0:
193,44,72697,5,0,0:0:0:0:
142,52,72753,1,0,0:0:0:0:
91,60,72809,1,0,0:0:0:0:
43,70,72864,1,0,0:0:0:0:
7,37,72921,5,2,0:2:0:0:
7,37,73369,1,2,0:0:0:0:
177,27,73817,5,8,0:0:0:0:
212,38,73891,1,8,0:0:0:0:
246,47,73966,1,8,0:0:0:0:
279,57,74040,1,8,0:0:0:0:
313,66,74115,1,8,0:0:0:0:
347,76,74190,1,8,0:0:0:0:
280,135,74264,5,0,3:0:0:0:
272,136,74338,1,0,3:0:0:0:
265,138,74413,1,0,3:0:0:0:
258,140,74487,1,4,3:0:0:0:
251,142,74562,1,4,3:0:0:0:
244,144,74637,1,4,3:0:0:0:
177,190,74712,5,2,3:2:0:0:
179,195,74787,1,0,0:0:0:0:
182,199,74862,1,0,0:0:0:0:
221,251,74936,5,8,0:0:0:0:
273,222,75010,1,8,0:0:0:0:
326,193,75085,1,8,0:0:0:0:
299,123,75160,5,0,3:0:0:0:
293,122,75235,1,0,0:0:0:0:
287,123,75310,1,0,0:0:0:0:
223,131,75384,5,10,0:0:0:0:
222,190,75458,1,8,0:0:0:0:
221,251,75533,1,8,0:0:0:0:
295,263,75608,5,2,3:2:0:0:
298,258,75683,1,0,0:0:0:0:
301,252,75758,1,0,0:0:0:0:
326,193,75832,5,8,0:2:0:0:
275,162,75906,1,8,0:2:0:0:
223,131,75981,1,8,0:2:0:0:
173,97,76055,6,0,L|98:111,2,60,2|0|0,3:2|0:0|0:0,0:0:0:0:
91,181,76279,2,0,L|16:195,2,60,2|0|0,3:2|0:0|0:0,0:0:0:0:
153,255,76503,5,2,3:2:0:0:
155,249,76578,1,0,0:0:0:0:
159,244,76653,1,0,0:0:0:0:
221,274,76727,5,10,0:2:0:0:
217,279,76802,1,8,0:2:0:0:
215,285,76877,1,8,0:2:0:0:
297,285,76950,5,2,3:2:0:0:
295,279,77025,1,0,0:0:0:0:
291,274,77100,1,0,0:0:0:0:
353,244,77175,5,10,0:2:0:0:
357,249,77249,1,8,0:2:0:0:
359,255,77324,1,8,0:2:0:0:
429,281,77399,5,2,3:2:0:0:
430,273,77473,1,0,0:0:0:0:
432,265,77548,1,0,0:0:0:0:
433,258,77622,1,8,0:2:0:0:
435,250,77697,1,8,0:2:0:0:
437,243,77772,1,8,0:2:0:0:
468,213,77846,5,2,3:2:0:0:
459,235,77920,1,0,3:0:0:0:
452,258,77995,1,0,3:0:0:0:
446,281,78069,1,2,3:2:0:0:
441,305,78144,1,0,3:0:0:0:
438,328,78219,1,0,3:0:0:0:
372,368,78294,5,2,3:2:0:0:
369,360,78369,1,0,0:0:0:0:
365,353,78444,1,0,0:0:0:0:
340,288,78518,5,8,0:2:0:0:
280,277,78592,1,8,0:2:0:0:
221,266,78667,1,8,0:2:0:0:
149,256,78742,5,0,3:2:0:0:
209,245,78816,1,0,0:0:0:0:
268,234,78891,1,0,0:0:0:0:
327,221,78966,1,10,0:2:0:0:
387,210,79040,1,8,0:2:0:0:
446,199,79115,1,8,0:2:0:0:
512,182,79190,5,2,3:2:0:0:
509,174,79265,1,0,0:0:0:0:
505,167,79340,1,0,0:0:0:0:
479,105,79414,5,8,0:2:0:0:
420,93,79488,1,8,0:2:0:0:
361,81,79563,1,8,0:2:0:0:
302,69,79637,6,0,L|216:87,2,60,2|8|8,3:2|0:0|0:2,0:0:0:0:
192,15,79861,2,0,L|106:33,2,60,10|8|8,3:2|0:0|0:2,0:0:0:0:
259,192,80085,5,2,3:2:0:0:
257,195,80160,1,0,0:0:0:0:
257,199,80235,1,0,0:0:0:0:
292,260,80309,5,8,0:2:0:0:
328,213,80383,1,8,0:2:0:0:
366,166,80458,1,8,0:2:0:0:
294,134,80533,5,0,3:2:0:0:
234,125,80607,1,0,0:0:0:0:
175,115,80682,1,0,0:0:0:0:
186,190,80757,5,10,0:2:0:0:
209,247,80831,1,8,0:2:0:0:
230,303,80906,1,8,0:2:0:0:
276,376,80981,5,2,3:2:0:0:
288,377,81055,1,0,0:0:0:0:
302,379,81130,1,0,0:0:0:0:
315,381,81204,1,8,0:2:0:0:
328,382,81279,1,8,0:2:0:0:
341,384,81354,1,8,0:2:0:0:
384,358,81428,5,8,3:2:0:0:
336,349,81503,1,8,0:2:0:0:
287,343,81578,1,8,0:2:0:0:
237,337,81652,1,8,0:2:0:0:
188,331,81727,1,8,0:2:0:0:
140,325,81801,1,8,0:2:0:0:
66,316,81876,5,2,0:2:0:0:
64,309,81950,1,0,0:0:0:0:
63,302,82025,1,0,0:0:0:0:
62,295,82099,1,8,0:2:0:0:
61,288,82174,1,0,0:0:0:0:
60,282,82249,1,0,0:0:0:0:
58,275,82323,1,8,0:2:0:0:
57,268,82398,1,0,0:0:0:0:
56,261,82473,1,0,0:0:0:0:
34,225,82548,5,10,0:2:0:0:
77,212,82622,1,0,0:0:0:0:
120,199,82697,1,0,0:0:0:0:
155,173,82772,5,10,0:2:0:0:
207,181,82846,1,0,0:0:0:0:
258,189,82921,1,0,0:0:0:0:
311,197,82995,1,8,0:2:0:0:
363,205,83070,1,0,0:0:0:0:
415,214,83145,1,0,0:0:0:0:
467,224,83219,6,0,B|482:179|482:179|439:131,2,90.0000034332277,10|0|0,0:2|0:0|0:0,0:0:0:0:
509,51,83443,2,0,B|487:8|487:8|423:5,2,90.0000034332277,10|0|0,0:2|0:0|0:0,0:0:0:0:
361,78,83667,5,10,0:2:0:0:
355,99,83741,1,0,0:0:0:0:
350,121,83816,1,0,0:0:0:0:
299,141,83891,5,10,0:2:0:0:
277,134,83965,1,0,0:0:0:0:
256,130,84040,1,0,0:0:0:0:
205,150,84115,5,10,0:2:0:0:
199,171,84189,1,0,0:0:0:0:
194,193,84264,1,0,0:0:0:0:
143,213,84339,5,10,0:2:0:0:
121,206,84413,1,0,0:0:0:0:
100,202,84488,1,0,0:0:0:0:
59,178,84563,5,10,0:2:0:0:
23,183,84637,1,0,0:0:0:0:
61,206,84712,1,0,0:0:0:0:
25,211,84786,1,10,0:2:0:0:
64,233,84861,1,0,0:0:0:0:
28,238,84935,1,0,0:0:0:0:
66,261,85010,1,10,0:2:0:0:
30,266,85084,1,0,0:0:0:0:
69,289,85160,1,0,0:0:0:0:
33,294,85234,1,10,0:2:0:0:
71,317,85309,1,0,0:0:0:0:
35,322,85383,1,0,0:0:0:0:
55,350,85458,5,10,0:2:0:0:
84,345,85532,1,0,0:0:0:0:
114,341,85607,1,0,0:0:0:0:
144,337,85681,1,8,0:2:0:0:
173,333,85756,1,0,0:0:0:0:
203,328,85831,1,0,0:0:0:0:
233,324,85905,1,8,0:2:0:0:
262,320,85980,1,0,0:0:0:0:
292,316,86055,1,0,0:0:0:0:
335,328,86130,5,10,0:2:0:0:
324,284,86204,1,0,0:0:0:0:
313,240,86279,1,0,0:0:0:0:
276,216,86354,5,10,0:2:0:0:
284,180,86428,1,0,0:0:0:0:
292,145,86503,1,0,0:0:0:0:
300,110,86577,1,8,0:2:0:0:
308,75,86652,1,0,0:0:0:0:
317,40,86727,1,0,0:0:0:0:
327,0,86802,5,10,0:2:0:0:
366,21,86876,1,0,0:0:0:0:
405,43,86951,1,0,0:0:0:0:
451,42,87025,5,8,0:2:0:0:
439,84,87099,1,0,0:0:0:0:
428,128,87174,1,0,0:0:0:0:
452,166,87249,5,4,3:2:0:0:
189,175,87585,6,0,B|217:134|191:79|136:72|101:102|97:138|97:138|60:107|2:127|-9:181|16:219|51:227|51:227|51:227|51:227|120:255|173:295|165:344|142:350|101:352|123:317,1,561.599996572266,4|0,3:2|3:2,0:0:0:0:
189,175,89040,1,4,3:2:0:0:
256,192,89096,12,0,91727,0:0:0:0:
416,307,92622,5,2,0:0:0:0:
468,266,92733,1,0,0:0:0:0:
447,202,92845,1,0,0:0:0:0:
499,161,92956,1,2,0:0:0:0:
408,322,93294,5,2,0:0:0:0:
471,273,93405,1,0,0:0:0:0:
445,196,93517,1,0,0:0:0:0:
508,147,93628,1,0,0:0:0:0:
373,37,94189,5,2,0:0:0:0:
333,58,94301,1,0,0:0:0:0:
289,44,94413,1,0,0:0:0:0:
246,30,94524,1,2,0:0:0:0:
246,30,94860,5,2,0:0:0:0:
199,33,94972,1,0,0:0:0:0:
154,36,95083,1,0,0:0:0:0:
88,99,95196,5,0,0:0:0:0:
175,121,95308,1,0,0:0:0:0:
154,36,95420,1,0,0:0:0:0:
46,280,95756,5,2,0:0:0:0:
111,261,95868,1,0,0:0:0:0:
175,281,95980,1,0,0:0:0:0:
237,307,96092,1,2,0:0:0:0:
46,280,96427,5,2,0:0:0:0:
119,301,96539,1,0,0:0:0:0:
192,278,96651,1,0,0:0:0:0:
263,249,96763,1,0,0:0:0:0:
323,303,96875,5,0,0:0:0:0:
323,303,96987,1,0,0:0:0:0:
323,303,97099,1,0,0:0:0:0:
430,149,97323,5,2,0:0:0:0:
457,87,97435,1,0,0:0:0:0:
388,14,97547,1,0,0:0:0:0:
361,76,97659,1,2,0:0:0:0:
376,16,97995,5,2,0:0:0:0:
349,78,98107,1,0,0:0:0:0:
351,145,98219,1,0,0:0:0:0:
324,207,98331,5,2,0:0:0:0:
360,297,98442,1,0,0:0:0:0:
314,220,98554,1,0,0:0:0:0:
350,310,98665,1,2,0:0:0:0:
316,369,98778,1,0,0:0:0:0:
101,73,99562,6,0,P|88:39|118:59,1,90,4|0,3:2|0:0,0:0:0:0:
220,143,99897,2,0,P|232:109|202:129,1,90
117,220,100233,6,0,P|102:191|132:210,1,90,2|0,3:2|0:0,0:0:0:0:
141,363,100457,6,0,L|192:351,1,45,8|0,0:0|0:0,0:0:0:0:
273,282,100569,2,0,L|229:292,1,45,8|0,0:0|0:0,0:0:0:0:
315,201,100681,6,0,L|366:189,1,45,8|0,0:0|0:0,0:0:0:0:
447,120,100793,2,0,L|403:130,1,45,8|0,0:0|0:0,0:0:0:0:
186,81,100905,6,0,L|237:69,1,45,10|0,0:0|0:0,0:0:0:0:
318,0,101017,2,0,L|274:10,1,45,10|0,0:0|0:0,0:0:0:0:
248,168,101129,5,4,3:2:0:0:
264,168,101185,1,0,0:0:0:0:
248,180,101241,1,0,0:0:0:0:
264,180,101297,1,0,0:0:0:0:
248,192,101353,1,0,0:0:0:0:
264,192,101409,1,0,0:0:0:0:
248,204,101465,1,0,0:0:0:0:
264,204,101521,1,0,0:0:0:0:
248,216,101577,1,0,0:0:0:0:
264,216,101633,1,0,0:0:0:0:
248,228,101689,1,0,0:0:0:0:
264,228,101745,1,0,0:0:0:0:
248,240,101801,1,0,0:0:0:0:
264,240,101857,1,0,0:0:0:0:
248,252,101913,1,0,0:0:0:0:
264,252,101969,1,0,0:0:0:0:
256,280,102024,6,0,L|239:330,1,45,8|0,0:0|0:0,0:0:0:0:
164,305,102136,2,0,L|179:263,1,45,8|0,0:0|0:0,0:0:0:0:
179,148,102248,6,0,L|144:108,1,45,8|0,0:0|0:0,0:0:0:0:
203,55,102360,2,0,L|233:89,1,45,8|0,0:0|0:0,0:0:0:0:
332,148,102472,6,0,L|384:137,1,45,10|0,0:0|0:0,0:0:0:0:
400,214,102584,2,0,L|355:223,1,45,8|0,0:0|0:0,0:0:0:0:
419,348,102696,6,0,B|394:374|394:374|428:381|428:381|417:350,1,90,4|0,3:2|0:0,0:0:0:0:
512,253,103032,2,0,B|536:226|536:226|502:219|502:219|513:250,1,90
323,227,103367,6,0,B|300:253|300:253|332:260|332:260|322:230,1,90,2|0,3:2|0:0,0:0:0:0:
242,316,103591,5,8,0:0:0:0:
215,305,103646,1,0,0:0:0:0:
189,294,103702,1,8,0:0:0:0:
162,282,103758,1,0,0:0:0:0:
136,272,103815,6,0,L|120:198,1,45,8|0,0:0|0:0,0:0:0:0:
190,176,103927,2,0,L|199:219,1,45,8|0,0:0|0:0,0:0:0:0:
38,205,104039,2,0,L|22:131,1,45,10|0,0:0|0:0,0:0:0:0:
92,109,104151,2,0,L|101:152,1,45,10|0,0:0|0:0,0:0:0:0:
283,257,104263,5,2,3:2:0:0:
361,241,104374,1,0,0:0:0:0:
439,223,104486,1,0,0:0:0:0:
359,257,104598,5,2,3:2:0:0:
281,275,104710,1,0,0:0:0:0:
203,291,104821,1,0,0:0:0:0:
122,274,104934,5,2,3:2:0:0:
83,202,105046,1,0,0:0:0:0:
141,145,105158,1,0,0:0:0:0:
220,128,105270,5,2,3:2:0:0:
259,56,105382,1,0,0:0:0:0:
201,0,105494,1,0,0:0:0:0:
176,219,105606,5,10,3:2:0:0:
350,291,106054,5,14,0:2:0:0:
366,293,106109,1,0,0:0:0:0:
383,296,106165,1,0,0:0:0:0:
400,298,106221,1,0,0:0:0:0:
416,301,106277,1,8,0:2:0:0:
433,303,106333,1,0,0:0:0:0:
467,274,106389,5,2,0:2:0:0:
437,270,106445,1,0,0:0:0:0:
411,264,106501,1,8,0:2:0:0:
384,261,106557,1,0,0:0:0:0:
356,257,106613,1,0,0:0:0:0:
329,253,106668,1,0,0:0:0:0:
302,246,106725,5,10,0:2:0:0:
294,230,106780,1,0,0:0:0:0:
287,215,106836,1,0,0:0:0:0:
280,200,106892,1,0,0:0:0:0:
273,185,106948,1,8,0:2:0:0:
265,169,107004,1,0,0:0:0:0:
258,154,107060,1,0,0:0:0:0:
251,139,107116,1,0,0:0:0:0:
244,124,107172,1,8,0:2:0:0:
236,108,107228,1,0,0:0:0:0:
229,93,107284,1,0,0:0:0:0:
222,78,107340,1,0,0:0:0:0:
215,63,107397,6,0,L|121:53,1,67.5000025749208,10|0,0:2|0:0,0:0:0:0:
29,131,107509,2,0,L|96:138,1,67.5000025749208,2|0,0:2|0:0,0:0:0:0:
349,57,107621,5,10,0:2:0:0:
366,55,107677,1,0,0:0:0:0:
382,52,107733,1,0,0:0:0:0:
399,50,107789,1,0,0:0:0:0:
416,47,107845,1,8,0:2:0:0:
432,45,107900,1,0,0:0:0:0:
477,31,107957,5,2,0:2:0:0:
466,59,108013,1,0,0:0:0:0:
455,83,108069,1,8,0:2:0:0:
447,109,108125,1,0,0:0:0:0:
437,136,108181,1,0,0:0:0:0:
427,161,108236,1,0,0:0:0:0:
414,186,108292,5,10,0:2:0:0:
398,190,108348,1,0,0:0:0:0:
382,195,108404,1,0,0:0:0:0:
365,200,108460,1,0,0:0:0:0:
349,205,108516,1,8,0:2:0:0:
333,209,108572,1,0,0:0:0:0:
317,214,108628,1,0,0:0:0:0:
300,219,108684,1,0,0:0:0:0:
284,224,108740,1,8,0:2:0:0:
268,228,108796,1,0,0:0:0:0:
252,233,108852,1,0,0:0:0:0:
235,238,108907,1,0,0:0:0:0:
217,242,108964,6,0,L|198:314,1,67.5000025749208,10|0,0:2|0:0,0:0:0:0:
75,376,109076,2,0,L|92:310,1,67.5000025749208,2|0,0:2|0:0,0:0:0:0:
66,176,109188,5,10,0:2:0:0:
57,161,109244,1,0,0:0:0:0:
47,148,109300,1,0,0:0:0:0:
38,133,109356,1,0,0:0:0:0:
28,119,109412,1,8,0:2:0:0:
20,105,109467,1,0,0:0:0:0:
0,68,109524,5,2,0:2:0:0:
29,70,109580,1,0,0:0:0:0:
56,73,109636,1,8,0:2:0:0:
83,73,109692,1,0,0:0:0:0:
112,75,109748,1,0,0:0:0:0:
138,77,109803,1,0,0:0:0:0:
166,100,109860,5,10,0:2:0:0:
183,95,109915,1,0,0:0:0:0:
199,90,109971,1,0,0:0:0:0:
215,86,110027,1,0,0:0:0:0:
231,81,110083,1,8,0:2:0:0:
248,76,110139,1,0,0:0:0:0:
264,71,110195,1,0,0:0:0:0:
280,67,110251,1,0,0:0:0:0:
296,62,110307,1,8,0:2:0:0:
313,57,110363,1,0,0:0:0:0:
329,52,110419,1,0,0:0:0:0:
345,48,110475,1,0,0:0:0:0:
361,42,110531,6,0,L|343:128,1,67.5000025749208,10|0,0:2|0:0,0:0:0:0:
484,172,110643,2,0,L|470:238,1,67.5000025749208,2|0,0:2|0:0,0:0:0:0:
303,379,110755,5,10,0:2:0:0:
286,373,110811,1,0,0:0:0:0:
270,370,110867,1,0,0:0:0:0:
253,364,110923,1,0,0:0:0:0:
236,360,110979,1,8,0:2:0:0:
221,355,111034,1,0,0:0:0:0:
184,327,111091,5,2,0:2:0:0:
210,316,111147,1,0,0:0:0:0:
235,304,111203,1,8,0:2:0:0:
261,296,111259,1,0,0:0:0:0:
288,285,111315,1,0,0:0:0:0:
312,275,111370,1,0,0:0:0:0:
355,255,111427,5,10,0:2:0:0:
318,239,111483,1,0,0:0:0:0:
283,222,111539,1,0,0:0:0:0:
246,211,111595,1,0,0:0:0:0:
208,195,111651,1,8,0:2:0:0:
19,187,111762,6,0,B|-1:219|-1:219|15:266,1,67.5000025749208,2|0,0:2|0:0,0:0:0:0:
136,267,111874,1,8,0:2:0:0:
83,65,111986,1,0,0:2:0:0:
221,107,112098,2,0,B|237:102|237:102|293:114,1,67.5000025749208,8|0,0:2|0:0,0:0:0:0:
242,124,112210,2,0,B|251:135|251:135|314:146,1,67.5000025749208,8|0,0:2|0:0,0:0:0:0:
412,191,112322,6,0,B|397:161|397:161|417:107|417:107|427:104|427:104|447:47|447:47|443:50|443:50|472:-14|472:-14|474:60,1,270.000010299683,6|0,3:2|0:0,0:0:0:0:
502,126,112658,2,0,B|517:156|517:156|497:210|497:210|487:213|487:213|467:270|467:270|471:267|471:267|442:331|442:331|400:354,1,270.000010299683,2|0,3:2|0:0,0:0:0:0:
318,346,112994,6,0,B|262:325|262:325|256:315|256:315|280:263|280:263|294:257|294:257|346:277|346:277|350:287|350:287|322:344,1,270,2|0,3:2|0:0,0:0:0:0:
325,357,113777,1,0,0:0:0:0:
137,297,113889,6,0,B|65:352|65:352|69:360|69:360|158:386|158:386|164:381|164:381|138:295,1,270.000010299683,2|0,3:2|0:0,0:0:0:0:
408,221,114225,2,0,B|479:165|479:165|475:157|475:157|386:131|386:131|381:137|381:137|407:223,1,270.000010299683,2|0,3:2|0:0,0:0:0:0:
214,244,114561,6,0,B|57:155|57:155|46:141|46:141|66:50|66:50|118:26|118:26|171:44|171:44|171:44|171:44|210:3|210:3|267:-1|267:-1|327:71|327:71|324:88|324:88|227:240,1,810.00003089905,2|0,3:2|0:0,0:0:0:0:
310,253,116632,5,2,0:0:0:0:
389,238,116968,1,2,0:0:0:0:
465,220,117304,1,2,0:0:0:0:
465,220,118227,6,0,L|469:238,1,11.25,2|0,0:0|0:0,0:0:0:0:
