osu file format v14

[General]
AudioFilename: audio.mp3
AudioLeadIn: 0
PreviewTime: 143808
Countdown: 0
SampleSet: Soft
StackLeniency: 0.7
Mode: 0
LetterboxInBreaks: 0
WidescreenStoryboard: 0

[Editor]
Bookmarks: 1397,12498,23599,35048,46149,57251,68005,79107,90555,101657,112758,123860,134614,145746,168295,190122,212331,234594,256253
DistanceSpacing: 0.3
BeatDivisor: 4
GridSize: 16
TimelineZoom: 1

[Metadata]
Title:offense mechanism
TitleUnicode:offense mechanism
Artist:defsharp
ArtistUnicode:defsharp
Creator:Mimari
Version:to get older
Source:
Tags:infrequent flyers program i love ganyu english hyperpop pop alternative electronic markus- aether_xx
BeatmapID:3721637
BeatmapSetID:1814114

[Difficulty]
HPDrainRate:6
CircleSize:4
OverallDifficulty:8
ApproachRate:9
SliderMultiplier:1.5
SliderTickRate:1

[Events]
//Background and Video events
0,0,"zzzz.jpg",0,0
//Break Periods
//Storyboard Layer 0 (Background)
//Storyboard Layer 1 (Fail)
//Storyboard Layer 2 (Pass)
//Storyboard Layer 3 (Foreground)
//Storyboard Layer 4 (Overlay)
//Storyboard Sound Samples

[TimingPoints]
1383,346.981263011797,4,2,1,65,1,0
1723,-90.9090909090909,4,2,1,65,0,0
12479,-86.9565217391304,4,2,1,65,0,0
23580,-86.9565217391304,4,2,4,30,0,0
23927,-133.333333333333,4,2,4,30,0,0
27744,-285.714285714284,4,2,4,30,0,0
29478,-133.333333333333,4,2,4,30,0,0
38845,-285.714285714284,4,2,4,30,0,0
40580,-133.333333333333,4,2,4,30,0,0
45783,-133.333333333333,4,2,4,50,0,0
46130,-90.9090909090909,4,2,4,50,0,0
50293,-83.3333333333333,4,2,4,50,0,0
50640,-90.9090909090909,4,2,4,50,0,0
63833,-100,4,2,4,50,0,0
64527,-90.9090909090909,4,2,4,50,0,0
67986,-90.9090909090909,4,2,4,70,0,0
68333,-83.3333333333333,4,2,4,70,0,0
90189,-83.3333333333333,4,2,1,75,0,0
90536,-86.9565217391304,4,2,1,75,0,0
101291,-86.9565217391304,4,2,1,30,0,0
104066,-90.9090909090909,4,2,4,50,0,0
123841,-83.3333333333333,4,2,4,50,0,0
143789,-83.3333333333333,4,2,4,5,0,0
145721,-500,4,2,3,28,0,0
167929,-500,4,2,3,34,0,0
168274,-166.666666666667,4,2,3,34,0,0
187011,-125,4,2,3,34,0,0
187355,-125,4,2,3,15,0,0
189439,-125,4,2,3,85,0,0
190103,-76.9230769230769,4,3,45,90,0,0
211965,-76.9230769230769,4,3,45,30,0,0
212312,-71.4285714285714,4,3,45,90,0,0
237343,346.981263011797,4,2,1,65,1,0
237343,-285.714285714284,4,2,45,75,0,0
244957,-100,4,2,0,65,0,0
245651,-100,4,2,3,70,0,0
251573,-100,4,2,3,75,0,0
253998,-100,4,3,3,85,0,0
255389,-100,4,3,3,90,0,0
256061,-100,4,2,3,100,0,0
256234,-200,4,2,3,100,0,0
256773,-200,4,2,3,35,0,0

[Colours]
Combo1 : 208,207,168
Combo2 : 239,239,239
Combo3 : 188,182,158

[HitObjects]
21,61,1383,5,0,0:0:0:0:
168,123,1556,1,0,0:0:0:0:
67,202,1729,2,0,L|82:97,1,82.5000025177003,8|0,0:2|0:0,0:0:0:0:
257,35,2076,5,0,0:0:0:0:
257,35,2250,2,0,P|353:68|335:144,1,165.000005035401
424,277,2770,6,0,L|412:195,1,82.5000025177003
356,352,3117,1,8,0:2:0:0:
502,326,3291,2,0,P|436:297|350:371,1,165.000005035401
438,382,3811,5,8,0:2:0:0:
21,323,4158,5,0,0:0:0:0:
168,261,4332,1,0,0:0:0:0:
67,182,4505,2,0,L|82:291,1,82.5000025177003,8|0,0:2|0:0,0:0:0:0:
257,349,4852,5,0,0:0:0:0:
257,349,5026,2,0,P|353:316|335:240,1,165.000005035401
422,109,5546,6,0,L|410:191,1,82.5000025177003
356,32,5893,1,8,0:2:0:0:
502,58,6067,2,0,P|436:87|350:13,1,165.000005035401
436,2,6587,5,8,0:2:0:0:
99,53,6934,6,0,L|204:72,1,82.5000025177003
75,128,7281,2,0,L|180:147,1,82.5000025177003,8|0,0:2|0:0,0:0:0:0:
256,0,7628,5,0,0:0:0:0:
256,0,7802,1,0,0:0:0:0:
435,215,7975,6,0,L|303:237,1,123.75000377655,8|0,0:2|0:0,0:0:0:0:
254,191,8322,6,0,P|246:147|268:108,1,82.5000025177003
393,307,8669,2,0,P|394:330|388:305,1,82.5000025177003,8|0,0:2|0:0,0:0:0:0:
255,372,9016,5,0,0:0:0:0:
255,372,9190,2,0,P|164:359|163:284,1,165.000005035401
26,158,9710,5,0,0:0:0:0:
173,220,9884,1,0,0:0:0:0:
72,299,10057,2,0,L|87:190,1,82.5000025177003,8|0,0:2|0:0,0:0:0:0:
257,12,10404,6,0,P|348:25|349:100,2,165.000005035401,0|8|0,0:0|0:2|0:0,0:0:0:0:
429,217,11445,5,8,0:2:0:0:
510,79,11618,1,0,0:0:0:0:
83,217,11965,6,0,L|72:299,1,82.5000025177003,8|0,0:2|0:0,0:0:0:0:
2,79,12312,1,8,0:2:0:0:
226,180,12486,5,0,3:0:0:0:
181,22,12659,1,2,0:2:0:0:
83,103,12833,2,0,L|199:119,1,86.2500016450882,8|0,3:2|0:0,0:0:0:0:
255,329,13180,5,0,3:0:0:0:
357,250,13353,2,0,P|342:329|262:337,1,172.500003290176,2|2,0:2|0:2,0:0:0:0:
99,198,13874,6,0,L|86:283,1,86.2500016450882,0|0,3:0|0:0,0:0:0:0:
158,356,14221,1,8,3:2:0:0:
4,331,14394,2,0,P|74:300|160:374,1,172.500003290176,2|0,0:2|0:0,0:0:0:0:
74,382,14915,5,8,3:2:0:0:
299,189,15262,5,0,3:0:0:0:
331,22,15435,1,2,0:2:0:0:
429,103,15609,2,0,L|313:119,1,86.2500016450882,8|0,3:2|0:0,0:0:0:0:
257,329,15956,5,0,3:0:0:0:
155,250,16129,2,0,P|169:329|249:337,1,172.500003290176,2|2,0:2|0:2,0:0:0:0:
413,198,16650,6,0,L|425:283,1,86.2500016450882,0|0,3:0|0:0,0:0:0:0:
354,356,16997,1,8,3:2:0:0:
508,331,17170,2,0,P|438:300|352:374,1,172.500003290176,2|0,0:2|0:0,0:0:0:0:
438,382,17691,5,8,3:2:0:0:
132,55,18038,6,0,L|28:72,1,86.2500016450882,0|0,3:0|0:0,0:0:0:0:
117,141,18385,2,0,L|13:158,1,86.2500016450882,10|0,3:2|0:0,0:0:0:0:
256,0,18732,5,2,3:2:0:0:
256,0,18905,1,0,0:0:0:0:
365,217,19079,6,0,L|501:239,1,129.375002467632,10|0,3:2|0:0,0:0:0:0:
511,163,19426,6,0,P|515:125|475:84,1,86.2500016450882,2|0,3:2|0:0,0:0:0:0:
259,260,19773,2,0,P|268:279|253:259,1,86.2500016450882,10|0,3:2|0:0,0:0:0:0:
166,141,20119,5,2,3:2:0:0:
338,114,20293,1,0,0:0:0:0:
256,10,20466,6,0,L|246:95,1,86.2500016450882,10|0,3:2|0:0,0:0:0:0:
75,381,20813,5,0,3:0:0:0:
24,203,20987,1,0,0:0:0:0:
171,292,21160,2,0,L|59:280,1,86.2500016450882,10|0,3:2|0:0,0:0:0:0:
0,11,21507,6,0,P|8:83|117:91,2,172.500003290176,0|8|0,3:0|3:2|3:0,0:0:0:0:
97,98,22375,5,2,0:2:0:0:
259,2,22548,2,0,L|249:87,1,86.2500016450882,8|0,3:2|0:0,0:0:0:0:
416,337,22895,5,2,3:2:0:0:
254,241,23069,2,0,L|263:326,1,86.2500016450882,8|0,3:2|0:0,0:0:0:0:
88,206,23416,5,8,3:2:0:0:
416,186,23589,1,4,3:3:0:0:
416,186,23936,6,0,P|482:192|484:50,2,225.000008583069,8|8|8,0:2|0:2|0:2,0:0:0:0:
96,186,26018,2,0,P|30:192|28:50,2,225.000008583069,8|8|8,0:2|0:2|0:2,0:0:0:0:
257,0,27753,6,0,L|254:57,2,52.4999983978272,0|8|0,0:0|0:2|0:0,0:0:0:0:
255,384,28794,2,0,L|258:327,1,52.4999983978272,8|0,0:2|3:0,0:0:0:0:
495,194,29488,6,0,P|429:188|427:330,2,225.000008583069,8|8|8,0:2|0:2|0:2,0:0:0:0:
17,194,31570,2,0,P|83:188|85:330,2,225.000008583069,8|8|8,0:2|0:2|0:2,0:0:0:0:
254,0,33652,5,8,0:2:0:0:
212,153,34172,5,0,0:0:0:0:
310,193,34346,1,8,0:2:0:0:
212,231,34519,1,0,0:0:0:0:
257,383,34693,5,4,3:3:0:0:
510,224,35040,6,0,P|505:132|509:-12,2,225.000008583069,8|8|8,0:2|0:2|0:2,0:0:0:0:
2,160,37122,2,0,P|7:252|3:396,2,225.000008583069,8|8|8,0:2|0:2|0:2,0:0:0:0:
257,0,38856,6,0,L|254:57,2,52.4999983978272,0|8|0,0:0|0:2|0:0,0:0:0:0:
255,384,39897,2,0,L|258:327,1,52.4999983978272,8|0,0:2|3:0,0:0:0:0:
512,134,40591,6,0,P|420:139|276:135,2,225.000008583069,8|8|8,0:2|0:2|0:2,0:0:0:0:
0,250,42673,2,0,P|92:245|236:249,2,225.000008583069,8|8|8,0:2|0:2|0:2,0:0:0:0:
254,0,44755,5,8,0:2:0:0:
212,146,44929,5,2,0:3:0:0:
310,193,45102,1,8,0:3:0:0:
213,234,45276,1,0,3:0:0:0:
257,383,45449,5,0,3:0:0:0:
255,79,45623,1,8,0:1:0:0:
253,77,46143,6,0,L|154:66,1,82.5000025177003,8|0,3:2|0:0,0:0:0:0:
19,95,46490,2,0,L|101:105,1,82.5000025177003,0|0,3:2|0:0,0:0:0:0:
257,238,46837,6,0,P|274:267|254:238,1,123.75000377655,8|0,3:2|0:0,0:0:0:0:
271,157,47184,6,0,L|370:146,1,82.5000025177003,0|0,3:2|0:0,0:0:0:0:
504,175,47531,2,0,L|423:185,1,82.5000025177003,8|0,3:2|0:0,0:0:0:0:
258,362,47878,5,0,3:2:0:0:
258,362,48225,2,0,P|167:349|166:274,2,165.000005035401,8|0|8,3:2|3:2|3:2,0:0:0:0:
290,289,49092,1,0,0:0:0:0:
366,266,49266,1,0,3:2:0:0:
437,303,49439,1,0,0:0:0:0:
463,121,49613,6,0,L|476:29,1,82.5000025177003,8|0,3:2|0:0,0:0:0:0:
439,303,49960,2,0,L|427:384,1,82.5000025177003,0|0,3:2|0:0,0:0:0:0:
256,189,50307,6,0,P|183:193|168:272,1,134.999995880127,8|0,3:2|0:0,0:0:0:0:
93,295,50654,6,0,L|104:376,1,82.5000025177003,0|0,3:2|0:0,0:0:0:0:
69,113,51001,2,0,L|57:31,1,82.5000025177003,8|0,3:2|0:0,0:0:0:0:
256,193,51348,6,0,B|338:154|327:257|430:207,2,165.000005035401,0|8|0,3:2|3:2|3:2,0:0:0:0:
188,149,52215,1,0,0:0:0:0:
193,69,52389,1,8,3:2:0:0:
258,26,52562,1,0,0:0:0:0:
410,217,52736,6,0,L|398:298,1,82.5000025177003,0|0,3:2|0:0,0:0:0:0:
102,217,53083,2,0,L|113:298,1,82.5000025177003,8|0,3:2|0:0,0:0:0:0:
406,377,53430,5,0,3:2:0:0:
257,280,53603,1,0,0:0:0:0:
106,377,53777,1,8,3:2:0:0:
254,22,54124,6,0,P|345:35|346:110,1,165.000005035401,0|8,3:2|3:2,0:0:0:0:
254,22,54644,1,0,0:0:0:0:
447,134,54818,6,0,P|364:130|285:153,1,165.000005035401,0|8,3:2|3:2,0:0:0:0:
59,341,55512,6,0,P|141:337|220:359,1,165.000005035401,0|8,3:2|3:2,0:0:0:0:
256,189,56032,5,0,0:0:0:0:
145,294,56206,1,0,3:2:0:0:
73,169,56379,1,0,0:0:0:0:
160,208,56553,5,8,3:2:0:0:
160,208,56726,1,0,0:0:0:0:
410,341,56900,5,4,3:2:0:0:
410,341,57246,6,0,L|421:242,1,82.5000025177003,8|0,3:2|0:0,0:0:0:0:
392,107,57593,2,0,L|382:189,1,82.5000025177003,0|0,3:2|0:0,0:0:0:0:
316,369,57940,6,0,P|259:347|201:367,1,123.75000377655,8|0,3:2|0:0,0:0:0:0:
102,341,58287,6,0,L|91:242,1,82.5000025177003,0|0,3:2|0:0,0:0:0:0:
120,107,58634,2,0,L|130:189,1,82.5000025177003,8|0,3:2|0:0,0:0:0:0:
201,367,58981,6,0,P|259:347|316:369,1,123.75000377655,0|0,3:2|0:0,0:0:0:0:
398,337,59328,6,0,L|409:238,1,82.5000025177003,8|0,3:2|0:0,0:0:0:0:
257,38,59675,5,0,3:2:0:0:
257,38,60022,2,0,P|166:51|165:126,2,165.000005035401,8|0|8,3:2|3:2|3:2,0:0:0:0:
316,91,60890,1,0,0:0:0:0:
392,66,61063,6,0,L|493:53,1,82.5000025177003,0|0,3:2|0:0,0:0:0:0:
283,173,61410,2,0,L|384:160,1,82.5000025177003,8|0,3:2|0:0,0:0:0:0:
456,332,61757,5,0,3:2:0:0:
510,175,61931,1,0,0:0:0:0:
346,247,62104,2,0,L|428:236,1,82.5000025177003,8|0,3:2|0:0,0:0:0:0:
255,360,62451,5,0,3:2:0:0:
255,360,62798,6,0,L|173:349,1,82.5000025177003,8|0,3:2|0:0,0:0:0:0:
146,253,63145,2,0,L|64:242,1,82.5000025177003,0|0,3:2|0:0,0:0:0:0:
256,54,63492,6,0,P|273:25|253:54,1,123.75000377655,8|0,3:2|0:0,0:0:0:0:
320,106,63839,6,0,P|365:98|404:54,1,75,0|0,3:2|0:0,0:0:0:0:
195,108,64186,2,0,P|150:100|112:56,1,75,8|0,3:2|0:0,0:0:0:0:
414,189,64533,6,0,P|447:157|454:35,1,165.000005035401,0|8,3:2|3:2,0:0:0:0:
414,189,65054,1,0,0:0:0:0:
113,189,65227,6,0,P|79:157|73:35,1,165.000005035401,0|8,3:2|3:2,0:0:0:0:
113,189,65748,1,0,0:0:0:0:
202,202,65921,6,0,P|120:207|94:281,1,165.000005035401,0|8,3:2|3:2,0:0:0:0:
255,135,66441,5,0,0:0:0:0:
305,202,66615,2,0,P|384:205|414:277,1,165.000005035401,0|8,3:2|3:2,0:0:0:0:
309,384,67135,5,0,0:2:0:0:
207,339,67309,1,0,3:2:0:0:
313,291,67482,1,8,3:2:0:0:
211,246,67656,1,8,3:3:0:0:
432,103,67829,5,8,3:2:0:0:
75,147,68003,1,0,3:2:0:0:
75,147,68350,6,0,L|171:169,1,89.9999972534181,10|0,3:2|0:0,0:0:0:0:
256,54,68697,6,0,P|270:38|253:54,1,89.9999972534181,0|0,3:0|0:0,0:0:0:0:
437,147,69044,6,0,L|341:169,1,89.9999972534181,10|0,3:2|0:0,0:0:0:0:
101,262,69391,6,0,P|155:265|176:351,1,134.999995880127,0|0,3:0|0:0,0:0:0:0:
258,382,69738,2,0,L|265:266,1,89.9999972534181,10|0,3:2|0:0,0:0:0:0:
250,39,70085,5,0,3:0:0:0:
250,39,70432,2,0,L|243:155,1,89.9999972534181,10|0,3:2|0:0,0:0:0:0:
492,237,70779,6,0,P|438:234|417:148,1,134.999995880127,0|0,3:0|0:0,0:0:0:0:
366,100,71126,2,0,P|408:78|474:190,2,179.999994506836,10|0|10,3:2|3:0|3:2,0:0:0:0:
257,195,71993,5,0,0:0:0:0:
336,175,72167,1,0,3:0:0:0:
147,96,72514,2,0,P|97:85|42:171,1,134.999995880127,10|0,3:2|0:0,0:0:0:0:
20,215,72861,6,0,P|65:219|109:230,1,89.9999972534181,0|0,3:0|0:0,0:0:0:0:
235,110,73208,2,0,P|280:114|324:125,1,89.9999972534181,10|0,3:2|0:0,0:0:0:0:
421,262,73555,2,0,P|466:266|510:277,1,89.9999972534181,0|0,3:0|0:0,0:0:0:0:
259,351,73902,5,10,3:2:0:0:
259,351,74075,1,0,0:0:0:0:
339,289,74249,6,0,P|256:259|172:287,1,179.999994506836,0|10,3:0|3:2,0:0:0:0:
171,287,74769,1,0,0:0:0:0:
98,243,74943,6,0,P|89:191|99:130,1,89.9999972534181,0|0,3:0|0:0,0:0:0:0:
259,34,75290,5,10,3:2:0:0:
259,34,75463,1,0,0:0:0:0:
339,94,75636,6,0,P|256:124|172:97,1,179.999994506836,0|10,3:0|3:2,0:0:0:0:
171,96,76157,1,0,0:0:0:0:
414,141,76330,6,0,P|423:193|413:254,1,89.9999972534181,0|0,3:0|0:0,0:0:0:0:
469,82,76677,5,10,3:2:0:0:
341,196,76851,1,0,0:0:0:0:
254,146,77024,5,0,3:0:0:0:
44,82,77371,5,10,3:2:0:0:
172,196,77545,1,0,0:0:0:0:
256,144,77718,5,0,3:0:0:0:
97,303,78065,5,10,3:2:0:0:
97,303,78239,1,0,0:0:0:0:
188,353,78412,5,0,3:0:0:0:
257,264,78586,1,0,0:0:0:0:
322,356,78759,2,0,P|371:355|466:278,1,134.999995880127,10|0,3:2|0:0,0:0:0:0:
481,240,79106,6,0,L|384:231,1,89.9999972534181,0|0,3:0|0:0,0:0:0:0:
298,74,79453,2,0,L|201:65,1,89.9999972534181,10|0,3:2|0:0,0:0:0:0:
100,205,79800,2,0,L|3:196,1,89.9999972534181,0|0,3:0|0:0,0:0:0:0:
244,378,80147,6,0,P|263:278|256:213,1,134.999995880127,10|0,3:2|0:0,0:0:0:0:
199,187,80494,6,0,P|184:234|188:303,1,89.9999972534181,0|0,3:0|0:0,0:0:0:0:
313,197,80841,2,0,P|328:150|324:81,1,89.9999972534181,10|0,3:2|0:0,0:0:0:0:
117,40,81188,1,0,3:0:0:0:
117,40,81535,6,0,P|51:41|11:150,2,179.999994506836,10|0|10,3:2|3:0|3:2,0:0:0:0:
254,140,82576,1,0,3:0:0:0:
395,40,82923,6,0,P|461:41|501:150,2,179.999994506836,10|0|10,3:2|3:0|3:2,0:0:0:0:
288,47,83791,1,0,0:0:0:0:
344,126,83964,1,0,3:0:0:0:
349,130,84311,6,0,L|339:231,1,89.9999972534181,10|0,3:2|0:0,0:0:0:0:
163,254,84658,2,0,L|173:153,1,89.9999972534181,0|0,3:0|0:0,0:0:0:0:
382,321,85005,5,10,3:2:0:0:
382,321,85178,1,0,0:0:0:0:
256,355,85352,6,0,P|178:344|66:350,1,179.999994506836,0|10,3:0|3:2,0:0:0:0:
77,348,85872,1,0,0:0:0:0:
248,237,86046,6,0,P|291:241|345:238,1,89.9999972534181,0|0,3:0|0:0,0:0:0:0:
420,51,86393,1,10,3:2:0:0:
420,51,86740,6,0,P|500:72|470:180,1,179.999994506836,0|10,3:0|3:2,0:0:0:0:
258,19,87434,5,0,3:0:0:0:
188,69,87607,1,0,0:0:0:0:
107,43,87781,2,0,P|47:56|6:69,1,89.9999972534181,10|0,3:2|0:0,0:0:0:0:
88,143,88128,5,0,3:0:0:0:
88,143,88301,1,0,0:0:0:0:
254,193,88475,5,8,0:0:0:0:
492,64,88648,6,0,P|449:51|405:43,1,89.9999972534181,2|0,0:0|3:0,0:0:0:0:
254,19,88995,1,0,0:0:0:0:
324,69,89169,1,8,0:0:0:0:
324,69,89516,5,0,3:0:0:0:
197,104,89689,1,0,3:0:0:0:
398,189,89863,1,8,0:0:0:0:
139,263,90036,1,10,0:0:0:0:
259,383,90557,6,0,L|272:262,1,86.2500016450882,8|0,3:2|0:0,0:0:0:0:
115,151,90904,5,0,3:0:0:0:
12,228,91077,2,0,P|27:149|112:150,1,172.500003290176,2|2,0:2|0:2,0:0:0:0:
253,1,91598,6,0,L|244:104,1,86.2500016450882,0|0,3:0|0:0,0:0:0:0:
397,151,91945,5,8,3:2:0:0:
499,230,92118,2,0,P|484:151|404:143,1,172.500003290176,2|0,0:2|0:0,0:0:0:0:
271,257,92639,5,8,3:2:0:0:
271,257,92986,5,0,3:0:0:0:
239,90,93159,1,2,0:2:0:0:
141,171,93333,2,0,L|257:187,1,86.2500016450882,8|0,3:2|0:0,0:0:0:0:
318,332,93680,5,0,3:0:0:0:
420,253,93853,2,0,P|406:332|326:340,1,172.500003290176,2|2,0:2|0:2,0:0:0:0:
137,235,94373,6,0,P|123:270|133:329,1,86.2500016450882,0|0,3:0|0:0,0:0:0:0:
215,363,94720,1,8,3:2:0:0:
198,153,94894,2,0,P|128:198|35:185,1,172.500003290176,2|0,0:2|0:0,0:0:0:0:
108,116,95414,5,8,3:2:0:0:
380,55,95761,6,0,L|484:72,1,86.2500016450882,0|0,3:0|0:0,0:0:0:0:
395,141,96108,2,0,L|499:158,1,86.2500016450882,10|0,3:2|0:0,0:0:0:0:
256,0,96455,5,2,3:2:0:0:
256,0,96629,1,0,0:0:0:0:
147,217,96802,6,0,L|11:239,1,129.375002467632,10|0,3:2|0:0,0:0:0:0:
1,163,97149,6,0,P|-3:125|37:84,1,86.2500016450882,2|0,3:2|0:0,0:0:0:0:
253,260,97496,2,0,P|245:282|259:259,1,86.2500016450882,10|0,3:2|0:0,0:0:0:0:
346,141,97843,5,2,3:2:0:0:
174,114,98017,1,0,0:0:0:0:
256,10,98190,6,0,L|266:95,1,86.2500016450882,10|0,3:2|0:0,0:0:0:0:
437,381,98537,5,0,3:0:0:0:
488,203,98711,1,0,0:0:0:0:
341,292,98884,2,0,L|453:280,1,86.2500016450882,10|0,3:2|0:0,0:0:0:0:
512,11,99231,6,0,P|504:83|395:91,2,172.500003290176,0|8|0,3:0|3:2|3:0,0:0:0:0:
253,2,100272,6,0,L|263:87,1,86.2500016450882,8|0,3:2|0:0,0:0:0:0:
216,165,100619,1,2,3:2:0:0:
252,326,100793,2,0,L|260:230,1,86.2500016450882,8|0,3:2|3:2,0:0:0:0:
364,87,101140,5,8,3:2:0:0:
330,379,101313,1,4,3:3:0:0:
415,338,101660,5,0,0:0:0:0:
172,51,104089,6,0,L|178:144,1,82.5000025177003,0|0,3:2|0:0,0:0:0:0:
113,288,104436,2,0,P|40:287|5:205,1,165.000005035401,8|0,3:2|3:2,0:0:0:0:
113,288,104956,5,0,0:0:0:0:
180,341,105130,2,0,P|211:323|265:319,1,82.5000025177003,8|0,3:2|0:0,0:0:0:0:
508,211,105477,6,0,P|477:283|399:288,1,165.000005035401,0|8,3:2|3:2,0:0:0:0:
398,287,106171,2,0,L|386:206,1,82.5000025177003,0|0,3:2|0:0,0:0:0:0:
314,190,106518,2,0,L|296:61,1,123.75000377655,8|0,3:2|0:0,0:0:0:0:
255,0,106865,5,0,3:2:0:0:
255,0,107212,2,0,P|176:-3|80:0,1,165.000005035401,8|0,3:2|3:2,0:0:0:0:
168,177,107732,5,0,0:0:0:0:
171,85,107906,2,0,L|167:181,1,82.5000025177003,8|0,3:2|0:0,0:0:0:0:
341,85,108253,2,0,L|345:181,1,82.5000025177003,0|0,3:2|0:0,0:0:0:0:
135,255,108600,6,0,P|148:313|167:342,1,82.5000025177003,8|0,3:2|0:0,0:0:0:0:
377,255,108947,2,0,P|364:313|345:342,1,82.5000025177003,0|0,3:2|0:0,0:0:0:0:
255,189,109294,1,8,3:2:0:0:
255,189,109641,6,0,P|315:172|339:77,1,165.000005035401,0|8,3:2|3:2,0:0:0:0:
255,24,110161,1,0,0:0:0:0:
257,189,110335,6,0,P|197:172|173:77,1,165.000005035401,0|8,3:2|3:2,0:0:0:0:
255,16,110855,1,0,0:0:0:0:
378,135,111029,6,0,P|442:122|472:117,1,82.5000025177003,0|0,3:2|0:0,0:0:0:0:
134,135,111376,2,0,P|70:122|40:117,1,82.5000025177003,8|0,3:2|0:0,0:0:0:0:
255,12,111723,5,0,3:2:0:0:
299,129,111896,1,0,0:2:0:0:
222,265,112070,1,8,3:2:0:0:
274,383,112243,1,0,0:2:0:0:
256,193,112417,5,0,3:2:0:0:
256,193,112763,2,0,P|214:180|159:187,1,82.5000025177003,8|0,3:2|0:0,0:0:0:0:
16,121,113110,6,0,P|29:207|34:286,2,165.000005035401,0|8|0,3:2|3:2|3:2,0:0:0:0:
256,11,114151,1,8,3:2:0:0:
496,121,114498,2,0,P|483:207|478:286,2,165.000005035401,0|8|0,3:2|3:2|3:2,0:0:0:0:
256,11,115539,5,8,3:2:0:0:
174,43,115886,6,0,P|185:87|188:129,1,82.5000025177003,0|0,3:2|0:0,0:0:0:0:
338,43,116233,2,0,P|327:87|324:129,1,82.5000025177003,8|0,3:2|0:0,0:0:0:0:
179,255,116580,6,0,P|259:239|348:257,2,165.000005035401,0|8|0,3:2|3:2|3:2,0:0:0:0:
179,255,117448,1,0,0:0:0:0:
91,240,117621,2,0,P|105:280|110:320,1,82.5000025177003,8|0,3:2|0:0,0:0:0:0:
255,157,117968,5,0,3:2:0:0:
402,319,118315,6,0,P|407:278|421:240,1,82.5000025177003,8|0,3:2|0:0,0:0:0:0:
281,0,118662,2,0,P|275:40|241:175,2,165.000005035401,0|8|0,3:2|3:2|3:2,0:0:0:0:
356,103,119530,5,0,0:0:0:0:
437,82,119703,2,0,P|396:83|363:107,1,82.5000025177003,8|0,3:2|0:0,0:0:0:0:
75,82,120050,2,0,P|115:83|148:107,1,82.5000025177003,0|0,3:2|0:0,0:0:0:0:
257,193,120397,5,8,3:2:0:0:
257,193,120571,1,0,0:0:0:0:
169,319,120744,6,0,L|-18:293,1,165.000005035401,0|8,3:2|3:2,0:0:0:0:
343,319,121438,6,0,L|530:293,1,165.000005035401,0|8,3:2|3:2,0:0:0:0:
506,296,121958,1,0,0:0:0:0:
430,221,122132,6,0,B|421:180|421:180|436:133,1,82.5000025177003,0|0,3:2|0:0,0:0:0:0:
505,192,122479,1,8,3:2:0:0:
335,326,122826,5,0,3:2:0:0:
183,245,122999,1,0,0:0:0:0:
302,137,123173,1,8,3:2:0:0:
254,65,123346,1,0,0:0:0:0:
253,64,123867,6,0,P|198:67|163:94,1,89.9999972534181,10|0,3:2|0:0,0:0:0:0:
367,255,124214,2,0,P|393:206|387:162,1,89.9999972534181,0|0,3:0|0:0,0:0:0:0:
144,254,124561,2,0,P|172:301|213:320,1,89.9999972534181,10|0,3:2|0:0,0:0:0:0:
253,64,124908,6,0,P|273:34|250:64,1,134.999995880127,0|0,3:0|0:0,0:0:0:0:
359,4,125255,2,0,L|366:120,1,89.9999972534181,10|0,3:2|0:0,0:0:0:0:
142,6,125602,2,0,L|135:122,1,89.9999972534181,0|0,3:0|0:0,0:0:0:0:
256,240,125949,5,10,3:2:0:0:
256,240,126296,2,0,P|323:231|399:240,1,134.999995880127,0|0,3:0|0:0,0:0:0:0:
439,333,126643,6,0,P|434:247|465:155,2,179.999994506836,10|0|10,3:2|3:0|3:2,0:0:0:0:
304,376,127510,5,0,0:0:0:0:
356,320,127684,1,0,3:0:0:0:
213,333,128031,6,0,P|189:315|166:251,1,89.9999972534181,10|0,3:2|0:0,0:0:0:0:
409,148,128378,2,0,P|406:178|363:231,1,89.9999972534181,0|0,3:0|0:0,0:0:0:0:
152,69,128725,2,0,P|180:58|247:71,1,89.9999972534181,10|0,3:2|0:0,0:0:0:0:
254,190,129072,5,0,3:0:0:0:
254,190,129419,5,10,3:2:0:0:
254,190,129592,1,0,0:0:0:0:
168,152,129766,6,0,P|99:159|80:279,1,179.999994506836,0|10,3:0|3:2,0:0:0:0:
168,152,130286,1,0,0:0:0:0:
159,323,130460,6,0,L|173:235,1,89.9999972534181,0|0,3:0|0:0,0:0:0:0:
352,323,130807,2,0,L|339:235,1,89.9999972534181,10|0,3:2|0:0,0:0:0:0:
255,33,131153,5,0,3:0:0:0:
255,33,131500,2,0,P|208:29|153:32,1,89.9999972534181,10|0,3:2|0:0,0:0:0:0:
260,244,131847,6,0,P|304:245|349:241,1,89.9999972534181,0|0,3:0|0:0,0:0:0:0:
429,79,132194,5,10,3:2:0:0:
373,130,132368,1,0,0:0:0:0:
438,80,132541,5,0,3:0:0:0:
83,79,132888,5,10,3:2:0:0:
139,130,133062,1,0,0:0:0:0:
74,80,133235,5,0,3:0:0:0:
257,220,133582,5,10,3:2:0:0:
257,220,133756,1,0,0:0:0:0:
188,31,133929,5,0,3:0:0:0:
257,120,134103,1,0,0:0:0:0:
322,28,134276,2,0,P|371:29|466:106,1,134.999995880127,10|0,3:2|0:0,0:0:0:0:
481,144,134623,6,0,L|384:153,1,89.9999972534181,0|0,3:0|0:0,0:0:0:0:
298,310,134970,2,0,L|201:319,1,89.9999972534181,10|0,3:2|0:0,0:0:0:0:
100,179,135317,2,0,L|3:188,1,89.9999972534181,0|0,3:0|0:0,0:0:0:0:
244,6,135664,6,0,P|263:106|256:171,1,134.999995880127,10|0,3:2|0:0,0:0:0:0:
167,130,136011,6,0,P|152:83|156:14,1,89.9999972534181,0|0,3:0|0:0,0:0:0:0:
375,215,136358,2,0,P|390:262|386:331,1,89.9999972534181,10|0,3:2|0:0,0:0:0:0:
117,344,136705,1,0,3:0:0:0:
117,344,137052,6,0,P|51:343|11:234,2,179.999994506836,10|0|10,3:2|3:0|3:2,0:0:0:0:
254,244,138093,1,0,3:0:0:0:
395,344,138440,6,0,B|392:347|431:337|488:330,1,89.9999972534181,10|0,3:2|0:0,0:0:0:0:
117,344,138787,2,0,B|120:347|81:337|24:330,1,89.9999972534181,0|0,3:0|0:0,0:0:0:0:
255,148,139134,2,0,P|256:98|250:48,1,89.9999972534181,10|0,3:2|0:0,0:0:0:0:
254,244,139481,1,0,3:0:0:0:
254,244,139828,6,0,L|348:257,1,89.9999972534181,10|0,3:2|0:0,0:0:0:0:
258,140,140175,2,0,L|164:127,1,89.9999972534181,0|0,3:0|0:0,0:0:0:0:
247,331,140522,5,10,3:2:0:0:
247,331,140695,1,0,0:0:0:0:
170,274,140869,6,0,P|91:277|38:358,1,179.999994506836,0|10,3:0|3:2,0:0:0:0:
38,355,141389,1,0,0:0:0:0:
0,169,141563,1,0,3:0:0:0:
420,333,141910,1,10,3:2:0:0:
420,333,142257,6,0,P|375:335|330:331,1,89.9999972534181,0|0,3:0|0:0,0:0:0:0:
170,384,142604,2,0,P|154:342|144:298,1,89.9999972534181,10|0,3:2|0:0,0:0:0:0:
40,174,142951,2,0,P|75:146|114:123,1,89.9999972534181,0|0,3:0|0:0,0:0:0:0:
206,0,143298,2,0,P|246:15|287:40,1,89.9999972534181,10|0,3:2|0:0,0:0:0:0:
440,79,143645,2,0,P|428:122|411:164,1,89.9999972534181,0|0,3:0|0:0,0:0:0:0:
142,333,145727,6,0,P|251:301|372:342,1,240,2|2,0:2|0:2,0:0:0:0:
312,46,151278,6,0,P|255:64|199:46,2,120,2|2|2,0:2|0:2|0:2,0:0:0:0:
506,202,156830,5,2,0:2:0:0:
298,180,157871,5,2,0:2:0:0:
217,199,158218,1,2,0:2:0:0:
6,182,159606,5,2,0:2:0:0:
217,185,160647,5,2,0:2:0:0:
298,204,160994,1,2,0:2:0:0:
298,180,162035,5,0,0:0:0:0:
217,199,162382,1,2,0:2:0:0:
506,202,163770,5,0,0:0:0:0:
6,182,165158,5,2,0:2:0:0:
256,381,166199,5,0,0:0:0:0:
212,316,167587,5,2,0:2:0:0:
296,263,167760,1,2,0:2:0:0:
257,192,167934,5,0,0:0:0:0:
257,192,168107,1,0,0:0:0:0:
382,104,168280,6,0,L|483:117,1,89.9999972534181,2|0,0:2|0:0,0:0:0:0:
130,104,168974,6,0,L|69:113,1,44.999998626709,2|0,0:2|0:0,0:0:0:0:
72,186,169321,2,0,L|25:226,1,44.999998626709
69,281,169668,2,0,L|52:340,1,44.999998626709,2|0,0:2|0:0,0:0:0:0:
125,366,170015,2,0,L|150:273,1,89.9999972534181,0|2,0:0|0:2,0:0:0:0:
387,366,170709,6,0,L|362:273,1,89.9999972534181,0|2,0:0|0:2,0:0:0:0:
443,281,171230,2,0,L|459:340,1,44.999998626709
117,186,171750,5,2,0:2:0:0:
256,82,172097,1,0,0:0:0:0:
395,186,172444,2,0,P|440:183|486:187,1,89.9999972534181,2|0,0:2|0:0,0:0:0:0:
117,186,173138,2,0,P|72:183|26:187,1,89.9999972534181,2|0,0:2|0:0,0:0:0:0:
258,10,173832,5,2,0:2:0:0:
258,10,174006,1,0,0:0:0:0:
200,140,174179,6,0,L|207:246,1,89.9999972534181,0|2,0:0|0:2,0:0:0:0:
314,162,174873,6,0,L|308:221,1,44.999998626709
361,269,175220,1,2,0:2:0:0:
361,269,175394,1,0,0:0:0:0:
396,148,175567,2,0,L|390:207,1,44.999998626709
443,263,175914,2,0,L|435:349,1,67.4999979400635,2|0,0:2|0:0,0:0:0:0:
434,356,176261,5,0,0:0:0:0:
254,261,176608,1,2,0:2:0:0:
78,356,176955,1,0,0:0:0:0:
78,356,177302,6,0,L|68:264,1,89.9999972534181,2|0,0:2|0:0,0:0:0:0:
198,162,177996,6,0,L|204:221,1,44.999998626709,2|0,0:2|0:0,0:0:0:0:
150,263,178343,1,0,0:0:0:0:
116,148,178690,2,0,L|122:207,1,44.999998626709,2|0,0:2|0:0,0:0:0:0:
257,102,179037,5,0,3:0:0:0:
194,49,179210,5,0,0:0:0:0:
336,103,179384,2,0,L|399:96,1,44.999998626709,2|0,0:2|0:0,0:0:0:0:
455,146,179904,5,0,0:0:0:0:
455,146,179991,1,0,0:0:0:0:
455,146,180078,2,0,P|447:174|443:234,1,89.9999972534181,2|0,0:2|0:0,0:0:0:0:
57,146,180772,2,0,P|65:174|69:234,1,89.9999972534181,2|0,0:2|0:0,0:0:0:0:
256,363,181466,5,2,0:2:0:0:
342,194,181813,2,0,P|271:176|148:203,1,179.999994506836,0|0,3:0|0:0,0:0:0:0:
256,270,182854,5,2,0:2:0:0:
256,270,183027,1,0,0:0:0:0:
256,62,183548,5,2,0:2:0:0:
256,62,183721,1,0,0:0:0:0:
97,174,184242,5,2,0:2:0:0:
97,174,184415,1,0,0:0:0:0:
151,96,184589,6,0,P|138:56|91:22,1,89.9999972534181,0|2,3:0|0:2,0:0:0:0:
102,25,185109,1,0,0:0:0:0:
415,174,185630,5,2,0:2:0:0:
415,174,185803,1,0,0:0:0:0:
361,96,185977,6,0,P|374:56|421:22,1,89.9999972534181,0|2,3:0|0:2,0:0:0:0:
410,25,186497,1,0,0:0:0:0:
260,250,187017,6,0,P|255:290|258:385,1,120,2|0,0:2|3:0,0:0:0:0:
109,168,189446,5,8,0:1:0:0:
411,197,189620,1,8,0:1:0:0:
264,368,190140,6,0,L|256:260,1,97.4999955368044,4|0,1:1|0:0,0:0:0:0:
404,97,190487,2,0,L|314:158,1,97.4999955368044
99,110,190834,2,0,L|197:157,1,97.4999955368044,8|0,0:2|0:0,0:0:0:0:
256,195,191181,5,0,0:0:0:0:
166,310,191528,5,0,0:0:0:0:
344,72,191875,1,0,1:0:0:0:
374,280,192222,1,8,0:2:0:0:
136,102,192569,1,0,0:0:0:0:
136,102,192916,6,0,P|94:130|49:179,1,97.4999955368044,0|0,1:0|0:0,0:0:0:0:
373,124,193263,2,0,P|371:73|352:9,1,97.4999955368044
255,316,193610,2,0,P|299:340|363:357,1,97.4999955368044,8|0,0:2|0:0,0:0:0:0:
255,195,193957,5,0,0:0:0:0:
197,254,194131,1,0,1:0:0:0:
470,313,194478,5,0,0:0:0:0:
484,308,194651,1,0,1:0:0:0:
255,195,194998,5,8,0:2:0:0:
42,313,195345,5,0,0:0:0:0:
28,308,195519,1,0,0:0:0:0:
125,193,195692,6,0,P|139:241|149:306,1,97.4999955368044,4|0,1:2|0:0,0:0:0:0:
320,80,196039,2,0,P|271:68|210:44,1,97.4999955368044
320,303,196386,2,0,P|355:267|406:226,1,97.4999955368044,8|0,0:2|0:0,0:0:0:0:
255,195,196733,5,0,0:0:0:0:
255,195,196906,1,0,1:0:0:0:
74,64,197427,5,0,1:0:0:0:
451,146,197774,1,8,0:2:0:0:
57,246,198121,1,0,0:0:0:0:
434,328,198468,6,0,P|408:264|286:246,2,194.999991073609,0|0|8,1:0|0:0|0:2,0:0:0:0:
434,328,199509,5,0,0:0:0:0:
253,358,199682,2,0,P|184:344|122:341,1,97.4999955368044,0|0,1:0|0:0,0:0:0:0:
416,33,200203,5,0,1:0:0:0:
133,202,200550,5,8,0:2:0:0:
390,238,200723,2,0,P|475:219|468:99,1,194.999991073609,8|0,0:2|0:0,0:0:0:0:
317,40,201244,6,0,L|324:137,1,97.4999955368044,4|0,1:1|0:0,0:0:0:0:
94,217,201591,2,0,L|173:161,1,97.4999955368044
357,320,201938,2,0,L|269:278,1,97.4999955368044,8|0,0:2|0:0,0:0:0:0:
256,193,202285,5,0,0:0:0:0:
421,359,202632,5,0,0:0:0:0:
426,37,202979,1,0,1:0:0:0:
99,352,203326,1,8,0:2:0:0:
105,31,203673,1,0,0:0:0:0:
389,196,204020,6,0,P|423:161|464:134,1,97.4999955368044,0|0,1:0|0:0,0:0:0:0:
191,289,204367,2,0,P|203:336|206:384,1,97.4999955368044
204,87,204714,2,0,P|157:74|113:52,1,97.4999955368044,8|0,0:2|0:0,0:0:0:0:
255,195,205061,5,0,0:0:0:0:
320,22,205234,1,0,1:0:0:0:
480,358,205581,5,0,0:0:0:0:
498,348,205754,1,0,1:0:0:0:
204,87,206101,5,8,0:2:0:0:
31,327,206448,5,0,0:0:0:0:
387,193,206795,6,0,P|373:241|363:306,1,97.4999955368044,4|0,1:2|0:0,0:0:0:0:
192,80,207142,2,0,P|241:68|302:44,1,97.4999955368044
192,303,207489,2,0,P|157:267|106:226,1,97.4999955368044,8|0,0:2|0:0,0:0:0:0:
257,195,207836,5,0,0:0:0:0:
257,195,208010,1,0,1:0:0:0:
0,0,208530,5,0,1:0:0:0:
504,163,208877,2,0,P|503:211|498:269,1,97.4999955368044,8|0,0:2|0:0,0:0:0:0:
256,345,209224,1,0,0:0:0:0:
448,13,209571,6,0,P|422:77|300:95,2,194.999991073609,0|0|8,1:0|0:0|0:2,0:0:0:0:
254,38,210439,1,0,0:0:0:0:
448,13,210612,5,0,0:0:0:0:
379,189,210786,2,0,P|365:258|362:320,1,97.4999955368044,0|0,1:0|0:0,0:0:0:0:
367,77,211133,5,0,0:0:0:0:
379,189,211306,1,0,1:0:0:0:
68,303,211653,5,8,0:2:0:0:
458,333,211827,1,8,0:2:0:0:
460,331,212347,6,0,P|403:322|330:387,1,157.499995193482,4|0,1:1|0:0,0:0:0:0:
259,363,212694,5,2,0:3:0:0:
211,235,212868,1,0,0:0:0:0:
311,148,213041,1,8,0:2:0:0:
263,20,213215,1,0,0:0:0:0:
125,84,213388,6,0,L|235:103,1,104.999996795654,2|0,0:3|1:0,0:0:0:0:
462,24,213735,5,0,0:0:0:0:
443,30,213909,1,0,0:0:0:0:
508,141,214082,5,2,1:3:0:0:
384,99,214256,1,0,0:0:0:0:
485,289,214429,6,0,L|375:308,1,104.999996795654,10|0,0:2|0:0,0:0:0:0:
256,71,214776,6,0,P|269:21|254:70,1,157.499995193482,2|0,0:3|0:0,0:0:0:0:
171,124,215123,6,0,P|114:94|60:95,1,104.999996795654,2|0,1:2|0:0,0:0:0:0:
24,291,215470,5,2,0:3:0:0:
194,216,215643,1,0,0:0:0:0:
333,304,215817,1,8,0:2:0:0:
503,229,215990,2,0,L|514:100,1,104.999996795654,0|2,0:0|0:3,0:0:0:0:
447,319,216337,5,2,1:2:0:0:
407,28,216511,2,0,L|418:157,1,104.999996795654
227,306,216858,5,2,1:3:0:0:
400,221,217031,1,0,0:0:0:0:
165,66,217205,6,0,P|87:57|34:181,1,209.999993591309,10|2,0:2|0:3,0:0:0:0:
165,66,217725,1,0,0:0:0:0:
200,156,217899,6,0,L|216:-12,1,157.499995193482,6|0,1:2|0:0,0:0:0:0:
290,25,218246,5,2,0:3:0:0:
118,143,218419,1,0,0:0:0:0:
377,228,218593,1,8,0:2:0:0:
205,346,218766,1,0,0:0:0:0:
295,266,218940,6,0,L|285:389,1,104.999996795654,2|0,0:3|1:0,0:0:0:0:
47,220,219287,5,2,2:2:0:0:
66,226,219460,1,0,0:0:0:0:
1,337,219634,5,2,1:3:0:0:
125,295,219807,1,0,0:0:0:0:
26,32,219981,6,0,L|36:155,1,104.999996795654,10|0,0:2|0:0,0:0:0:0:
256,313,220328,6,0,P|269:362|254:313,1,157.499995193482,2|0,0:3|0:0,0:0:0:0:
341,260,220675,6,0,P|398:290|452:289,1,104.999996795654,2|0,1:2|0:0,0:0:0:0:
171,124,221022,2,0,P|114:94|60:95,1,104.999996795654,2|0,0:3|0:0,0:0:0:0:
255,191,221369,5,8,0:2:0:0:
255,191,221542,2,0,L|265:57,1,104.999996795654,0|2,0:0|0:3,0:0:0:0:
240,355,221889,5,2,1:2:0:0:
341,124,222063,2,0,P|398:94|452:95,1,104.999996795654
341,312,222410,5,2,1:3:0:0:
154,262,222583,1,0,0:0:0:0:
346,115,222757,5,10,0:2:0:0:
95,170,222930,1,8,0:2:0:0:
223,15,223104,5,2,0:3:0:0:
210,23,223277,1,0,0:0:0:0:
416,215,223451,5,4,1:1:0:0:
482,174,223624,1,0,0:0:0:0:
333,14,223797,6,0,L|341:118,1,104.999996795654,2|0,0:3|0:0,0:0:0:0:
360,318,224144,1,8,0:2:0:0:
179,14,224318,2,0,L|170:118,1,104.999996795654,0|2,0:0|0:3,0:0:0:0:
152,318,224665,1,0,1:0:0:0:
370,208,224838,6,0,P|427:199|500:264,1,157.499995193482
467,328,225185,5,2,1:3:0:0:
300,251,225359,1,0,0:0:0:0:
158,327,225532,1,10,0:2:0:0:
5,259,225706,2,0,P|14:174|12:37,1,209.999993591309
214,3,226226,5,2,1:2:0:0:
194,80,226400,1,0,0:0:0:0:
348,121,226573,6,0,L|454:100,1,104.999996795654,2|0,0:3|0:0,0:0:0:0:
142,195,226920,1,8,0:2:0:0:
348,263,227094,2,0,L|454:284,1,104.999996795654,0|2,0:0|0:3,0:0:0:0:
255,190,227441,1,2,1:2:0:0:
154,360,227614,6,0,P|80:364|34:282,1,157.499995193482
88,242,227961,1,2,1:3:0:0:
256,312,228135,1,0,0:0:0:0:
422,250,228308,2,0,P|432:204|416:115,1,104.999996795654,10|0,0:2|0:0,0:0:0:0:
90,134,228655,2,0,P|80:180|96:269,1,104.999996795654,2|0,0:3|0:0,0:0:0:0:
385,24,229002,5,6,1:2:0:0:
255,125,229176,1,0,0:0:0:0:
118,10,229349,2,0,L|236:27,1,104.999996795654,2|0,0:3|0:0,0:0:0:0:
315,212,229696,5,8,0:2:0:0:
463,106,229870,2,0,L|345:123,1,104.999996795654,0|2,0:0|0:3,0:0:0:0:
220,346,230217,5,2,1:2:0:0:
102,212,230390,2,0,L|220:229,1,104.999996795654
428,366,230737,5,2,1:3:0:0:
459,189,230911,1,0,0:0:0:0:
428,366,231084,6,0,L|310:383,1,104.999996795654,10|0,0:2|0:0,0:0:0:0:
97,200,231431,2,0,L|215:217,1,104.999996795654,2|0,0:3|0:0,0:0:0:0:
434,0,231778,5,2,1:2:0:0:
286,23,231952,1,0,0:0:0:0:
381,156,232125,1,2,0:3:0:0:
370,68,232299,5,0,0:0:0:0:
97,113,232472,1,10,0:2:0:0:
357,241,232646,2,0,P|357:291|343:366,1,104.999996795654,0|2,0:0|0:3,0:0:0:0:
102,247,232992,5,2,1:2:0:0:
102,247,233079,1,0,0:0:0:0:
102,247,233166,1,8,0:0:0:0:
411,145,233339,1,8,0:0:0:0:
279,360,233513,5,10,1:3:0:0:
248,36,233686,1,8,0:3:0:0:
258,196,233860,5,10,3:2:0:0:
258,196,234033,1,8,3:2:0:0:
258,196,234554,5,4,1:1:0:0:
256,192,234727,12,2,237343,0:2:0:0:
200,113,238036,6,0,P|147:123|88:128,2,104.999996795654
312,271,240119,2,0,P|365:261|424:256,1,104.999996795654,0|0,3:1|0:0,0:0:0:0:
467,52,241507,5,0,3:1:0:0:
467,52,242201,1,0,0:0:0:0:
467,52,242894,6,0,P|419:77|394:128,2,104.999996795654,0|0|0,3:0|0:0|0:0,0:0:0:0:
54,48,244976,5,0,3:0:0:0:
128,85,245150,1,0,3:0:0:0:
56,127,245323,1,2,3:2:0:0:
255,0,245670,5,0,3:0:0:0:
271,80,247058,1,0,3:0:0:0:
246,155,248446,5,0,3:0:0:0:
272,228,249834,1,0,3:0:0:0:
242,302,251222,5,0,3:0:0:0:
271,376,252610,1,0,3:0:0:0:
504,189,253998,5,0,3:0:0:0:
424,213,254345,1,2,3:2:0:0:
500,181,254692,1,2,3:2:0:0:
12,181,256079,5,4,3:3:0:0:
88,213,256253,2,0,L|204:191,1,112.5,0|0,3:2|0:0,0:0:0:0:
