osu file format v14

[General]
AudioFilename: audio.mp3
AudioLeadIn: 0
PreviewTime: 98
Countdown: 0
SampleSet: Soft
StackLeniency: 0.7
Mode: 2
LetterboxInBreaks: 0
WidescreenStoryboard: 1

[Editor]
Bookmarks: 16098
DistanceSpacing: 0.6
BeatDivisor: 4
GridSize: 8
TimelineZoom: 1.8

[Metadata]
Title:ded_ED
TitleUnicode:ded_ED
Artist:dedp
ArtistUnicode:dedp
Creator:Phob
Version:platter
Source:ゆめ2っき
Tags:wwwww jbh jbhyperion yume 2kki two twokki nikki dream diary journal urotsuki dead ending deadp electronic psychedelic experimental novelty instrumental rpgmaker rpg maker ost game soundtrack
BeatmapID:3800907
BeatmapSetID:1705910

[Difficulty]
HPDrainRate:5
CircleSize:6
OverallDifficulty:6
ApproachRate:2
SliderMultiplier:2.71828182845905
SliderTickRate:4

[Events]
//Background and Video events
0,0,"urotsuki.jpg",0,0
//Break Periods
//Storyboard Layer 0 (Background)
//Storyboard Layer 1 (Fail)
//Storyboard Layer 2 (Pass)
//Storyboard Layer 3 (Foreground)
//Storyboard Layer 4 (Overlay)
//Storyboard Sound Samples

[TimingPoints]
98,500,4,2,1,80,1,0

[Colours]
Combo1 : 0,255,255
Combo2 : 255,0,0
Combo3 : 0,255,0
Combo4 : 0,0,255
Combo5 : 255,255,0
Combo6 : 255,0,255

[HitObjects]
198,192,98,5,8,0:0:0:0:
256,192,223,5,0,0:0:0:0:
256,192,473,5,0,0:0:0:0:
313,192,598,5,2,0:0:0:0:
256,192,723,5,0,0:0:0:0:
256,192,973,5,0,0:0:0:0:
198,192,1098,5,8,1:0:0:0:
198,192,1348,5,8,1:0:0:0:
256,192,1473,5,0,0:0:0:0:
198,192,1598,5,2,1:0:0:0:
198,192,1848,5,2,0:0:0:0:
256,192,1973,5,0,0:0:0:0:
198,192,2098,5,8,3:0:0:0:
256,192,2223,5,0,0:0:0:0:
256,192,2473,5,2,3:0:0:0:
256,192,2723,5,0,0:0:0:0:
313,192,2848,5,8,1:0:0:0:
256,192,2973,5,0,0:0:0:0:
313,192,3098,5,2,0:0:0:0:
313,192,3348,5,2,0:0:0:0:
256,192,3473,5,0,0:0:0:0:
313,192,3598,5,2,1:0:0:0:
198,192,3848,5,8,3:0:0:0:
313,192,4098,5,8,0:0:0:0:
256,192,4223,5,0,0:0:0:0:
313,192,4348,5,2,3:0:0:0:
256,192,4473,5,2,0:0:0:0:
256,192,4723,5,0,0:0:0:0:
198,192,4848,5,2,3:0:0:0:
256,192,4973,5,0,0:0:0:0:
198,192,5098,5,0,0:0:0:0:
198,192,5348,5,2,0:0:0:0:
256,192,5473,5,0,0:0:0:0:
198,192,5598,5,8,3:0:0:0:
198,192,5848,5,2,0:0:0:0:
198,192,6098,5,2,1:0:0:0:
256,192,6223,5,8,1:0:0:0:
313,192,6348,5,0,0:0:0:0:
256,192,6473,5,2,1:0:0:0:
313,192,6598,5,8,1:0:0:0:
313,192,6848,5,2,1:0:0:0:
256,192,6973,5,8,1:0:0:0:
256,192,7223,5,2,1:0:0:0:
313,192,7348,5,8,1:0:0:0:
313,192,7598,5,2,3:0:0:0:
256,192,7723,5,0,0:0:0:0:
198,192,7848,5,2,3:0:0:0:
256,192,8098,5,8,0:0:0:0:
198,192,8223,5,0,0:0:0:0:
198,192,8473,5,2,0:0:0:0:
256,192,8723,5,2,0:0:0:0:
313,192,8973,5,0,0:0:0:0:
256,192,9098,5,8,3:0:0:0:
313,192,9223,5,0,0:0:0:0:
256,192,9348,5,2,3:0:0:0:
256,192,9598,5,8,3:0:0:0:
198,192,9723,5,0,0:0:0:0:
256,192,9848,5,2,3:0:0:0:
256,192,10098,5,2,1:0:0:0:
313,192,10223,5,8,1:0:0:0:
256,192,10348,5,0,0:0:0:0:
198,192,10473,5,2,1:0:0:0:
256,192,10598,5,8,1:0:0:0:
256,192,10848,5,8,1:0:0:0:
313,192,10973,5,2,1:0:0:0:
313,192,11223,5,2,1:0:0:0:
256,192,11348,5,8,1:0:0:0:
256,192,11473,5,0,0:0:0:0:
198,192,11598,5,2,3:0:0:0:
313,192,11848,5,2,3:0:0:0:
198,192,12098,5,8,0:0:0:0:
256,192,12223,5,0,0:0:0:0:
313,192,12348,5,0,0:0:0:0:
313,192,12598,5,2,3:0:0:0:
256,192,12723,5,0,0:0:0:0:
198,192,12848,5,0,0:0:0:0:
198,192,13098,5,2,1:0:0:0:
256,192,13223,5,8,1:0:0:0:
256,192,13473,5,0,0:0:0:0:
313,192,13598,5,2,0:0:0:0:
256,192,13723,5,0,0:0:0:0:
313,192,13848,5,2,3:0:0:0:
256,192,13973,5,2,3:0:0:0:
198,192,14098,5,8,3:0:0:0:
256,192,14223,5,2,0:0:0:0:
198,192,14348,5,0,0:0:0:0:
198,192,14598,5,8,1:0:0:0:
256,192,14723,5,2,1:0:0:0:
256,192,14973,5,2,1:0:0:0:
313,192,15098,5,8,1:0:0:0:
313,192,15348,5,8,1:0:0:0:
256,192,15473,5,2,1:0:0:0:
256,192,15723,5,2,1:0:0:0:
313,192,15848,5,8,1:0:0:0:
256,192,15973,5,0,0:0:0:0:
313,192,16098,5,8,0:0:0:0:
256,192,16223,5,0,0:0:0:0:
256,192,16473,5,0,0:0:0:0:
198,192,16598,5,2,0:0:0:0:
256,192,16723,5,0,0:0:0:0:
256,192,16973,5,0,0:0:0:0:
313,192,17098,5,8,1:0:0:0:
313,192,17348,5,8,1:0:0:0:
256,192,17473,5,0,0:0:0:0:
313,192,17598,5,2,1:0:0:0:
313,192,17848,5,2,0:0:0:0:
256,192,17973,5,0,0:0:0:0:
313,192,18098,5,8,3:0:0:0:
256,192,18223,5,0,0:0:0:0:
256,192,18473,5,2,3:0:0:0:
256,192,18723,5,0,0:0:0:0:
198,192,18848,5,8,1:0:0:0:
256,192,18973,5,0,0:0:0:0:
198,192,19098,5,2,0:0:0:0:
198,192,19348,5,2,0:0:0:0:
256,192,19473,5,0,0:0:0:0:
198,192,19598,5,2,1:0:0:0:
313,192,19848,5,8,3:0:0:0:
198,192,20098,5,8,0:0:0:0:
256,192,20223,5,0,0:0:0:0:
198,192,20348,5,0,0:0:0:0:
256,192,20473,5,2,0:0:0:0:
256,192,20723,5,0,0:0:0:0:
313,192,20848,5,2,3:0:0:0:
256,192,20973,5,0,0:0:0:0:
313,192,21098,5,0,0:0:0:0:
313,192,21348,5,2,0:0:0:0:
256,192,21473,5,0,0:0:0:0:
313,192,21598,5,8,3:0:0:0:
313,192,21848,5,2,0:0:0:0:
313,192,22098,5,2,1:0:0:0:
256,192,22223,5,8,1:0:0:0:
198,192,22348,5,0,0:0:0:0:
256,192,22473,5,2,1:0:0:0:
198,192,22598,5,8,1:0:0:0:
198,192,22848,5,2,1:0:0:0:
256,192,22973,5,8,1:0:0:0:
256,192,23223,5,2,1:0:0:0:
198,192,23348,5,8,1:0:0:0:
198,192,23598,5,2,3:0:0:0:
256,192,23723,5,0,0:0:0:0:
313,192,23848,5,2,3:0:0:0:
256,192,24098,5,8,0:0:0:0:
313,192,24223,5,0,0:0:0:0:
313,192,24473,5,2,0:0:0:0:
256,192,24723,5,2,0:0:0:0:
198,192,24973,5,0,0:0:0:0:
256,192,25098,5,8,3:0:0:0:
198,192,25223,5,0,0:0:0:0:
256,192,25348,5,2,3:0:0:0:
256,192,25598,5,8,3:0:0:0:
313,192,25723,5,0,0:0:0:0:
256,192,25848,5,2,3:0:0:0:
256,192,26098,5,2,1:0:0:0:
198,192,26223,5,8,1:0:0:0:
256,192,26348,5,0,0:0:0:0:
313,192,26473,5,2,1:0:0:0:
256,192,26598,5,8,1:0:0:0:
256,192,26848,5,8,1:0:0:0:
198,192,26973,5,2,1:0:0:0:
198,192,27223,5,2,1:0:0:0:
256,192,27348,5,8,1:0:0:0:
256,192,27473,5,0,0:0:0:0:
313,192,27598,5,2,3:0:0:0:
198,192,27848,5,2,3:0:0:0:
313,192,28098,5,8,0:0:0:0:
256,192,28223,5,0,0:0:0:0:
198,192,28348,5,0,0:0:0:0:
198,192,28598,5,2,3:0:0:0:
256,192,28723,5,0,0:0:0:0:
313,192,28848,5,0,0:0:0:0:
313,192,29098,5,8,1:0:0:0:
256,192,29223,5,2,1:0:0:0:
256,192,29473,5,0,0:0:0:0:
198,192,29598,5,2,0:0:0:0:
256,192,29723,5,0,0:0:0:0:
198,192,29848,5,2,3:0:0:0:
256,192,29973,5,2,3:0:0:0:
313,192,30098,5,8,3:0:0:0:
256,192,30223,5,2,0:0:0:0:
313,192,30348,5,0,0:0:0:0:
313,192,30598,5,8,1:0:0:0:
256,192,30723,5,2,1:0:0:0:
256,192,30973,5,2,1:0:0:0:
198,192,31098,5,8,1:0:0:0:
198,192,31348,5,8,1:0:0:0:
256,192,31473,5,2,1:0:0:0:
256,192,31723,5,2,1:0:0:0:
198,192,31848,5,8,1:0:0:0:
256,192,31973,5,2,0:0:0:0:
198,192,32098,5,4,0:0:0:0:
