osu file format v14

[General]
AudioFilename: audio.mp3
AudioLeadIn: 0
PreviewTime: 39187
Countdown: 0
SampleSet: Soft
StackLeniency: 0.7
Mode: 0
LetterboxInBreaks: 0
WidescreenStoryboard: 1

[Editor]
Bookmarks: 54535,205898
DistanceSpacing: 1.2
BeatDivisor: 8
GridSize: 16
TimelineZoom: 2

[Metadata]
Title:FLOWING RED STARS
TitleUnicode:FLOWING RED STARS
Artist:deashou crueshi feat. Yung Saddy
ArtistUnicode:deashou crueshi feat. Yung Saddy
Creator:Busyarik321
Version:REDdust
Source:(Unknown)
Tags:#forest #nature #naturephotography #photography #autumn #landscape #photooftheday #trees #tree #naturelovers #photo #fall #travel #hiking #photographer #love #forestphotography #mountains #instagood #leaves #landscapephotography #adventure #autumnvibes #beautiful #naturelover #travelphotography #art #outdoors #sky #redforest #vibemusic
BeatmapID:4510417
BeatmapSetID:2142714

[Difficulty]
HPDrainRate:7
CircleSize:4.5
OverallDifficulty:9.7
ApproachRate:10
SliderMultiplier:2.25
SliderTickRate:1

[Events]
//Background and Video events
0,0,"1612906033_19-p-fon-krasnii-les-43.jpg",0,0
//Break Periods
//Storyboard Layer 0 (Background)
//Storyboard Layer 1 (Fail)
//Storyboard Layer 2 (Pass)
//Storyboard Layer 3 (Foreground)
//Storyboard Layer 4 (Overlay)
//Storyboard Sound Samples

[TimingPoints]
39287,266.666666666666,4,2,0,70,1,0
39287,-100,4,2,1,50,0,0
39420,-100,4,1,1,20,0,0
39487,-100,4,2,1,50,0,0
39553,-100,4,1,1,20,0,0
39620,-100,4,2,1,50,0,0
39687,-100,4,3,1,35,0,0
39755,-100,4,2,1,50,0,0
39820,-100,4,3,1,35,0,0
39888,-100,4,2,1,50,0,0
40087,-100,4,2,1,5,0,0
40220,-100,4,1,1,15,0,0
40287,-100,4,2,1,50,0,0
40353,272.727272727272,4,2,1,50,1,0
40625,-100,4,3,1,50,0,0
40693,-100,4,2,1,50,0,0
40762,-100,4,3,1,15,0,0
40829,-100,4,2,1,50,0,0
40898,-100,4,3,1,25,0,0
41443,-100,4,2,1,50,0,0
41580,-100,4,3,1,35,0,0
41648,-100,4,2,1,50,0,0
41716,-100,4,1,1,15,0,0
41783,-100,4,2,1,50,0,0
41852,-100,4,3,1,35,0,0
41920,-100,4,2,1,50,0,0
41989,-100,4,1,1,15,0,0
42056,-100,4,2,1,50,0,0
42125,-100,4,3,1,35,0,0
42193,-100,4,2,1,50,0,0
42262,-100,4,1,1,15,0,0
42329,-100,4,2,1,50,0,0
42398,-100,4,3,1,35,0,0
42466,-100,4,2,1,50,0,0
42534,-100,4,2,1,30,0,0
42671,-100,4,3,1,35,0,0
43011,-100,4,2,1,50,0,0
43080,-100,4,2,1,30,0,0
43216,-100,4,3,1,35,0,0
43284,-100,4,2,1,50,0,0
43355,-100,4,2,1,50,0,0
43489,-100,4,1,1,15,0,0
43556,-100,4,2,1,50,0,0
43626,272.727272727273,4,2,1,30,1,0
43762,-100,4,3,1,35,0,0
43830,-100,4,2,1,50,0,0
43898,-100,4,3,1,15,0,0
43965,-100,4,2,1,50,0,0
44171,-100,4,3,1,35,0,0
44239,-100,4,2,1,50,0,0
44307,-100,4,3,1,35,0,0
44375,-100,4,2,1,50,0,0
44444,-100,4,1,1,15,0,0
44511,-100,4,2,1,50,0,0
44580,-100,4,3,1,35,0,0
44648,-100,4,2,1,50,0,0
44784,-100,4,2,1,50,0,0
44853,-100,4,3,1,35,0,0
44921,-100,4,2,1,50,0,0
44989,-100,4,3,1,35,0,0
45126,-100,4,2,1,50,0,0
45262,-100,4,3,1,35,0,0
45330,-100,4,2,1,50,0,0
45398,-100,4,1,1,15,0,0
45465,-100,4,2,1,50,0,0
45535,-100,4,1,1,15,0,0
45602,-100,4,2,1,50,0,0
45671,-100,4,3,1,35,0,0
45739,-100,4,2,1,50,0,0
45807,-133.333333333333,4,2,1,30,0,0
46012,-133.333333333333,4,2,1,5,0,0
46080,-133.333333333333,4,2,1,30,0,0
46353,-100,4,3,1,35,0,0
46421,-100,4,2,1,50,0,0
46626,-100,4,3,1,35,0,0
46694,-100,4,2,1,50,0,0
46898,-100,4,2,1,50,0,0
47171,-100,4,1,1,15,0,0
47238,-100,4,2,1,50,0,0
47307,-100,4,1,1,15,0,0
47374,-100,4,2,1,50,0,0
47716,-100,4,2,1,50,0,0
47853,-100,4,3,1,35,0,0
47921,-100,4,2,1,50,0,0
47989,-100,4,1,1,15,0,0
48056,-100,4,2,1,50,0,0
48126,-100,4,3,1,35,0,0
48194,-100,4,2,1,50,0,0
48262,-100,4,1,1,15,0,0
48329,-100,4,2,1,50,0,0
48398,-100,4,3,1,35,0,0
48466,-100,4,2,1,50,0,0
48535,-100,4,1,1,15,0,0
48602,-100,4,2,1,50,0,0
48671,-100,4,1,1,15,0,0
48738,-100,4,2,1,50,0,0
48807,-100,4,3,1,35,0,0
48875,-100,4,2,1,50,0,0
48944,-100,4,1,1,15,0,0
49011,-100,4,2,1,50,0,0
49353,-100,4,1,1,15,0,0
49420,-100,4,2,1,50,0,0
49626,-100,4,2,1,30,0,0
49762,-100,4,1,1,15,0,0
49829,-100,4,2,1,50,0,0
49898,-100,4,2,1,50,0,0
50444,-100,4,1,1,15,0,0
50511,-100,4,2,1,50,0,0
50716,-100,4,1,1,15,0,0
50783,-100,4,2,1,50,0,0
50989,-100,4,1,1,15,0,0
51056,-100,4,2,1,50,0,0
51398,-100,4,1,1,15,0,0
51465,-100,4,2,1,50,0,0
51535,-100,4,1,1,15,0,0
51602,-100,4,2,1,50,0,0
51944,-100,4,1,1,15,0,0
52011,-100,4,2,1,50,0,0
52216,-100,4,1,1,15,0,0
52283,-100,4,2,1,50,0,0
52626,-100,4,1,1,15,0,0
52693,-100,4,2,1,50,0,0
52762,-100,4,3,1,35,0,0
52830,-100,4,2,1,50,0,0
52898,-100,4,3,1,35,0,0
52966,-100,4,2,1,50,0,0
53171,-100,4,3,1,35,0,0
53239,-100,4,2,1,50,0,0
53376,-100,4,3,1,35,0,0
53444,-100,4,2,1,50,0,0
53716,-52.6315789473684,4,2,1,50,0,0
53853,-100,4,2,1,50,0,0
53921,-100,4,3,1,35,0,0
53989,-100,4,2,1,50,0,0
54739,-100,4,3,1,35,0,0
54807,-100,4,2,1,50,0,0
55080,-100,4,1,1,15,0,0
55147,-100,4,2,1,50,0,0
55216,-100,4,3,1,35,0,0
55284,-100,4,2,1,50,0,0
55353,-100,4,1,1,15,0,0
55420,-100,4,2,1,50,0,0
55489,-100,4,3,1,35,0,0
55557,-100,4,2,1,50,0,0
55898,-100,4,1,1,15,0,0
55965,-100,4,2,1,50,0,0
56171,-100,4,1,1,15,0,0
56238,-100,4,2,1,50,0,0
56307,-100,4,3,1,35,0,0
56375,-100,4,2,1,50,0,0
56444,-100,4,1,1,15,0,0
56511,-100,4,2,1,50,0,0
56580,-100,4,1,1,15,0,0
56647,-100,4,2,1,50,0,0
56989,-100,4,3,1,35,0,0
57057,-100,4,2,1,50,0,0
57262,-100,4,3,1,35,0,0
57330,-100,4,2,1,50,0,0
57398,-100,4,1,1,15,0,0
57465,-100,4,2,1,50,0,0
57535,-100,4,3,1,35,0,0
57603,-100,4,2,1,50,0,0
57671,-100,4,3,1,35,0,0
57739,-100,4,2,1,50,0,0
57944,-100,4,1,1,15,0,0
58011,-100,4,2,1,50,0,0
58080,-100,4,3,1,35,0,0
58148,-100,4,2,1,50,0,0
58353,-100,4,3,1,35,0,0
58421,-100,4,2,1,50,0,0
58626,-100,4,1,1,15,0,0
58693,-100,4,2,1,50,0,0
58762,-100,4,1,1,15,0,0
58829,-100,4,2,1,50,0,0
59035,-100,4,3,1,35,0,0
59103,-100,4,2,1,50,0,0
59171,-100,4,2,1,30,0,0
59239,-100,4,2,1,5,0,0
59307,-100,4,2,1,25,0,0
59376,-100,4,2,1,5,0,0
59444,-100,4,2,1,25,0,0
59512,-100,4,2,1,5,0,0
59580,-100,4,2,1,50,0,0
59716,-66.6666666666667,4,2,1,50,0,0
59921,-100,4,3,1,35,0,0
59989,-100,4,2,1,50,0,0
60535,-100,4,1,1,15,0,0
60602,-100,4,2,1,50,0,0
60671,-100,4,1,1,15,0,0
60738,-100,4,2,1,50,0,0
60807,-83.3333333333333,4,1,1,15,0,0
61012,-83.3333333333333,4,2,1,5,0,0
61080,-83.3333333333333,4,2,1,50,0,0
61216,-100,4,3,1,35,0,0
61284,-100,4,2,1,50,0,0
61353,-41.6666666666667,4,2,1,50,0,0
61626,-83.3333333333333,4,2,1,50,0,0
61898,-100,4,3,1,35,0,0
61966,-100,4,2,1,50,0,0
62035,-100,4,3,1,35,0,0
62103,-100,4,2,1,50,0,0
62853,-100,4,3,1,20,0,0
63262,-100,4,2,1,50,0,0
63535,-100,4,3,1,35,0,0
63603,-100,4,2,1,50,0,0
63671,-100,4,3,1,35,0,0
63739,-100,4,2,1,50,0,0
63807,-100,4,3,1,35,0,0
63875,-100,4,2,1,50,0,0
64080,-100,4,3,1,35,0,0
64148,-100,4,2,1,50,0,0
64626,-55.5555555555556,4,2,1,50,0,0
64762,-100,4,3,1,35,0,0
64830,-100,4,2,1,50,0,0
64898,-83.3333333333333,4,2,1,50,0,0
65103,-83.3333333333333,4,2,1,5,0,0
65171,-83.3333333333333,4,2,1,50,0,0
65239,-83.3333333333333,4,2,1,5,0,0
65307,-83.3333333333333,4,2,1,50,0,0
65853,-100,4,1,1,15,0,0
65920,-100,4,2,1,50,0,0
65989,-100,4,1,1,15,0,0
66056,-100,4,2,1,50,0,0
66126,-100,4,1,1,15,0,0
66193,-100,4,2,1,50,0,0
66262,-100,4,2,1,50,0,0
66671,-100,4,1,1,15,0,0
66738,-100,4,2,1,50,0,0
66807,-100,4,3,1,35,0,0
66875,-100,4,2,1,50,0,0
67080,-100,4,3,1,35,0,0
67148,-100,4,2,1,50,0,0
67353,-100,4,1,1,15,0,0
67420,-100,4,2,1,50,0,0
67489,-100,4,1,1,15,0,0
67556,-100,4,2,1,50,0,0
67762,-100,4,3,1,35,0,0
67830,-100,4,2,1,50,0,0
68035,-100,4,3,1,35,0,0
68103,-100,4,2,1,50,0,0
68171,-100,4,1,1,15,0,0
68238,-100,4,2,1,50,0,0
68307,-100,4,3,1,35,0,0
68374,-100,4,2,1,50,0,0
68785,-100,4,3,1,35,0,0
68853,-100,4,2,1,50,0,0
68989,-100,4,3,1,35,0,0
69057,-100,4,2,1,50,0,0
69262,-100,4,3,1,35,0,0
69330,-100,4,2,1,50,0,0
69535,-100,4,3,1,35,0,0
69603,-100,4,2,1,50,0,0
69671,-100,4,3,1,35,0,0
69739,-100,4,2,1,50,0,0
70080,-100,4,3,1,35,0,0
70148,-100,4,2,1,50,0,0
70216,-100,4,1,1,15,0,0
70283,-100,4,2,1,50,0,0
70353,-100,4,1,1,15,0,0
70489,-100,4,2,1,50,0,0
71035,-100,4,1,1,15,0,0
71102,-100,4,2,1,50,0,0
71307,-100,4,3,1,35,0,0
71375,-100,4,2,1,50,0,0
71580,-100,4,1,1,15,0,0
71647,-100,4,2,1,50,0,0
71989,-100,4,3,0,30,0,0
72057,-100,4,2,1,50,0,0
72126,-100,4,1,1,15,0,0
72193,-100,4,2,1,50,0,0
72262,-100,4,1,1,15,0,0
72329,-100,4,2,1,50,0,0
72807,-100,4,1,1,15,0,0
72874,-100,4,2,1,50,0,0
72944,-100,4,1,1,15,0,0
73011,-100,4,2,1,50,0,0
73285,-100,4,1,1,15,0,0
73352,-100,4,2,1,50,0,0
73557,-100,4,1,1,15,0,0
73624,-100,4,2,1,50,0,0
73762,-100,4,3,1,35,0,0
73830,-100,4,2,1,50,0,0
73898,-100,4,1,1,15,0,0
74171,-31.25,4,2,1,50,0,0
74716,-66.6666666666667,4,1,1,15,0,0
74989,-31.25,4,2,1,50,0,0
75262,-66.6666666666667,4,3,1,30,0,0
75807,-100,4,2,1,25,0,0
75874,-100,4,2,1,50,0,0
77171,-66.6666666666667,4,2,1,5,0,0
77239,-66.6666666666667,4,2,1,50,0,0

[Colours]
Combo1 : 164,0,0
Combo2 : 255,0,0

[HitObjects]
52,57,39287,6,0,P|79:90|73:174,1,112.5,4|4,0:0|0:0,0:0:0:0:
168,200,39553,1,4,0:0:0:0:
180,196,39620,1,0,0:0:0:0:
192,192,39687,1,0,0:0:0:0:
296,72,39820,1,0,0:0:0:0:
441,287,39953,2,0,B|399:253|369:322|286:277,1,112.5
276,224,40220,2,0,P|288:240|292:316,1,56.25,4|0,0:0|0:0,0:0:0:0:
80,304,40353,6,0,B|133:293|133:293|180:344,1,112.5,4|0,0:0|0:0,0:0:0:0:
264,344,40557,1,0,0:0:0:0:
268,356,40625,1,4,0:0:0:0:
298,274,40762,2,0,L|302:202,1,56.25,6|0,0:0|0:0,0:0:0:0:
376,336,40898,1,4,0:0:0:0:
408,325,40966,1,0,0:0:0:0:
437,306,41034,1,6,0:0:0:0:
459,281,41102,1,0,0:0:0:0:
475,250,41170,1,4,0:0:0:0:
481,217,41238,1,0,0:0:0:0:
478,182,41307,1,6,0:0:0:0:
476,156,41375,1,0,0:0:0:0:
276,116,41443,6,0,P|336:132|408:104,1,112.5,4|0,0:0|0:0,0:0:0:0:
116,160,41716,1,4,0:0:0:0:
208,196,41852,1,0,0:0:0:0:
276,116,41989,1,4,0:0:0:0:
336,240,42125,1,0,0:0:0:0:
396,96,42262,1,4,0:0:0:0:
456,264,42398,5,0,0:0:0:0:
452,272,42466,1,0,0:0:0:0:
448,284,42534,1,4,0:0:0:0:
328,352,42671,1,4,0:0:0:0:
284,254,42807,2,0,P|324:310|324:370,1,112.5,4|0,0:0|0:0,0:0:0:0:
172,264,43080,2,0,P|132:208|132:148,1,112.5
135,72,43284,5,0,0:0:0:0:
138,57,43352,1,0,0:0:0:0:
224,166,43489,1,4,0:0:0:0:
137,55,43626,6,0,P|84:75|37:137,1,112.5,4|0,0:0|0:0,0:0:0:0:
28,231,43898,2,0,P|81:211|128:149,1,112.5,8|0,0:0|0:0,0:0:0:0:
186,167,44103,1,0,0:0:0:0:
226,179,44171,1,0,0:0:0:0:
248,264,44307,1,0,0:0:0:0:
468,42,44444,1,4,0:0:0:0:
512,234,44580,1,0,0:0:0:0:
271,25,44716,5,6,0:0:0:0:
343,336,44853,1,0,0:0:0:0:
143,350,44989,2,0,P|207:350|255:382,1,112.5,0|2,0:0|0:0,0:0:0:0:
258,384,45194,1,0,0:0:0:0:
247,374,45262,1,0,0:0:0:0:
56,248,45398,1,4,0:0:0:0:
76,90,45535,1,4,0:0:0:0:
48,256,45671,6,0,B|7:300|7:300,1,56.25
116,295,45807,6,0,B|152:264|152:264|248:284,1,126.562504827976
300,304,46080,1,0,0:0:0:0:
336,112,46353,2,0,P|384:152|391:200,1,112.5,12|0,0:0|0:0,0:0:0:0:
445,320,46626,2,0,P|397:280|390:232,1,112.5,12|0,0:0|0:0,0:0:0:0:
300,304,46830,1,0,0:0:0:0:
293,309,46898,6,0,B|249:344|249:344|119:314,1,168.75,4|0,0:0|0:0,0:0:0:0:
114,242,47171,2,0,P|125:271|131:348,1,56.25,4|0,0:0|0:0,0:0:0:0:
46,177,47307,2,0,P|35:206|29:283,1,56.25,4|0,0:0|0:0,0:0:0:0:
69,86,47444,2,0,B|120:62|142:105|203:81,2,112.5,4|0|0,0:0|0:0|0:0,0:0:0:0:
208,192,47853,1,0,0:0:0:0:
216,200,47921,1,0,0:0:0:0:
224,204,47989,5,4,0:0:0:0:
288,96,48126,1,0,0:0:0:0:
368,272,48262,1,4,0:0:0:0:
448,64,48398,1,0,0:0:0:0:
512,304,48535,1,4,0:0:0:0:
400,356,48671,1,4,0:0:0:0:
392,364,48739,1,0,0:0:0:0:
380,368,48807,1,0,0:0:0:0:
196,256,48944,1,4,0:0:0:0:
241,337,49080,6,0,B|293:317|293:317|413:361,1,168.75,4|0,0:0|0:0,0:0:0:0:
512,304,49353,1,4,0:0:0:0:
428,216,49489,2,0,P|408:244|408:300,1,56.25
464,144,49626,1,0,0:0:0:0:
320,80,49762,1,4,0:0:0:0:
320,208,49898,1,0,0:0:0:0:
160,120,50035,1,0,0:0:0:0:
168,132,50103,1,0,0:0:0:0:
176,144,50171,1,4,0:0:0:0:
216,216,50307,5,0,0:0:0:0:
256,288,50444,1,4,0:0:0:0:
344,384,50580,1,0,0:0:0:0:
424,288,50716,1,4,0:0:0:0:
464,216,50853,1,0,0:0:0:0:
344,64,50989,1,0,0:0:0:0:
200,120,51126,1,0,0:0:0:0:
212,112,51194,1,0,0:0:0:0:
224,104,51262,5,4,0:0:0:0:
128,168,51398,1,4,0:0:0:0:
8,240,51535,1,4,0:0:0:0:
257,189,51671,2,0,P|129:173|129:133,1,168.75
104,96,51944,2,0,P|112:120|120:200,1,56.25,4|0,0:0|0:0,0:0:0:0:
8,240,52080,2,0,P|16:264|24:344,1,56.25
104,240,52216,1,4,0:0:0:0:
104,96,52353,2,0,P|168:80|216:128,1,112.5,4|0,0:0|0:0,0:0:0:0:
396,181,52557,5,0,0:0:0:0:
403,191,52626,1,4,0:0:0:0:
230,215,52762,1,0,0:0:0:0:
512,184,52898,2,0,B|449:204|449:204|376:183,1,112.5
282,284,53171,2,0,B|345:264|345:264|418:285,1,112.5
470,318,53376,1,2,0:0:0:0:
459,312,53444,1,4,0:0:0:0:
385,126,53580,2,0,P|392:147|394:202,1,56.25
126,204,53716,6,0,B|172:223|202:186|243:210,1,112.5
336,221,53853,1,0,0:0:0:0:
359,173,53921,1,0,0:0:0:0:
385,125,53989,2,0,P|476:115|532:128,2,112.5,4|0|0,0:0|0:0|0:0,0:0:0:0:
342,54,54398,2,0,P|360:80|376:130,1,56.25
271,157,54535,2,0,P|240:112|212:26,1,112.5,4|0,0:0|0:0,0:0:0:0:
164,1,54739,1,0,0:0:0:0:
168,12,54807,1,2,0:0:0:0:
88,320,54944,6,0,P|118:275|152:192,1,112.5,2|4,0:0|0:0,0:0:0:0:
176,156,55216,1,0,0:0:0:0:
182,142,55285,1,0,0:0:0:0:
188,129,55353,1,4,0:0:0:0:
308,96,55489,1,0,0:0:0:0:
314,83,55557,1,0,0:0:0:0:
320,69,55626,1,4,0:0:0:0:
188,129,55762,1,0,0:0:0:0:
392,48,55898,6,0,B|452:44|452:44|532:56,1,112.5,4|0,0:0|0:0,0:0:0:0:
203,59,56171,1,4,0:0:0:0:
314,83,56307,1,0,0:0:0:0:
366,187,56444,1,4,0:0:0:0:
245,245,56580,1,4,0:0:0:0:
200,208,56648,1,0,0:0:0:0:
156,167,56716,1,4,0:0:0:0:
60,0,56853,6,0,P|80:40|88:128,1,112.5,8|2,0:0|0:0,0:0:0:0:
60,204,57126,6,0,P|36:254|29:310,1,112.5,8|2,0:0|0:0,0:0:0:0:
120,356,57398,1,4,0:0:0:0:
136,352,57466,1,0,0:0:0:0:
152,348,57535,1,0,0:0:0:0:
204,185,57671,6,0,P|227:229|234:278,1,56.25,2|0,0:0|0:0,0:0:0:0:
300,200,57807,6,0,P|323:244|330:293,1,56.25,4|0,0:0|0:0,0:0:0:0:
272,320,57944,1,4,0:0:0:0:
152,348,58080,2,0,B|120:356|120:356|16:312,1,112.5,2|2,0:0|0:0,0:0:0:0:
112,252,58353,2,0,B|144:244|144:244|248:288,1,112.5,2|2,0:0|0:0,0:0:0:0:
272,320,58557,1,0,0:0:0:0:
284,312,58626,1,4,0:0:0:0:
340,272,58762,1,4,0:0:0:0:
352,264,58831,1,0,0:0:0:0:
364,256,58898,6,0,L|460:180,1,112.5,4|2,0:0|0:0,0:0:0:0:
456,112,59171,2,4,P|464:124|468:188,1,56.25
360,64,59307,2,4,P|368:76|372:140,1,56.25
264,32,59444,2,4,P|272:44|276:108,1,56.25
280,160,59580,1,0,0:0:0:0:
200,194,59716,2,0,B|320:186|320:186|248:138,1,168.750006437302
229,107,59921,1,4,0:0:0:0:
221,91,59989,1,4,0:0:0:0:
160,0,60126,1,8,0:0:0:0:
112,96,60262,6,0,P|112:144|31:190,1,112.5,0|2,0:0|0:0,0:0:0:0:
221,91,60466,1,0,0:0:0:0:
229,107,60534,1,4,0:0:0:0:
160,0,60671,1,4,0:0:0:0:
229,107,60807,6,4,B|240:176|240:176|368:144,1,202.499993820191,0|0,0:0|0:0,0:0:0:0:
372,63,61080,2,0,P|372:100|388:145,1,67.4999979400635,4|0,0:0|0:0,0:0:0:0:
467,113,61216,2,0,P|467:150|482:198,1,56.25,4|0,0:0|0:0,0:0:0:0:
364,345,61353,2,0,P|414:331|358:344,1,404.999987640381,0|2,0:0|0:0,0:0:0:0:
372,277,61626,1,0,0:0:0:0:
364,345,61762,2,0,L|163:349,1,134.999995880127
196,271,62035,2,0,P|213:308|216:361,1,56.25
127,333,62171,2,0,P|87:247|81:129,1,168.75,4|2,0:0|0:0,0:0:0:0:
137,60,62444,2,0,B|178:156|178:156|186:160|186:160|181:167|181:167|203:320,1,225,0|2,0:0|0:0,0:0:0:0:
272,321,62853,5,4,0:0:0:0:
277,306,62921,1,0,0:0:0:0:
282,291,62989,1,4,0:0:0:0:
306,224,63057,5,0,0:0:0:0:
311,209,63125,1,4,0:0:0:0:
316,194,63193,1,0,0:0:0:0:
341,130,63262,2,0,B|363:51|363:51|249:99,1,168.75,4|2,0:0|0:0,0:0:0:0:
247,42,63535,2,0,P|275:68|285:114,1,56.25
191,168,63671,2,0,P|163:142|152:103,1,56.25
247,42,63807,2,0,B|305:80|326:28|380:66,1,112.5
512,178,64080,2,4,B|454:216|433:164|374:197,1,112.5,0|0,0:0|0:0,0:0:0:0:
342,76,64353,2,0,P|341:110|335:143,1,56.25,4|0,0:0|0:0,0:0:0:0:
331,285,64489,2,0,P|332:251|338:218,1,56.25
342,76,64626,2,0,B|330:34|330:34|175:78,1,202.499993820191
105,111,64830,1,0,0:0:0:0:
105,111,64898,5,0,0:0:0:0:
86,191,65035,1,0,0:0:0:0:
92,206,65103,1,0,0:0:0:0:
98,220,65171,1,0,0:0:0:0:
169,209,65239,1,0,0:0:0:0:
175,224,65307,1,0,0:0:0:0:
181,238,65375,1,0,0:0:0:0:
71,293,65444,6,0,B|23:320|23:320|146:365|249:330,1,269.999991760254,4|2,0:0|0:0,0:0:0:0:
240,279,65853,2,0,P|233:301|240:355,1,56.25,4|0,0:0|0:0,0:0:0:0:
308,357,65989,1,4,0:0:0:0:
373,351,66057,1,0,0:0:0:0:
416,301,66125,1,4,0:0:0:0:
413,235,66193,1,0,0:0:0:0:
384,160,66262,2,0,B|354:111|354:111|318:254,1,168.75,0|2,0:0|0:0,0:0:0:0:
205,163,66535,2,0,P|233:176|296:169,1,56.25,4|0,0:0|0:0,0:0:0:0:
308,357,66671,2,0,P|274:368|217:351,1,56.25,4|0,0:0|0:0,0:0:0:0:
53,338,66807,6,0,B|144:358|144:358|179:282,1,168.75,0|2,0:0|0:0,0:0:0:0:
315,297,67080,2,0,P|270:308|279:397,1,112.5,4|0,0:0|0:0,0:0:0:0:
308,357,67285,1,0,0:0:0:0:
323,362,67353,1,4,0:0:0:0:
286,245,67489,1,4,0:0:0:0:
198,309,67626,2,4,B|154:277|124:338|46:283,1,112.5,4|0,0:0|0:0,0:0:0:0:
0,213,67898,2,0,B|44:181|74:242|152:187,1,112.5
205,187,68103,1,0,0:0:0:0:
210,174,68171,1,0,0:0:0:0:
286,245,68307,1,8,0:0:0:0:
197,310,68444,6,0,B|148:321|148:321|74:301,1,112.5
82,248,68648,1,0,0:0:0:0:
84,271,68716,1,4,0:0:0:0:
86,295,68784,1,2,0:0:0:0:
243,370,68853,2,2,L|325:380,1,56.25
340,309,68989,2,0,B|436:348|436:348|509:312,1,168.75,6|0,0:0|0:0,0:0:0:0:
482,191,69262,2,0,P|532:240|486:322,1,168.75,2|0,0:0|0:0,0:0:0:0:
466,257,69535,1,2,0:0:0:0:
482,191,69671,6,0,P|485:153|496:111,1,56.25,2|0,0:0|0:0,0:0:0:0:
507,68,69807,2,0,B|474:42|474:42|407:88|407:88|420:151|389:222,1,225,4|2,0:0|0:0,0:0:0:0:
483,191,70216,1,4,0:0:0:0:
278,264,70352,1,4,0:0:0:0:
301,256,70421,1,4,0:0:0:0:
400,184,70557,1,0,0:0:0:0:
400,184,70626,2,0,B|432:85|421:64|437:113|507:247,1,225,0|4,0:0|0:0,0:0:0:0:
450,327,71035,2,0,P|447:290|483:255,1,56.25,4|0,0:0|0:0,0:0:0:0:
490,215,71171,5,0,0:0:0:0:
490,215,71307,1,2,0:0:0:0:
422,165,71444,2,0,P|424:128|388:93,1,56.25
388,43,71580,1,4,0:0:0:0:
292,61,71716,2,0,P|336:146|208:144,1,225,0|6,0:0|0:0,0:0:0:0:
214,111,72057,1,0,0:0:0:0:
214,111,72126,2,0,L|234:169,1,56.25,4|0,0:0|0:0,0:0:0:0:
148,171,72262,2,0,L|170:243,1,56.25,4|0,0:0|0:0,0:0:0:0:
192,32,72398,2,0,B|274:49|274:49|301:15,2,112.5
123,54,72739,5,0,0:0:0:0:
114,52,72807,1,4,0:0:0:0:
79,132,72944,1,4,0:0:0:0:
69,134,73012,1,0,0:0:0:0:
60,136,73080,5,4,0:0:0:0:
210,250,73285,5,4,0:0:0:0:
219,252,73353,1,4,0:0:0:0:
165,168,73558,5,4,0:0:0:0:
156,170,73626,1,4,0:0:0:0:
60,136,73762,1,2,0:0:0:0:
220,252,73898,1,4,0:0:0:0:
257,293,73966,1,4,0:0:0:0:
298,259,74034,1,4,0:0:0:0:
338,220,74102,1,4,0:0:0:0:
372,179,74171,2,0,B|356:95|356:95|368:119|368:119|352:15|352:15|396:31|396:31|384:19|384:19|464:35|464:35|444:107|444:107|464:91|464:91|432:239|432:239|448:219|448:219|416:367,1,720,4|0,0:0|0:0,0:0:0:0:
472,356,74716,1,4,0:0:0:0:
407,335,74785,1,4,0:0:0:0:
407,267,74853,1,4,0:0:0:0:
472,246,74921,1,4,0:0:0:0:
511,301,74989,1,4,0:0:0:0:
256,320,75262,5,2,0:0:0:0:
200,256,75330,1,2,0:0:0:0:
170,178,75398,1,2,0:0:0:0:
186,97,75466,1,2,0:0:0:0:
255,56,75534,1,2,0:0:0:0:
325,97,75602,1,2,0:0:0:0:
341,178,75671,1,2,0:0:0:0:
311,256,75739,1,2,0:0:0:0:
256,319,75807,1,4,0:0:0:0:
256,320,76080,1,0,0:0:0:0:
256,320,76353,6,4,B|226:255|226:255|114:191|178:63|259:133|259:133|322:63|402:191|306:255|306:255|220:369,1,675
