osu file format v14

[General]
AudioFilename: audio.mp3
AudioLeadIn: 0
PreviewTime: 39187
Countdown: 0
SampleSet: Soft
StackLeniency: 0.7
Mode: 0
LetterboxInBreaks: 0
WidescreenStoryboard: 1

[Editor]
Bookmarks: 54535,205898
DistanceSpacing: 1.2
BeatDivisor: 8
GridSize: 16
TimelineZoom: 2.999999

[Metadata]
Title:FLOWING RED STARS
TitleUnicode:FLOWING RED STARS
Artist:deashou crueshi feat. Yung Saddy
ArtistUnicode:deashou crueshi feat. Yung Saddy
Creator:Busyarik321
Version:REDBlossom
Source:(Unknown)
Tags:#forest #nature #naturephotography #photography #autumn #landscape #photooftheday #trees #tree #naturelovers #photo #fall #travel #hiking #photographer #love #forestphotography #mountains #instagood #leaves #landscapephotography #adventure #autumnvibes #beautiful #naturelover #travelphotography #art #outdoors #sky #redforest #vibemusic
BeatmapID:4510416
BeatmapSetID:2142714

[Difficulty]
HPDrainRate:6.5
CircleSize:4.5
OverallDifficulty:8.5
ApproachRate:10
SliderMultiplier:2.25
SliderTickRate:1

[Events]
//Background and Video events
0,0,"1612906033_19-p-fon-krasnii-les-43.jpg",0,0
//Break Periods
//Storyboard Layer 0 (Background)
//Storyboard Layer 1 (Fail)
//Storyboard Layer 2 (Pass)
//Storyboard Layer 3 (Foreground)
//Storyboard Layer 4 (Overlay)
//Storyboard Sound Samples

[TimingPoints]
39287,266.666666666666,4,2,0,70,1,0
39287,-100,4,2,1,50,0,0
39553,-100,4,1,1,25,0,0
39620,-100,4,2,1,50,0,0
39687,-100,4,1,1,25,0,0
39754,-100,4,2,1,50,0,0
40220,-100,4,1,1,25,0,0
40287,-100,4,2,1,50,0,0
40353,272.727272727272,4,2,1,50,1,0
40625,-100,4,1,1,25,0,0
40692,-100,4,2,1,50,0,0
41034,-100,4,1,1,25,0,0
41101,-100,4,2,1,50,0,0
41852,-100,4,1,1,25,0,0
41919,-100,4,2,1,50,0,0
42398,-100,4,1,1,25,0,0
42465,-100,4,2,1,50,0,0
42534,-100,4,2,1,30,0,0
42671,-100,4,1,1,25,0,0
42738,-100,4,2,1,50,0,0
42807,-100,4,2,1,50,0,0
43080,-100,4,2,1,30,0,0
43355,-100,4,2,1,50,0,0
43626,272.727272727273,4,2,1,30,1,0
43762,-100,4,1,1,25,0,0
43829,-100,4,2,1,50,0,0
43898,-100,4,1,1,25,0,0
43965,-100,4,2,1,50,0,0
44444,-100,4,1,1,25,0,0
44511,-100,4,2,1,50,0,0
44580,-100,4,1,1,25,0,0
44647,-100,4,2,1,50,0,0
44989,-100,4,1,1,25,0,0
45056,-100,4,2,1,50,0,0
45398,-100,4,1,1,25,0,0
45465,-100,4,2,1,50,0,0
45535,-100,4,1,1,25,0,0
45602,-100,4,2,1,50,0,0
45671,-100,4,1,1,25,0,0
45738,-100,4,1,1,5,0,0
45807,-133.333333333333,4,2,1,30,0,0
46898,-100,4,2,1,50,0,0
48126,-100,4,1,1,25,0,0
48193,-100,4,2,1,50,0,0
48262,-100,4,1,1,25,0,0
48329,-100,4,2,1,50,0,0
48398,-100,4,1,1,25,0,0
48465,-100,4,2,1,50,0,0
48535,-100,4,1,1,25,0,0
48602,-100,4,2,1,50,0,0
48671,-100,4,1,1,25,0,0
48738,-100,4,2,1,50,0,0
48807,-100,4,1,1,25,0,0
48874,-100,4,2,1,50,0,0
48944,-100,4,1,1,25,0,0
49011,-100,4,2,1,50,0,0
49216,-100,4,1,1,25,0,0
49283,-100,4,2,1,50,0,0
49626,-100,4,2,1,30,0,0
49898,-100,4,2,1,50,0,0
50035,-100,4,1,1,25,0,0
50102,-100,4,2,1,50,0,0
50580,-100,4,1,1,25,0,0
50647,-100,4,2,1,50,0,0
51262,-100,4,1,1,25,0,0
51329,-100,4,2,1,50,0,0
51398,-100,4,1,1,25,0,0
51465,-100,4,2,1,50,0,0
51535,-100,4,1,1,25,0,0
51602,-100,4,2,1,50,0,0
51671,-100,4,1,1,25,0,0
51738,-100,4,2,1,50,0,0
51807,-100,4,1,1,25,0,0
51874,-100,4,2,1,50,0,0
51944,-100,4,1,1,25,0,0
52011,-100,4,2,1,50,0,0
52080,-100,4,1,1,25,0,0
52147,-100,4,2,1,50,0,0
52216,-100,4,1,1,25,0,0
52283,-100,4,2,1,50,0,0
52762,-100,4,1,1,25,0,0
52829,-100,4,2,1,50,0,0
53035,-100,4,1,1,25,0,0
53102,-100,4,2,1,50,0,0
53307,-100,4,1,1,25,0,0
53374,-100,4,2,1,50,0,0
53580,-100,4,1,1,25,0,0
53647,-100,4,2,1,50,0,0
53989,-100,4,1,1,25,0,0
54056,-100,4,2,1,50,0,0
54126,-100,4,1,1,25,0,0
54193,-100,4,2,1,50,0,0
54262,-100,4,1,1,25,0,0
54329,-100,4,2,1,50,0,0
54398,-100,4,1,1,25,0,0
54465,-100,4,2,1,50,0,0
54671,-100,4,1,1,25,0,0
54738,-100,4,2,1,50,0,0
55080,-100,4,1,1,25,0,0
55147,-100,4,2,1,50,0,0
55489,-100,4,1,1,25,0,0
55556,-100,4,2,1,50,0,0
56035,-100,4,1,1,25,0,0
56102,-100,4,2,1,50,0,0
56580,-100,4,1,1,25,0,0
56647,-100,4,2,1,50,0,0
56989,-100,4,1,1,25,0,0
57056,-100,4,2,1,50,0,0
57126,-100,4,1,1,25,0,0
57193,-100,4,2,1,50,0,0
57535,-100,4,1,1,25,0,0
57602,-100,4,2,1,50,0,0
57671,-100,4,1,1,25,0,0
57738,-100,4,2,1,50,0,0
58762,-100,4,1,1,25,0,0
58829,-100,4,2,1,50,0,0
59171,-100,4,1,1,25,0,0
59238,-100,4,2,1,50,0,0
59307,-100,4,1,1,25,0,0
59374,-100,4,2,1,50,0,0
59444,-100,4,1,1,25,0,0
59511,-100,4,2,1,50,0,0
59716,-66.6666666666667,4,2,1,50,0,0
59853,-100,4,1,1,25,0,0
59920,-100,4,2,1,50,0,0
60262,-100,4,1,1,25,0,0
60329,-100,4,2,1,50,0,0
60535,-100,4,1,1,25,0,0
60602,-100,4,2,1,50,0,0
60671,-100,4,1,1,25,0,0
60738,-100,4,2,1,50,0,0
60807,-83.3333333333333,4,2,1,50,0,0
60944,-100,4,1,1,25,0,0
61011,-100,4,2,1,50,0,0
61353,-41.6666666666667,4,2,1,50,0,0
61626,-83.3333333333333,4,2,1,50,0,0
61762,-100,4,1,1,25,0,0
61829,-100,4,2,1,50,0,0
62035,-100,4,1,1,25,0,0
62102,-100,4,2,1,50,0,0
62307,-100,4,1,1,25,0,0
62374,-100,4,2,1,50,0,0
62444,-100,4,1,1,25,0,0
62511,-100,4,2,1,50,0,0
62580,-100,4,1,1,25,0,0
62647,-100,4,2,1,50,0,0
62716,-100,4,1,1,25,0,0
62783,-100,4,2,1,50,0,0
62853,-100,4,1,1,25,0,0
62920,-100,4,2,1,50,0,0
62989,-100,4,1,1,25,0,0
63056,-100,4,2,1,50,0,0
63126,-100,4,1,1,25,0,0
63193,-100,4,2,1,50,0,0
64626,-55.5555555555556,4,2,1,50,0,0
64898,-83.3333333333333,4,2,1,50,0,0
65171,-100,4,1,1,25,0,0
65238,-100,4,2,1,50,0,0
65716,-100,4,1,1,25,0,0
65783,-100,4,2,1,50,0,0
65989,-100,4,1,1,25,0,0
66056,-100,4,2,1,50,0,0
66126,-100,4,1,1,25,0,0
66193,-100,4,2,1,50,0,0
66262,-100,4,2,1,50,0,0
66398,-100,4,1,1,25,0,0
66465,-100,4,2,1,50,0,0
66807,-100,4,1,1,25,0,0
66874,-100,4,2,1,50,0,0
66944,-100,4,1,1,25,0,0
67011,-100,4,2,1,50,0,0
67353,-100,4,1,1,25,0,0
67420,-100,4,2,1,50,0,0
67489,-100,4,1,1,25,0,0
67556,-100,4,2,1,50,0,0
67898,-100,4,1,1,25,0,0
67965,-100,4,2,1,50,0,0
68035,-100,4,1,1,25,0,0
68102,-100,4,2,1,50,0,0
68307,-100,4,1,1,25,0,0
68374,-100,4,2,1,50,0,0
68580,-100,4,1,1,25,0,0
68647,-100,4,2,1,50,0,0
68989,-100,4,1,1,25,0,0
69056,-100,4,2,1,50,0,0
69126,-100,4,1,1,25,0,0
69193,-100,4,2,1,50,0,0
69262,-100,4,1,1,25,0,0
69329,-100,4,2,1,50,0,0
69398,-100,4,1,1,25,0,0
69465,-100,4,2,1,50,0,0
69535,-100,4,1,1,25,0,0
69602,-100,4,2,1,50,0,0
69671,-100,4,1,1,25,0,0
69738,-100,4,2,1,50,0,0
70080,-100,4,1,1,25,0,0
70147,-100,4,2,1,50,0,0
70353,-100,4,1,1,25,0,0
70420,-100,4,2,1,50,0,0
70489,-100,4,1,1,25,0,0
70556,-100,4,2,1,50,0,0
70762,-100,4,1,1,25,0,0
70829,-100,4,2,1,50,0,0
71307,-100,4,1,1,25,0,0
71374,-100,4,2,1,50,0,0
71444,-100,4,1,1,25,0,0
71511,-100,4,2,1,50,0,0
71580,-100,4,1,1,25,0,0
71647,-100,4,2,1,50,0,0
71716,-100,4,1,1,25,0,0
71783,-100,4,2,1,50,0,0
71853,-100,4,1,1,25,0,0
71920,-100,4,2,1,50,0,0
72262,-100,4,1,1,25,0,0
72329,-100,4,2,1,50,0,0
72535,-100,4,1,1,25,0,0
72602,-100,4,2,1,50,0,0
72671,-100,4,1,1,25,0,0
72738,-100,4,2,1,50,0,0
74171,-31.25,4,2,1,50,0,0
74716,-66.6666666666667,4,2,1,50,0,0
74989,-31.25,4,2,1,50,0,0
75262,-66.6666666666667,4,2,1,50,0,0

[Colours]
Combo1 : 164,0,0
Combo2 : 255,0,0

[HitObjects]
83,80,39287,6,0,P|162:64|210:86,1,112.5,4|0,0:0|0:0,0:0:0:0:
194,190,39553,1,4,0:0:0:0:
292,170,39687,1,4,0:0:0:0:
83,80,39820,2,0,P|162:64|210:86,2,112.5
292,170,40220,6,0,L|271:241,1,56.25,4|0,0:0|0:0,0:0:0:0:
194,190,40353,2,0,B|160:126|206:147|148:44,1,112.5,4|0,0:0|0:0,0:0:0:0:
255,238,40625,1,4,0:0:0:0:
165,81,40762,2,0,B|240:61|240:61|288:166,1,168.75
292,170,41034,2,0,L|326:238,1,56.25,4|0,0:0|0:0,0:0:0:0:
374,197,41171,2,0,B|417:246|417:246|299:215,1,168.75
299,166,41443,6,0,P|312:197|318:253,1,56.25,4|0,0:0|0:0,0:0:0:0:
135,275,41580,2,0,B|166:271|166:271|167:263|167:263|242:256,1,112.5
103,191,41852,1,4,0:0:0:0:
299,166,41989,2,0,P|312:197|318:253,1,56.25
135,275,42126,2,0,B|166:271|166:271|167:263|167:263|242:256,1,112.5
315,219,42398,1,4,0:0:0:0:
323,234,42466,1,0,0:0:0:0:
330,248,42534,1,4,0:0:0:0:
366,317,42671,2,0,B|386:343|386:343|445:318,1,56.25,4|0,0:0|0:0,0:0:0:0:
474,303,42807,6,0,B|568:263|568:263|510:141,1,225,4|0,0:0|0:0,0:0:0:0:
348,134,43216,2,0,P|386:108|365:38,1,112.5
282,67,43489,2,0,P|244:93|265:163,1,112.5,0|4,0:0|0:0,0:0:0:0:
348,134,43762,1,4,0:0:0:0:
354,136,43830,1,0,0:0:0:0:
360,138,43898,1,4,0:0:0:0:
422,187,44035,2,0,B|483:131|458:128|437:262|437:262|473:346,1,225
473,343,44376,1,0,0:0:0:0:
473,343,44444,1,0,0:0:0:0:
279,283,44580,6,0,B|352:309|352:309|384:296,1,112.5,4|0,0:0|0:0,0:0:0:0:
472,225,44853,1,0,0:0:0:0:
414,184,44921,1,0,0:0:0:0:
362,138,44989,6,0,B|271:93|271:93|395:65,1,225
418,17,45330,1,0,0:0:0:0:
418,17,45398,2,0,P|397:46|390:96,1,56.25
462,126,45535,2,0,P|483:97|490:47,1,56.25,4|0,0:0|0:0,0:0:0:0:
418,17,45671,1,4,0:0:0:0:
418,17,45739,1,0,0:0:0:0:
418,17,45807,6,0,B|342:47|342:47|225:34,1,168.750006437302,4|0,0:0|0:0,0:0:0:0:
188,0,46353,2,0,P|189:71|296:105,1,168.750006437302,4|0,0:0|0:0,0:0:0:0:
340,158,46898,2,0,L|333:229,1,56.25,4|0,0:0|0:0,0:0:0:0:
252,238,47035,2,0,L|259:309,1,56.25
340,158,47171,2,0,B|451:129|451:129|393:79,1,168.75
346,52,47444,2,0,L|274:15,1,56.25,4|0,0:0|0:0,0:0:0:0:
231,76,47580,2,0,L|159:39,1,56.25
180,50,47716,2,0,B|169:3|169:3|168:113|123:191,1,225,0|4,0:0|0:0,0:0:0:0:
108,210,48126,5,4,0:0:0:0:
118,227,48194,1,0,0:0:0:0:
128,242,48262,1,4,0:0:0:0:
251,108,48398,5,4,0:0:0:0:
241,91,48466,1,0,0:0:0:0:
231,76,48534,1,4,0:0:0:0:
160,48,48671,5,4,0:0:0:0:
140,42,48739,1,0,0:0:0:0:
72,28,48807,1,4,0:0:0:0:
192,272,48943,5,4,0:0:0:0:
211,277,49011,1,0,0:0:0:0:
228,281,49079,1,4,0:0:0:0:
309,199,49216,2,0,B|366:244|366:244|393:88,1,225,4|0,0:0|0:0,0:0:0:0:
414,16,49626,2,0,P|448:17|502:69,1,112.5
498,141,49830,1,0,0:0:0:0:
496,155,49898,1,0,0:0:0:0:
480,239,50035,1,0,0:0:0:0:
448,332,50171,6,0,B|395:354|395:354|340:227,1,168.75,4|0,0:0|0:0,0:0:0:0:
312,289,50444,2,0,P|324:267|398:264,1,56.25
241,245,50580,1,4,0:0:0:0:
253,171,50716,6,0,B|306:149|306:149|361:276,1,168.75,4|0,0:0|0:0,0:0:0:0:
389,214,50989,2,0,P|377:236|303:239,1,56.25
312,325,51126,1,0,0:0:0:0:
255,203,51262,1,4,0:0:0:0:
389,214,51398,1,4,0:0:0:0:
312,325,51535,1,4,0:0:0:0:
144,322,51671,1,4,0:0:0:0:
159,315,51739,1,0,0:0:0:0:
176,306,51807,5,4,0:0:0:0:
255,203,51944,5,4,0:0:0:0:
312,325,52080,1,4,0:0:0:0:
389,214,52216,2,0,B|407:187|407:187|406:128,1,56.25,4|0,0:0|0:0,0:0:0:0:
339,28,52353,2,0,B|340:115|340:115|424:175,1,168.75,4|0,0:0|0:0,0:0:0:0:
478,220,52626,2,0,P|466:242|465:299,1,56.25
448,346,52762,1,4,0:0:0:0:
377,358,52898,2,0,L|291:338,1,56.25
379,268,53035,2,0,P|382:291|296:338,1,112.5,4|0,0:0|0:0,0:0:0:0:
384,167,53307,1,4,0:0:0:0:
379,268,53444,2,0,P|382:291|296:338,1,112.5,4|4,0:0|0:0,0:0:0:0:
135,304,53716,6,0,B|219:298|219:298|144:188,1,168.75
157,207,53989,1,4,0:0:0:0:
96,144,54126,1,4,0:0:0:0:
32,80,54262,1,4,0:0:0:0:
103,5,54398,1,4,0:0:0:0:
110,2,54466,1,0,0:0:0:0:
116,0,54535,1,4,0:0:0:0:
96,144,54671,1,4,0:0:0:0:
244,59,54807,5,0,0:0:0:0:
251,56,54875,1,0,0:0:0:0:
257,54,54944,1,0,0:0:0:0:
157,207,55080,1,4,0:0:0:0:
208,272,55216,2,0,B|256:304|288:224|368:272,1,168.75
487,232,55489,2,0,P|463:220|423:238,1,56.25,4|0,0:0|0:0,0:0:0:0:
368,272,55626,2,0,B|336:342|336:342|291:258,1,168.75,4|0,0:0|0:0,0:0:0:0:
255,185,55898,1,0,0:0:0:0:
114,181,56035,1,4,0:0:0:0:
128,139,56103,5,0,0:0:0:0:
142,98,56171,2,0,B|174:28|174:28|219:112,1,168.75,4|0,0:0|0:0,0:0:0:0:
255,185,56443,1,0,0:0:0:0:
298,150,56580,2,0,P|271:175|218:193,1,56.25,4|0,0:0|0:0,0:0:0:0:
103,247,56716,2,0,P|56:286|154:332,1,168.75,4|0,0:0|0:0,0:0:0:0:
178,178,56989,2,0,P|179:209|194:254,1,56.25,4|0,0:0|0:0,0:0:0:0:
266,267,57126,2,0,P|267:298|282:343,1,56.25,4|0,0:0|0:0,0:0:0:0:
193,343,57262,2,0,P|136:292|186:234,1,168.75
248,198,57535,1,4,0:0:0:0:
261,290,57671,1,4,0:0:0:0:
257,276,57739,1,0,0:0:0:0:
266,267,57807,6,0,B|316:305|316:305|438:262,1,168.75,4|0,0:0|0:0,0:0:0:0:
487,245,58080,2,0,B|503:174|503:174|371:180,1,168.75
235,141,58489,1,0,0:0:0:0:
343,111,58626,1,0,0:0:0:0:
343,111,58762,1,4,0:0:0:0:
235,141,58898,2,0,B|155:116|155:116|87:179,1,168.75,4|0,0:0|0:0,0:0:0:0:
43,229,59171,1,4,0:0:0:0:
75,349,59307,5,4,0:0:0:0:
85,343,59376,1,0,0:0:0:0:
96,338,59444,1,4,0:0:0:0:
157,269,59580,5,0,0:0:0:0:
167,263,59649,1,0,0:0:0:0:
178,258,59717,1,0,0:0:0:0:
196,143,59853,1,4,0:0:0:0:
256,219,59989,6,0,B|279:158|279:158|302:237|302:237|278:278,1,168.75,4|0,0:0|0:0,0:0:0:0:
196,143,60262,2,0,B|134:156|134:156|75:148|75:148|98:132|114:77|104:62,1,168.75,4|0,0:0|0:0,0:0:0:0:
184,29,60535,2,0,P|135:20|101:30,1,56.25,4|0,0:0|0:0,0:0:0:0:
196,143,60671,2,0,P|245:134|281:140,1,56.25,4|0,0:0|0:0,0:0:0:0:
328,196,60807,1,0,0:0:0:0:
228,240,60944,2,0,B|264:276|264:276|378:259,1,112.5,4|4,0:0|0:0,0:0:0:0:
426,217,61216,6,0,L|438:286,1,67.4999979400635
344,163,61353,2,0,P|402:56|315:157,1,404.999987640381
426,217,61626,6,0,L|438:286,1,67.4999979400635
350,264,61762,2,0,B|293:286|289:233|206:272,1,112.5,4|0,0:0|0:0,0:0:0:0:
226,205,62035,2,0,P|234:226|238:286,1,56.25,4|0,0:0|0:0,0:0:0:0:
148,350,62171,2,0,P|101:303|101:237,1,112.5,4|4,0:0|0:0,0:0:0:0:
100,143,62376,1,0,0:0:0:0:
103,131,62444,1,4,0:0:0:0:
182,80,62580,1,4,0:0:0:0:
186,88,62648,1,0,0:0:0:0:
191,97,62716,1,4,0:0:0:0:
288,111,62853,5,4,0:0:0:0:
284,103,62921,1,0,0:0:0:0:
279,94,62989,1,4,0:0:0:0:
389,111,63126,1,4,0:0:0:0:
182,80,63262,2,0,P|164:108|81:162,1,112.5,4|0,0:0|0:0,0:0:0:0:
182,80,63535,1,0,0:0:0:0:
279,93,63671,1,0,0:0:0:0:
182,80,63807,2,0,P|164:108|83:160,1,112.5
14,188,64012,1,0,0:0:0:0:
0,193,64080,1,0,0:0:0:0:
15,262,64216,5,0,0:0:0:0:
60,245,64284,1,0,0:0:0:0:
86,203,64352,1,0,0:0:0:0:
80,154,64420,1,0,0:0:0:0:
45,120,64488,1,0,0:0:0:0:
0,115,64556,1,0,0:0:0:0:
80,154,64626,1,0,0:0:0:0:
34,137,64694,1,0,0:0:0:0:
8,95,64762,1,0,0:0:0:0:
14,46,64830,1,0,0:0:0:0:
49,12,64898,1,0,0:0:0:0:
98,7,64966,1,0,0:0:0:0:
131,25,65035,2,0,L|216:42,1,67.4999979400635
280,31,65171,2,0,L|375:16,1,67.4999979400635,4|0,0:0|0:0,0:0:0:0:
380,93,65444,6,0,B|347:39|347:39|310:106|334:172,1,168.75,4|0,0:0|0:0,0:0:0:0:
344,225,65716,2,0,B|352:241|352:310|226:278,1,134.999995880127,4|0,0:0|0:0,0:0:0:0:
202,222,65921,1,0,0:0:0:0:
207,234,65989,1,4,0:0:0:0:
131,238,66126,1,4,0:0:0:0:
102,176,66194,1,0,0:0:0:0:
73,115,66262,1,0,0:0:0:0:
172,72,66398,1,4,0:0:0:0:
73,115,66535,6,0,L|135:253,1,112.5,4|0,0:0|0:0,0:0:0:0:
207,234,66739,1,0,0:0:0:0:
213,222,66807,1,4,0:0:0:0:
172,72,66944,1,4,0:0:0:0:
218,210,67080,2,0,B|266:225|266:225|335:175,1,112.5
400,189,67353,1,4,0:0:0:0:
402,133,67421,1,0,0:0:0:0:
362,99,67489,1,4,0:0:0:0:
308,110,67557,1,0,0:0:0:0:
313,187,67626,6,0,B|302:250|302:250|337:368,1,168.75,4|0,0:0|0:0,0:0:0:0:
387,357,67898,2,0,P|332:350|282:362,1,56.25,4|0,0:0|0:0,0:0:0:0:
261,345,68035,1,4,0:0:0:0:
151,290,68171,1,0,0:0:0:0:
150,166,68307,1,4,0:0:0:0:
43,228,68444,1,0,0:0:0:0:
151,290,68580,1,4,0:0:0:0:
150,166,68716,6,0,B|131:117|131:117|149:25,1,112.5,4|0,0:0|0:0,0:0:0:0:
142,58,68921,1,0,0:0:0:0:
142,58,68989,1,4,0:0:0:0:
238,127,69126,1,4,0:0:0:0:
301,22,69262,1,4,0:0:0:0:
360,165,69398,1,4,0:0:0:0:
407,100,69535,2,0,B|441:108|441:108|473:130,1,56.25,4|0,0:0|0:0,0:0:0:0:
360,165,69671,2,0,B|326:157|326:157|294:135,1,56.25,4|0,0:0|0:0,0:0:0:0:
238,127,69807,6,0,B|210:211|210:211|256:304,1,168.75,4|0,0:0|0:0,0:0:0:0:
320,280,70080,2,0,P|289:296|232:242,1,112.5,4|0,0:0|0:0,0:0:0:0:
237,125,70285,1,0,0:0:0:0:
230,140,70353,1,4,0:0:0:0:
203,209,70489,2,0,B|162:344,1,112.5,4|0,0:0|0:0,0:0:0:0:
229,140,70762,1,4,0:0:0:0:
237,125,70830,1,0,0:0:0:0:
244,109,70898,6,0,B|196:90|196:90|291:56|385:86,1,225,4|0,0:0|0:0,0:0:0:0:
435,94,71307,1,4,0:0:0:0:
453,100,71376,1,0,0:0:0:0:
469,108,71444,1,4,0:0:0:0:
411,174,71580,1,4,0:0:0:0:
393,168,71649,1,0,0:0:0:0:
377,160,71717,1,4,0:0:0:0:
435,94,71853,1,4,0:0:0:0:
375,161,71989,6,0,B|303:181|362:253|236:300,1,168.75,4|0,0:0|0:0,0:0:0:0:
183,221,72262,2,0,P|238:243|277:313,1,112.5,4|0,0:0|0:0,0:0:0:0:
305,367,72466,1,0,0:0:0:0:
298,353,72535,1,4,0:0:0:0:
182,221,72671,1,4,0:0:0:0:
298,351,72807,2,0,P|394:364|477:327,1,168.75
465,284,73080,2,0,P|459:309|468:369,1,56.25
422,223,73216,2,0,P|428:198|419:138,1,56.25
420,95,73353,6,0,B|409:48|409:48|282:83,2,168.75
373,255,73898,1,0,0:0:0:0:
354,236,73966,1,0,0:0:0:0:
351,210,74034,1,0,0:0:0:0:
367,188,74102,1,0,0:0:0:0:
393,183,74170,1,4,0:0:0:0:
416,195,74238,1,0,0:0:0:0:
425,220,74307,1,0,0:0:0:0:
416,244,74375,1,0,0:0:0:0:
393,257,74443,1,0,0:0:0:0:
344,327,74716,5,0,0:0:0:0:
325,308,74784,1,0,0:0:0:0:
322,282,74852,1,0,0:0:0:0:
338,260,74920,1,0,0:0:0:0:
364,255,74988,1,4,0:0:0:0:
117,274,75262,5,4,0:0:0:0:
176,331,75330,1,0,0:0:0:0:
258,335,75398,1,0,0:0:0:0:
322,282,75466,1,0,0:0:0:0:
336,201,75534,1,0,0:0:0:0:
291,131,75602,1,0,0:0:0:0:
212,108,75671,1,0,0:0:0:0:
138,144,75739,1,0,0:0:0:0:
106,220,75807,1,0,0:0:0:0:
115,270,76353,5,4,0:0:0:0:
