osu file format v14

[General]
AudioFilename: audio.mp3
AudioLeadIn: 0
PreviewTime: 20235
Countdown: 0
SampleSet: Normal
StackLeniency: 0.7
Mode: 1
LetterboxInBreaks: 0
WidescreenStoryboard: 0

[Editor]
DistanceSpacing: 6
BeatDivisor: 3
GridSize: 4
TimelineZoom: 3.099999

[Metadata]
Title:try again
TitleUnicode:try again
Artist:deadmau5
ArtistUnicode:deadmau5
Creator:aEoNNzR-
Version:try again
Source:
Tags:
BeatmapID:1393356
BeatmapSetID:657838

[Difficulty]
HPDrainRate:7
CircleSize:5
OverallDifficulty:6
ApproachRate:5
SliderMultiplier:1.4
SliderTickRate:1

[Events]
//Background and Video events
0,0,"maxresdefault.jpg",0,0
//Break Periods
2,83593,98299
//Storyboard Layer 0 (Background)
//Storyboard Layer 1 (Fail)
//Storyboard Layer 2 (Pass)
//Storyboard Layer 3 (Foreground)
//Storyboard Sound Samples

[TimingPoints]
20236,315.789473684211,4,1,0,100,1,0
161709,315.789473684211,4,1,0,100,1,0

[HitObjects]
256,192,20235,5,0,0:0:0:0:
256,192,20314,1,0,0:0:0:0:
256,192,20393,1,0,0:0:0:0:
256,192,20472,1,0,0:0:0:0:
256,192,20551,1,8,0:0:0:0:
256,192,20709,1,8,0:0:0:0:
256,192,20788,1,0,0:0:0:0:
256,192,20867,1,0,0:0:0:0:
256,192,21025,1,8,0:0:0:0:
256,192,21183,1,8,0:0:0:0:
256,192,21262,1,0,0:0:0:0:
256,192,21341,1,0,0:0:0:0:
256,192,21499,1,0,0:0:0:0:
256,192,21657,1,8,0:0:0:0:
256,192,21814,1,12,0:0:0:0:
256,192,21972,1,12,0:0:0:0:
256,192,22130,1,12,0:0:0:0:
256,192,22446,1,0,0:0:0:0:
256,192,22485,1,0,0:0:0:0:
256,192,22525,1,0,0:0:0:0:
256,192,22564,1,0,0:0:0:0:
256,192,22604,1,0,0:0:0:0:
256,192,22762,1,8,0:0:0:0:
256,192,22920,1,8,0:0:0:0:
256,192,23078,1,0,0:0:0:0:
256,192,23117,1,0,0:0:0:0:
256,192,23157,1,0,0:0:0:0:
256,192,23196,1,0,0:0:0:0:
256,192,23235,1,0,0:0:0:0:
256,192,23393,1,0,0:0:0:0:
256,192,23499,1,0,0:0:0:0:
256,192,23604,1,0,0:0:0:0:
256,192,23709,1,8,0:0:0:0:
256,192,23814,1,8,0:0:0:0:
256,192,23920,1,8,0:0:0:0:
256,192,24025,1,8,0:0:0:0:
256,192,24183,1,8,0:0:0:0:
256,192,24499,1,0,0:0:0:0:
256,192,24775,1,0,0:0:0:0:
256,192,24972,1,8,0:0:0:0:
256,192,25130,1,8,0:0:0:0:
256,192,25288,1,8,0:0:0:0:
256,192,25367,1,8,0:0:0:0:
256,192,25446,1,8,0:0:0:0:
256,192,25525,1,8,0:0:0:0:
256,192,25604,1,8,0:0:0:0:
256,192,25762,1,8,0:0:0:0:
256,192,25920,1,8,0:0:0:0:
256,192,26157,1,8,0:0:0:0:
256,192,26393,1,8,0:0:0:0:
256,192,26551,1,8,0:0:0:0:
256,192,26867,1,0,0:0:0:0:
256,192,27025,1,0,0:0:0:0:
256,192,27104,1,8,0:0:0:0:
256,192,27183,1,8,0:0:0:0:
256,192,27341,1,8,0:0:0:0:
256,192,27499,1,8,0:0:0:0:
256,192,27814,1,8,0:0:0:0:
256,192,27972,1,8,0:0:0:0:
256,192,28130,1,0,0:0:0:0:
256,192,28288,1,8,0:0:0:0:
256,192,28446,1,8,0:0:0:0:
256,192,28762,1,8,0:0:0:0:
256,192,28920,1,8,0:0:0:0:
256,192,29236,1,0,0:0:0:0:
256,192,29393,1,0,0:0:0:0:
256,192,29551,1,8,0:0:0:0:
256,192,29591,1,8,0:0:0:0:
256,192,29630,1,8,0:0:0:0:
256,192,29670,1,8,0:0:0:0:
256,192,29709,1,8,0:0:0:0:
256,192,29867,1,0,0:0:0:0:
256,192,30025,1,0,0:0:0:0:
256,192,30183,1,8,0:0:0:0:
256,192,30341,1,0,0:0:0:0:
256,192,30499,1,0,0:0:0:0:
256,192,30538,1,0,0:0:0:0:
256,192,30578,1,0,0:0:0:0:
256,192,30617,1,0,0:0:0:0:
256,192,30657,1,8,0:0:0:0:
256,192,30814,1,0,0:0:0:0:
256,192,30972,1,0,0:0:0:0:
256,192,31012,1,0,0:0:0:0:
256,192,31051,1,0,0:0:0:0:
256,192,31091,1,0,0:0:0:0:
256,192,31130,1,0,0:0:0:0:
256,192,31170,1,0,0:0:0:0:
256,192,31209,1,0,0:0:0:0:
256,192,31288,1,8,0:0:0:0:
256,192,31525,1,8,0:0:0:0:
256,192,31762,1,8,0:0:0:0:
256,192,31999,1,8,0:0:0:0:
256,192,32236,1,0,0:0:0:0:
256,192,32472,1,8,0:0:0:0:
256,192,32709,1,8,0:0:0:0:
256,192,32867,1,0,0:0:0:0:
256,192,32920,1,0,0:0:0:0:
256,192,32972,1,0,0:0:0:0:
256,192,33025,1,0,0:0:0:0:
256,192,33078,1,0,0:0:0:0:
256,192,33130,1,0,0:0:0:0:
256,192,33183,1,8,0:0:0:0:
256,192,33236,1,8,0:0:0:0:
256,192,33288,1,8,0:0:0:0:
256,192,33341,1,8,0:0:0:0:
256,192,33446,1,8,0:0:0:0:
256,192,33551,1,8,0:0:0:0:
256,192,33657,1,8,0:0:0:0:
256,192,33814,1,8,0:0:0:0:
256,192,34025,1,8,0:0:0:0:
256,192,34130,1,8,0:0:0:0:
256,192,34446,1,8,0:0:0:0:
256,192,34604,8,8,34762,0:0:0:0:
256,192,34920,5,8,0:0:0:0:
256,192,35078,8,8,36025,0:0:0:0:
256,192,36183,5,8,0:0:0:0:
256,192,36262,1,8,0:0:0:0:
256,192,36341,1,0,0:0:0:0:
256,192,36420,1,8,0:0:0:0:
256,192,36499,1,8,0:0:0:0:
256,192,36578,1,8,0:0:0:0:
256,192,36657,1,0,0:0:0:0:
256,192,36814,1,0,0:0:0:0:
256,192,36972,1,0,0:0:0:0:
256,192,37012,1,0,0:0:0:0:
256,192,37051,1,0,0:0:0:0:
256,192,37091,1,0,0:0:0:0:
256,192,37130,1,0,0:0:0:0:
256,192,37288,1,0,0:0:0:0:
256,192,37446,1,8,0:0:0:0:
256,192,37604,1,8,0:0:0:0:
256,192,37762,1,8,0:0:0:0:
256,192,37920,1,8,0:0:0:0:
256,192,38038,1,8,0:0:0:0:
256,192,38157,1,8,0:0:0:0:
256,192,38275,1,8,0:0:0:0:
256,192,38393,1,0,0:0:0:0:
256,192,38512,1,0,0:0:0:0:
256,192,38630,1,0,0:0:0:0:
256,192,38749,1,0,0:0:0:0:
256,192,38867,8,8,39657,0:0:0:0:
256,192,39814,5,8,0:0:0:0:
256,192,39920,1,8,0:0:0:0:
256,192,40025,1,8,0:0:0:0:
256,192,40130,1,8,0:0:0:0:
256,192,40236,1,8,0:0:0:0:
256,192,40341,1,8,0:0:0:0:
256,192,40446,1,0,0:0:0:0:
256,192,40525,1,0,0:0:0:0:
256,192,40604,1,0,0:0:0:0:
256,192,40683,1,0,0:0:0:0:
256,192,40762,1,8,0:0:0:0:
256,192,40920,1,8,0:0:0:0:
256,192,40999,1,0,0:0:0:0:
256,192,41078,1,0,0:0:0:0:
256,192,41236,1,8,0:0:0:0:
256,192,41393,1,0,0:0:0:0:
256,192,41472,1,8,0:0:0:0:
256,192,41551,1,8,0:0:0:0:
256,192,41709,1,0,0:0:0:0:
256,192,41867,1,8,0:0:0:0:
256,192,42025,1,8,0:0:0:0:
256,192,42104,1,8,0:0:0:0:
256,192,42183,1,8,0:0:0:0:
256,192,42341,1,8,0:0:0:0:
256,192,42657,1,0,0:0:0:0:
256,192,42696,1,0,0:0:0:0:
256,192,42736,1,0,0:0:0:0:
256,192,42775,1,0,0:0:0:0:
256,192,42814,1,8,0:0:0:0:
256,192,42972,1,0,0:0:0:0:
256,192,43130,1,0,0:0:0:0:
256,192,43288,1,8,0:0:0:0:
256,192,43328,1,8,0:0:0:0:
256,192,43367,1,8,0:0:0:0:
256,192,43407,1,8,0:0:0:0:
256,192,43446,1,8,0:0:0:0:
256,192,43604,1,8,0:0:0:0:
256,192,43709,1,8,0:0:0:0:
256,192,43814,1,8,0:0:0:0:
256,192,43920,1,0,0:0:0:0:
256,192,44025,1,0,0:0:0:0:
256,192,44130,1,0,0:0:0:0:
256,192,44236,1,0,0:0:0:0:
256,192,44393,1,0,0:0:0:0:
256,192,44551,1,8,0:0:0:0:
256,192,44762,1,0,0:0:0:0:
256,192,44972,1,0,0:0:0:0:
256,192,45183,1,8,0:0:0:0:
256,192,45341,1,8,0:0:0:0:
256,192,45499,1,8,0:0:0:0:
256,192,45578,1,8,0:0:0:0:
256,192,45657,1,8,0:0:0:0:
256,192,45736,1,8,0:0:0:0:
256,192,45814,1,0,0:0:0:0:
256,192,45972,1,0,0:0:0:0:
256,192,46130,1,0,0:0:0:0:
256,192,46367,1,0,0:0:0:0:
256,192,46446,1,8,0:0:0:0:
256,192,46604,1,0,0:0:0:0:
256,192,46762,1,0,0:0:0:0:
256,192,46920,1,8,0:0:0:0:
256,192,47078,1,8,0:0:0:0:
256,192,47236,1,0,0:0:0:0:
256,192,47314,1,8,0:0:0:0:
256,192,47393,1,8,0:0:0:0:
256,192,47551,1,8,0:0:0:0:
256,192,47709,1,8,0:0:0:0:
256,192,48025,1,8,0:0:0:0:
256,192,48183,1,8,0:0:0:0:
256,192,48341,1,0,0:0:0:0:
256,192,48499,1,8,0:0:0:0:
256,192,48657,1,8,0:0:0:0:
256,192,48972,1,8,0:0:0:0:
256,192,49130,1,8,0:0:0:0:
256,192,49446,1,0,0:0:0:0:
256,192,49604,1,0,0:0:0:0:
256,192,49762,1,8,0:0:0:0:
256,192,49801,1,8,0:0:0:0:
256,192,49841,1,8,0:0:0:0:
256,192,49880,1,8,0:0:0:0:
256,192,49920,1,8,0:0:0:0:
256,192,50078,1,0,0:0:0:0:
256,192,50236,1,0,0:0:0:0:
256,192,50393,1,8,0:0:0:0:
256,192,50551,1,0,0:0:0:0:
256,192,50709,1,0,0:0:0:0:
256,192,50867,1,8,0:0:0:0:
256,192,50907,1,8,0:0:0:0:
256,192,50946,1,8,0:0:0:0:
256,192,50986,1,8,0:0:0:0:
256,192,51025,1,0,0:0:0:0:
256,192,51183,1,0,0:0:0:0:
256,192,51222,1,0,0:0:0:0:
256,192,51262,1,0,0:0:0:0:
256,192,51301,1,0,0:0:0:0:
256,192,51341,1,0,0:0:0:0:
256,192,51380,1,0,0:0:0:0:
256,192,51499,1,8,0:0:0:0:
256,192,51551,1,8,0:0:0:0:
256,192,51736,1,8,0:0:0:0:
256,192,51788,1,8,0:0:0:0:
256,192,51972,1,0,0:0:0:0:
256,192,52025,1,0,0:0:0:0:
256,192,52209,1,0,0:0:0:0:
256,192,52262,1,0,0:0:0:0:
256,192,52446,1,0,0:0:0:0:
256,192,52472,1,0,0:0:0:0:
256,192,52683,1,8,0:0:0:0:
256,192,52709,1,8,0:0:0:0:
256,192,53078,1,8,0:0:0:0:
256,192,53130,1,8,0:0:0:0:
256,192,53183,1,8,0:0:0:0:
256,192,53236,1,8,0:0:0:0:
256,192,53288,1,8,0:0:0:0:
256,192,53341,1,8,0:0:0:0:
256,192,53393,1,0,0:0:0:0:
256,192,53446,1,0,0:0:0:0:
256,192,53499,1,0,0:0:0:0:
256,192,53551,1,8,0:0:0:0:
256,192,53657,1,8,0:0:0:0:
256,192,53762,1,8,0:0:0:0:
256,192,53867,1,8,0:0:0:0:
256,192,54025,1,8,0:0:0:0:
256,192,54236,1,8,0:0:0:0:
256,192,54341,1,8,0:0:0:0:
256,192,54657,1,8,0:0:0:0:
256,192,54893,1,0,0:0:0:0:
256,192,54972,1,8,0:0:0:0:
256,192,55130,1,8,0:0:0:0:
256,192,55288,1,8,0:0:0:0:
256,192,55446,1,8,0:0:0:0:
256,192,55604,1,0,0:0:0:0:
256,192,55762,1,0,0:0:0:0:
256,192,55920,1,8,0:0:0:0:
256,192,55999,1,8,0:0:0:0:
256,192,56078,1,0,0:0:0:0:
256,192,56236,1,8,0:0:0:0:
256,192,56393,1,0,0:0:0:0:
256,192,56472,1,0,0:0:0:0:
256,192,56551,1,8,0:0:0:0:
256,192,56630,1,8,0:0:0:0:
256,192,56709,1,0,0:0:0:0:
256,192,56788,1,0,0:0:0:0:
256,192,56867,1,0,0:0:0:0:
256,192,57025,1,0,0:0:0:0:
256,192,57183,1,8,0:0:0:0:
256,192,57222,1,8,0:0:0:0:
256,192,57262,1,8,0:0:0:0:
256,192,57301,1,8,0:0:0:0:
256,192,57341,1,8,0:0:0:0:
256,192,57499,1,0,0:0:0:0:
256,192,57657,1,8,0:0:0:0:
256,192,57814,1,8,0:0:0:0:
256,192,57972,1,8,0:0:0:0:
256,192,58130,1,0,0:0:0:0:
256,192,58249,1,0,0:0:0:0:
256,192,58367,1,0,0:0:0:0:
256,192,58486,1,0,0:0:0:0:
256,192,58604,1,8,0:0:0:0:
256,192,58722,1,8,0:0:0:0:
256,192,58841,1,8,0:0:0:0:
256,192,58959,1,8,0:0:0:0:
256,192,59078,8,8,59393,0:0:0:0:
256,192,59709,5,0,0:0:0:0:
256,192,59788,1,0,0:0:0:0:
256,192,59867,1,0,0:0:0:0:
256,192,59946,1,0,0:0:0:0:
256,192,60025,1,8,0:0:0:0:
256,192,60130,1,8,0:0:0:0:
256,192,60236,1,8,0:0:0:0:
256,192,60341,1,8,0:0:0:0:
256,192,60446,1,8,0:0:0:0:
256,192,60551,1,8,0:0:0:0:
256,192,60657,1,8,0:0:0:0:
256,192,60893,1,8,0:0:0:0:
256,192,61183,1,0,0:0:0:0:
256,192,61604,1,8,0:0:0:0:
256,192,61762,1,8,0:0:0:0:
256,192,61920,1,0,0:0:0:0:
256,192,62078,1,8,0:0:0:0:
256,192,62236,1,8,0:0:0:0:
256,192,62551,1,8,0:0:0:0:
256,192,62709,1,8,0:0:0:0:
256,192,63025,1,0,0:0:0:0:
256,192,63183,1,0,0:0:0:0:
256,192,63262,1,8,0:0:0:0:
256,192,63341,1,8,0:0:0:0:
256,192,63499,1,0,0:0:0:0:
256,192,63657,1,8,0:0:0:0:
256,192,63814,1,0,0:0:0:0:
256,192,63893,1,0,0:0:0:0:
256,192,63972,1,8,0:0:0:0:
256,192,64130,1,8,0:0:0:0:
256,192,64446,1,0,0:0:0:0:
256,192,64486,1,0,0:0:0:0:
256,192,64525,1,0,0:0:0:0:
256,192,64564,1,0,0:0:0:0:
256,192,64604,1,0,0:0:0:0:
256,192,64762,1,0,0:0:0:0:
256,192,65078,1,0,0:0:0:0:
256,192,65393,1,0,0:0:0:0:
256,192,65709,1,0,0:0:0:0:
256,192,65788,1,8,0:0:0:0:
256,192,65867,1,8,0:0:0:0:
256,192,66025,1,0,0:0:0:0:
256,192,66183,1,0,0:0:0:0:
256,192,66341,1,0,0:0:0:0:
256,192,66420,1,0,0:0:0:0:
256,192,66499,1,8,0:0:0:0:
256,192,66657,1,0,0:0:0:0:
256,192,66736,1,8,0:0:0:0:
256,192,66814,1,8,0:0:0:0:
256,192,66972,1,8,0:0:0:0:
256,192,67130,1,8,0:0:0:0:
256,192,67288,1,0,0:0:0:0:
256,192,67367,1,0,0:0:0:0:
256,192,67446,1,8,0:0:0:0:
256,192,67604,1,0,0:0:0:0:
256,192,67683,1,0,0:0:0:0:
256,192,67762,1,8,0:0:0:0:
256,192,67920,1,0,0:0:0:0:
256,192,67999,1,0,0:0:0:0:
256,192,68078,1,8,0:0:0:0:
256,192,68236,1,0,0:0:0:0:
256,192,68551,1,0,0:0:0:0:
256,192,68867,1,8,0:0:0:0:
256,192,69025,1,8,0:0:0:0:
256,192,69183,1,0,0:0:0:0:
256,192,69499,1,0,0:0:0:0:
256,192,69657,1,8,0:0:0:0:
256,192,69814,1,8,0:0:0:0:
256,192,69893,1,8,0:0:0:0:
256,192,69972,1,0,0:0:0:0:
256,192,70130,1,8,0:0:0:0:
256,192,70288,1,8,0:0:0:0:
256,192,70367,1,0,0:0:0:0:
256,192,70446,1,8,0:0:0:0:
256,192,70525,1,8,0:0:0:0:
256,192,70604,1,0,0:0:0:0:
256,192,70683,1,0,0:0:0:0:
256,192,70762,1,0,0:0:0:0:
256,192,70920,1,0,0:0:0:0:
256,192,71078,1,8,0:0:0:0:
256,192,71117,1,8,0:0:0:0:
256,192,71157,1,8,0:0:0:0:
256,192,71196,1,8,0:0:0:0:
256,192,71236,1,8,0:0:0:0:
256,192,71393,1,0,0:0:0:0:
256,192,71551,1,8,0:0:0:0:
256,192,71709,1,8,0:0:0:0:
256,192,71867,1,8,0:0:0:0:
256,192,72025,1,0,0:0:0:0:
256,192,72183,1,8,0:0:0:0:
256,192,72341,1,8,0:0:0:0:
256,192,72499,1,8,0:0:0:0:
256,192,72657,1,0,0:0:0:0:
256,192,72814,1,8,0:0:0:0:
256,192,72972,1,8,0:0:0:0:
256,192,73130,1,8,0:0:0:0:
256,192,73288,1,8,0:0:0:0:
256,192,73446,1,8,0:0:0:0:
256,192,73604,1,12,0:0:0:0:
256,192,73762,1,12,0:0:0:0:
256,192,73920,1,8,0:0:0:0:
256,192,73999,1,0,0:0:0:0:
256,192,74078,1,8,0:0:0:0:
256,192,74157,1,8,0:0:0:0:
256,192,74236,1,0,0:0:0:0:
256,192,74314,1,0,0:0:0:0:
256,192,74393,1,0,0:0:0:0:
256,192,74551,1,0,0:0:0:0:
256,192,74709,1,8,0:0:0:0:
256,192,74749,1,8,0:0:0:0:
256,192,74788,1,8,0:0:0:0:
256,192,74828,1,8,0:0:0:0:
256,192,74867,1,8,0:0:0:0:
256,192,75025,1,0,0:0:0:0:
256,192,75183,1,0,0:0:0:0:
256,192,75341,1,8,0:0:0:0:
256,192,75499,1,8,0:0:0:0:
256,192,75814,1,8,0:0:0:0:
256,192,75972,1,8,0:0:0:0:
256,192,76130,1,0,0:0:0:0:
256,192,76288,1,8,0:0:0:0:
256,192,76446,1,8,0:0:0:0:
256,192,76762,1,8,0:0:0:0:
256,192,76920,1,8,0:0:0:0:
256,192,77236,1,0,0:0:0:0:
256,192,77393,1,0,0:0:0:0:
256,192,77551,1,8,0:0:0:0:
256,192,77591,1,8,0:0:0:0:
256,192,77630,1,8,0:0:0:0:
256,192,77670,1,8,0:0:0:0:
256,192,77709,1,8,0:0:0:0:
256,192,77867,1,0,0:0:0:0:
256,192,78025,1,0,0:0:0:0:
256,192,78183,1,8,0:0:0:0:
256,192,78341,1,8,0:0:0:0:
256,192,78499,1,8,0:0:0:0:
256,192,78657,1,8,0:0:0:0:
256,192,78696,1,8,0:0:0:0:
256,192,78736,1,8,0:0:0:0:
256,192,78775,1,8,0:0:0:0:
256,192,78814,1,0,0:0:0:0:
256,192,78972,1,8,0:0:0:0:
256,192,79130,1,0,0:0:0:0:
256,192,79209,1,0,0:0:0:0:
256,192,79288,1,8,0:0:0:0:
256,192,79367,1,8,0:0:0:0:
256,192,79446,1,0,0:0:0:0:
256,192,79525,1,8,0:0:0:0:
256,192,79604,1,8,0:0:0:0:
256,192,79762,1,8,0:0:0:0:
256,192,79920,1,0,0:0:0:0:
256,192,79959,1,0,0:0:0:0:
256,192,79999,1,0,0:0:0:0:
256,192,80038,1,0,0:0:0:0:
256,192,80078,1,0,0:0:0:0:
256,192,80236,1,0,0:0:0:0:
256,192,80393,1,8,0:0:0:0:
256,192,80551,1,8,0:0:0:0:
256,192,80867,12,0,83393,0:0:0:0:
256,192,99499,12,0,99972,0:0:0:0:
256,192,100446,5,8,0:0:0:0:
256,192,100525,1,8,0:0:0:0:
256,192,100604,1,8,0:0:0:0:
256,192,100683,1,8,0:0:0:0:
256,192,100762,1,8,0:0:0:0:
256,192,100801,1,8,0:0:0:0:
256,192,100841,1,8,0:0:0:0:
256,192,100880,1,8,0:0:0:0:
256,192,100920,1,8,0:0:0:0:
256,192,100959,1,8,0:0:0:0:
256,192,100999,1,8,0:0:0:0:
256,192,101038,1,8,0:0:0:0:
256,192,101078,1,8,0:0:0:0:
256,192,101236,1,0,0:0:0:0:
256,192,101393,1,0,0:0:0:0:
256,192,101551,1,8,0:0:0:0:
256,192,101591,1,8,0:0:0:0:
256,192,101630,1,8,0:0:0:0:
256,192,101670,1,8,0:0:0:0:
256,192,101709,1,8,0:0:0:0:
256,192,101867,1,0,0:0:0:0:
256,192,102025,1,0,0:0:0:0:
256,192,102183,1,8,0:0:0:0:
256,192,102341,1,8,0:0:0:0:
256,192,102499,1,8,0:0:0:0:
256,192,102657,1,0,0:0:0:0:
256,192,102814,1,8,0:0:0:0:
256,192,102972,1,8,0:0:0:0:
256,192,103288,1,8,0:0:0:0:
256,192,103446,1,8,0:0:0:0:
256,192,103604,1,8,0:0:0:0:
256,192,103683,1,0,0:0:0:0:
256,192,103762,1,8,0:0:0:0:
256,192,103841,1,0,0:0:0:0:
256,192,103920,1,0,0:0:0:0:
256,192,103999,1,0,0:0:0:0:
256,192,104078,1,0,0:0:0:0:
256,192,104236,1,0,0:0:0:0:
256,192,104393,1,8,0:0:0:0:
256,192,104446,1,8,0:0:0:0:
256,192,104499,1,8,0:0:0:0:
256,192,104551,1,8,0:0:0:0:
256,192,104709,1,0,0:0:0:0:
256,192,104867,1,0,0:0:0:0:
256,192,105025,1,8,0:0:0:0:
256,192,105183,1,8,0:0:0:0:
256,192,105341,1,8,0:0:0:0:
256,192,105499,1,0,0:0:0:0:
256,192,105657,1,8,0:0:0:0:
256,192,105814,1,8,0:0:0:0:
256,192,106130,1,8,0:0:0:0:
256,192,106288,1,8,0:0:0:0:
256,192,106604,1,0,0:0:0:0:
256,192,106762,1,0,0:0:0:0:
256,192,106920,1,8,0:0:0:0:
256,192,106959,1,8,0:0:0:0:
256,192,106999,1,8,0:0:0:0:
256,192,107038,1,8,0:0:0:0:
256,192,107078,1,8,0:0:0:0:
256,192,107236,1,0,0:0:0:0:
256,192,107393,1,0,0:0:0:0:
256,192,107551,1,8,0:0:0:0:
256,192,107709,1,0,0:0:0:0:
256,192,107867,1,0,0:0:0:0:
256,192,108025,1,8,0:0:0:0:
256,192,108064,1,8,0:0:0:0:
256,192,108104,1,8,0:0:0:0:
256,192,108143,1,8,0:0:0:0:
256,192,108183,1,0,0:0:0:0:
256,192,108341,1,0,0:0:0:0:
256,192,108380,1,0,0:0:0:0:
256,192,108420,1,0,0:0:0:0:
256,192,108459,1,0,0:0:0:0:
256,192,108499,1,0,0:0:0:0:
256,192,108538,1,0,0:0:0:0:
256,192,108657,1,8,0:0:0:0:
256,192,108709,1,8,0:0:0:0:
256,192,108893,1,8,0:0:0:0:
256,192,108946,1,8,0:0:0:0:
256,192,109130,1,0,0:0:0:0:
256,192,109183,1,0,0:0:0:0:
256,192,109367,1,0,0:0:0:0:
256,192,109420,1,0,0:0:0:0:
256,192,109604,1,0,0:0:0:0:
256,192,109630,1,0,0:0:0:0:
256,192,109841,1,8,0:0:0:0:
256,192,109867,1,8,0:0:0:0:
256,192,111183,1,8,0:0:0:0:
256,192,111235,1,8,0:0:0:0:
256,192,111288,1,8,0:0:0:0:
256,192,111341,1,8,0:0:0:0:
256,192,111393,1,8,0:0:0:0:
256,192,111446,1,8,0:0:0:0:
256,192,111498,1,0,0:0:0:0:
256,192,111551,1,0,0:0:0:0:
256,192,111604,1,0,0:0:0:0:
256,192,111656,1,8,0:0:0:0:
256,192,111762,1,8,0:0:0:0:
256,192,111867,1,8,0:0:0:0:
256,192,111972,1,8,0:0:0:0:
256,192,112130,1,8,0:0:0:0:
256,192,112341,1,8,0:0:0:0:
256,192,112446,1,8,0:0:0:0:
256,192,112762,1,8,0:0:0:0:
256,192,112999,1,0,0:0:0:0:
256,192,113078,1,8,0:0:0:0:
256,192,113236,1,0,0:0:0:0:
256,192,113393,1,8,0:0:0:0:
256,192,113472,1,0,0:0:0:0:
256,192,113551,1,8,0:0:0:0:
256,192,113630,1,0,0:0:0:0:
256,192,113709,1,0,0:0:0:0:
256,192,113867,1,0,0:0:0:0:
256,192,114025,1,0,0:0:0:0:
256,192,114183,1,8,0:0:0:0:
256,192,114236,1,8,0:0:0:0:
256,192,114288,1,8,0:0:0:0:
256,192,114341,1,8,0:0:0:0:
256,192,114499,1,0,0:0:0:0:
256,192,114657,1,0,0:0:0:0:
256,192,114814,1,8,0:0:0:0:
256,192,114972,1,8,0:0:0:0:
256,192,115130,1,0,0:0:0:0:
256,192,115183,1,0,0:0:0:0:
256,192,115236,1,0,0:0:0:0:
256,192,115288,1,8,0:0:0:0:
256,192,115367,1,8,0:0:0:0:
256,192,115446,1,8,0:0:0:0:
256,192,115604,1,8,0:0:0:0:
256,192,115722,1,8,0:0:0:0:
256,192,115841,1,8,0:0:0:0:
256,192,115959,1,8,0:0:0:0:
256,192,116236,1,0,0:0:0:0:
256,192,116393,1,0,0:0:0:0:
256,192,116551,1,8,0:0:0:0:
256,192,116591,1,8,0:0:0:0:
256,192,116630,1,8,0:0:0:0:
256,192,116670,1,8,0:0:0:0:
256,192,116709,1,8,0:0:0:0:
256,192,116867,1,8,0:0:0:0:
256,192,117025,1,0,0:0:0:0:
256,192,117104,1,0,0:0:0:0:
256,192,117183,1,8,0:0:0:0:
256,192,117262,1,8,0:0:0:0:
256,192,117341,1,0,0:0:0:0:
256,192,117420,1,8,0:0:0:0:
256,192,117499,1,0,0:0:0:0:
256,192,117657,1,0,0:0:0:0:
256,192,117814,1,0,0:0:0:0:
256,192,117854,1,0,0:0:0:0:
256,192,117893,1,0,0:0:0:0:
256,192,117933,1,0,0:0:0:0:
256,192,117972,1,0,0:0:0:0:
256,192,118130,1,0,0:0:0:0:
256,192,118288,1,8,0:0:0:0:
256,192,118446,1,0,0:0:0:0:
256,192,118604,1,8,0:0:0:0:
256,192,118762,1,0,0:0:0:0:
256,192,118920,1,8,0:0:0:0:
256,192,119078,1,8,0:0:0:0:
256,192,119236,1,8,0:0:0:0:
256,192,119275,1,8,0:0:0:0:
256,192,119314,1,8,0:0:0:0:
256,192,119354,1,8,0:0:0:0:
256,192,119393,1,8,0:0:0:0:
256,192,119551,1,8,0:0:0:0:
256,192,119709,1,8,0:0:0:0:
256,192,120025,1,8,0:0:0:0:
256,192,120104,1,0,0:0:0:0:
256,192,120183,1,8,0:0:0:0:
256,192,120262,1,8,0:0:0:0:
256,192,120341,1,0,0:0:0:0:
256,192,120420,1,8,0:0:0:0:
256,192,120499,1,0,0:0:0:0:
256,192,120657,1,0,0:0:0:0:
256,192,120814,1,0,0:0:0:0:
256,192,120854,1,0,0:0:0:0:
256,192,120893,1,0,0:0:0:0:
256,192,120933,1,0,0:0:0:0:
256,192,120972,1,8,0:0:0:0:
256,192,121130,1,0,0:0:0:0:
256,192,121288,5,0,0:0:0:0:
256,192,121367,1,0,0:0:0:0:
256,192,121446,1,0,0:0:0:0:
256,192,121525,1,0,0:0:0:0:
256,192,121604,1,8,0:0:0:0:
256,192,121762,1,8,0:0:0:0:
256,192,121841,1,0,0:0:0:0:
256,192,121920,1,0,0:0:0:0:
256,192,122078,1,8,0:0:0:0:
256,192,122236,1,0,0:0:0:0:
256,192,122315,1,8,0:0:0:0:
256,192,122394,1,8,0:0:0:0:
256,192,122552,1,0,0:0:0:0:
256,192,122710,1,8,0:0:0:0:
256,192,122867,1,12,0:0:0:0:
256,192,123025,1,12,0:0:0:0:
256,192,123183,1,12,0:0:0:0:
256,192,123499,1,0,0:0:0:0:
256,192,123538,1,0,0:0:0:0:
256,192,123578,1,0,0:0:0:0:
256,192,123617,1,0,0:0:0:0:
256,192,123657,1,0,0:0:0:0:
256,192,123815,1,8,0:0:0:0:
256,192,123973,1,8,0:0:0:0:
256,192,124131,1,0,0:0:0:0:
256,192,124170,1,0,0:0:0:0:
256,192,124210,1,0,0:0:0:0:
256,192,124249,1,0,0:0:0:0:
256,192,124288,1,0,0:0:0:0:
256,192,124446,1,8,0:0:0:0:
256,192,124552,1,8,0:0:0:0:
256,192,124657,1,8,0:0:0:0:
256,192,124762,1,0,0:0:0:0:
256,192,124867,1,0,0:0:0:0:
256,192,124973,1,8,0:0:0:0:
256,192,125078,1,8,0:0:0:0:
256,192,125236,1,8,0:0:0:0:
256,192,125393,1,8,0:0:0:0:
256,192,125552,1,8,0:0:0:0:
256,192,125788,1,8,0:0:0:0:
256,192,126025,1,8,0:0:0:0:
256,192,126183,1,8,0:0:0:0:
256,192,126341,1,8,0:0:0:0:
256,192,126420,1,8,0:0:0:0:
256,192,126499,1,8,0:0:0:0:
256,192,126578,1,8,0:0:0:0:
256,192,126657,1,8,0:0:0:0:
256,192,126815,1,8,0:0:0:0:
256,192,126973,1,0,0:0:0:0:
256,192,127210,1,8,0:0:0:0:
256,192,127446,1,8,0:0:0:0:
256,192,127604,1,8,0:0:0:0:
256,192,127920,1,0,0:0:0:0:
256,192,128078,1,0,0:0:0:0:
256,192,128157,1,8,0:0:0:0:
256,192,128236,1,8,0:0:0:0:
256,192,128394,1,8,0:0:0:0:
256,192,128552,1,8,0:0:0:0:
256,192,128867,1,8,0:0:0:0:
256,192,129025,1,8,0:0:0:0:
256,192,129183,1,0,0:0:0:0:
256,192,129341,1,8,0:0:0:0:
256,192,129499,1,8,0:0:0:0:
256,192,129815,1,8,0:0:0:0:
256,192,129973,1,8,0:0:0:0:
256,192,130289,1,0,0:0:0:0:
256,192,130446,1,0,0:0:0:0:
256,192,130604,1,8,0:0:0:0:
256,192,130644,1,8,0:0:0:0:
256,192,130683,1,8,0:0:0:0:
256,192,130723,1,8,0:0:0:0:
256,192,130762,1,8,0:0:0:0:
256,192,130920,1,0,0:0:0:0:
256,192,131078,1,0,0:0:0:0:
256,192,131236,1,8,0:0:0:0:
256,192,131394,1,0,0:0:0:0:
256,192,131552,1,0,0:0:0:0:
256,192,131591,1,0,0:0:0:0:
256,192,131631,1,0,0:0:0:0:
256,192,131670,1,0,0:0:0:0:
256,192,131710,1,8,0:0:0:0:
256,192,131867,1,0,0:0:0:0:
256,192,132025,1,0,0:0:0:0:
256,192,132065,1,0,0:0:0:0:
256,192,132104,1,0,0:0:0:0:
256,192,132144,1,0,0:0:0:0:
256,192,132183,1,0,0:0:0:0:
256,192,132223,1,0,0:0:0:0:
256,192,132262,1,0,0:0:0:0:
256,192,132341,1,8,0:0:0:0:
256,192,132578,1,8,0:0:0:0:
256,192,132815,1,8,0:0:0:0:
256,192,133052,1,8,0:0:0:0:
256,192,133289,1,0,0:0:0:0:
256,192,133525,1,8,0:0:0:0:
256,192,133762,1,8,0:0:0:0:
256,192,133920,1,0,0:0:0:0:
256,192,133973,1,0,0:0:0:0:
256,192,134025,1,0,0:0:0:0:
256,192,134078,1,0,0:0:0:0:
256,192,134131,1,0,0:0:0:0:
256,192,134183,1,0,0:0:0:0:
256,192,134236,1,8,0:0:0:0:
256,192,134289,1,8,0:0:0:0:
256,192,134341,1,8,0:0:0:0:
256,192,134394,1,8,0:0:0:0:
256,192,134499,1,8,0:0:0:0:
256,192,134604,1,8,0:0:0:0:
256,192,134710,1,8,0:0:0:0:
256,192,134867,1,8,0:0:0:0:
256,192,135078,1,8,0:0:0:0:
256,192,135183,1,8,0:0:0:0:
256,192,135499,1,8,0:0:0:0:
256,192,135736,1,0,0:0:0:0:
256,192,135814,1,8,0:0:0:0:
256,192,135972,5,0,0:0:0:0:
256,192,136130,1,8,0:0:0:0:
256,192,136288,1,8,0:0:0:0:
256,192,136446,1,0,0:0:0:0:
256,192,136604,1,0,0:0:0:0:
256,192,136762,1,8,0:0:0:0:
256,192,136841,1,8,0:0:0:0:
256,192,136920,1,0,0:0:0:0:
256,192,137078,1,8,0:0:0:0:
256,192,137236,1,0,0:0:0:0:
256,192,137315,1,0,0:0:0:0:
256,192,137394,1,8,0:0:0:0:
256,192,137473,1,8,0:0:0:0:
256,192,137552,1,0,0:0:0:0:
256,192,137631,1,0,0:0:0:0:
256,192,137710,1,0,0:0:0:0:
256,192,137868,1,0,0:0:0:0:
256,192,138026,1,8,0:0:0:0:
256,192,138065,1,8,0:0:0:0:
256,192,138105,1,8,0:0:0:0:
256,192,138144,1,8,0:0:0:0:
256,192,138184,1,8,0:0:0:0:
256,192,138342,1,0,0:0:0:0:
256,192,138500,1,8,0:0:0:0:
256,192,138657,1,8,0:0:0:0:
256,192,138815,1,8,0:0:0:0:
256,192,138973,1,0,0:0:0:0:
256,192,139092,1,0,0:0:0:0:
256,192,139210,1,0,0:0:0:0:
256,192,139329,1,0,0:0:0:0:
256,192,139447,1,8,0:0:0:0:
256,192,139565,1,8,0:0:0:0:
256,192,139684,1,8,0:0:0:0:
256,192,139802,1,8,0:0:0:0:
256,192,139920,12,8,140393,0:0:0:0:
256,192,140551,5,0,0:0:0:0:
256,192,140630,1,0,0:0:0:0:
256,192,140709,1,0,0:0:0:0:
256,192,140788,1,0,0:0:0:0:
256,192,140867,1,8,0:0:0:0:
256,192,140972,1,8,0:0:0:0:
256,192,141078,1,8,0:0:0:0:
256,192,141183,1,8,0:0:0:0:
256,192,141288,1,8,0:0:0:0:
256,192,141393,1,8,0:0:0:0:
256,192,141499,1,0,0:0:0:0:
256,192,141578,1,0,0:0:0:0:
256,192,141657,1,0,0:0:0:0:
256,192,141736,1,0,0:0:0:0:
256,192,141814,1,8,0:0:0:0:
256,192,141972,1,8,0:0:0:0:
256,192,142051,1,0,0:0:0:0:
256,192,142130,1,0,0:0:0:0:
256,192,142288,1,8,0:0:0:0:
256,192,142446,1,8,0:0:0:0:
256,192,142525,1,0,0:0:0:0:
256,192,142604,1,0,0:0:0:0:
256,192,142762,1,0,0:0:0:0:
256,192,142920,1,8,0:0:0:0:
256,192,143078,1,8,0:0:0:0:
256,192,143236,1,8,0:0:0:0:
256,192,143393,1,8,0:0:0:0:
256,192,143709,1,0,0:0:0:0:
256,192,143749,1,0,0:0:0:0:
256,192,143788,1,0,0:0:0:0:
256,192,143828,1,0,0:0:0:0:
256,192,143867,1,0,0:0:0:0:
256,192,144025,1,8,0:0:0:0:
256,192,144183,1,8,0:0:0:0:
256,192,144341,1,0,0:0:0:0:
256,192,144380,1,0,0:0:0:0:
256,192,144420,1,0,0:0:0:0:
256,192,144459,1,0,0:0:0:0:
256,192,144499,1,0,0:0:0:0:
256,192,144657,1,0,0:0:0:0:
256,192,144762,1,0,0:0:0:0:
256,192,144867,1,0,0:0:0:0:
256,192,144972,1,8,0:0:0:0:
256,192,145078,1,8,0:0:0:0:
256,192,145183,1,8,0:0:0:0:
256,192,145288,1,8,0:0:0:0:
256,192,145446,1,8,0:0:0:0:
256,192,145762,1,0,0:0:0:0:
256,192,145999,1,0,0:0:0:0:
256,192,146236,1,8,0:0:0:0:
256,192,146551,1,8,0:0:0:0:
256,192,146630,1,8,0:0:0:0:
256,192,146709,1,8,0:0:0:0:
256,192,146788,1,8,0:0:0:0:
256,192,146867,1,0,0:0:0:0:
256,192,147025,1,0,0:0:0:0:
256,192,147183,1,8,0:0:0:0:
256,192,147420,1,8,0:0:0:0:
256,192,147657,1,8,0:0:0:0:
256,192,147814,1,0,0:0:0:0:
256,192,148130,1,8,0:0:0:0:
256,192,148288,1,0,0:0:0:0:
256,192,148367,1,0,0:0:0:0:
256,192,148446,1,8,0:0:0:0:
256,192,148604,1,8,0:0:0:0:
256,192,148762,1,8,0:0:0:0:
256,192,149078,1,8,0:0:0:0:
256,192,149236,1,8,0:0:0:0:
256,192,149393,1,0,0:0:0:0:
256,192,149551,1,8,0:0:0:0:
256,192,149709,1,8,0:0:0:0:
256,192,150025,1,8,0:0:0:0:
256,192,150183,1,8,0:0:0:0:
256,192,150499,1,0,0:0:0:0:
256,192,150657,1,0,0:0:0:0:
256,192,150814,1,8,0:0:0:0:
256,192,150854,1,8,0:0:0:0:
256,192,150893,1,8,0:0:0:0:
256,192,150933,1,8,0:0:0:0:
256,192,150972,1,8,0:0:0:0:
256,192,151130,1,0,0:0:0:0:
256,192,151288,1,0,0:0:0:0:
256,192,151762,1,0,0:0:0:0:
256,192,151801,1,0,0:0:0:0:
256,192,151841,1,0,0:0:0:0:
256,192,151880,1,0,0:0:0:0:
256,192,151920,1,8,0:0:0:0:
256,192,152077,1,0,0:0:0:0:
256,192,152235,1,0,0:0:0:0:
256,192,152275,1,0,0:0:0:0:
256,192,152314,1,0,0:0:0:0:
256,192,152354,1,0,0:0:0:0:
256,192,152393,1,0,0:0:0:0:
256,192,152433,1,0,0:0:0:0:
256,192,152472,1,0,0:0:0:0:
256,192,152551,1,8,0:0:0:0:
256,192,152788,1,8,0:0:0:0:
256,192,153025,1,8,0:0:0:0:
256,192,153262,1,8,0:0:0:0:
256,192,153499,1,0,0:0:0:0:
256,192,153735,1,8,0:0:0:0:
256,192,153972,1,8,0:0:0:0:
256,192,154130,1,0,0:0:0:0:
256,192,154183,1,0,0:0:0:0:
256,192,154235,1,0,0:0:0:0:
256,192,154288,1,0,0:0:0:0:
256,192,154341,1,0,0:0:0:0:
256,192,154393,1,0,0:0:0:0:
256,192,154446,1,8,0:0:0:0:
256,192,154499,1,8,0:0:0:0:
256,192,154551,1,8,0:0:0:0:
256,192,154604,1,8,0:0:0:0:
256,192,154709,1,8,0:0:0:0:
256,192,154814,1,8,0:0:0:0:
256,192,154920,1,8,0:0:0:0:
256,192,155077,1,8,0:0:0:0:
256,192,155288,1,8,0:0:0:0:
256,192,155393,1,8,0:0:0:0:
256,192,155709,1,8,0:0:0:0:
256,192,155946,1,0,0:0:0:0:
256,192,156024,1,8,0:0:0:0:
256,192,156182,5,0,0:0:0:0:
256,192,156340,1,8,0:0:0:0:
256,192,156498,1,8,0:0:0:0:
256,192,156656,1,0,0:0:0:0:
256,192,156814,1,0,0:0:0:0:
256,192,156972,1,8,0:0:0:0:
256,192,157051,1,8,0:0:0:0:
256,192,157130,1,0,0:0:0:0:
256,192,157288,1,8,0:0:0:0:
256,192,157446,1,0,0:0:0:0:
256,192,157525,1,0,0:0:0:0:
256,192,157604,1,0,0:0:0:0:
256,192,157683,1,0,0:0:0:0:
256,192,157762,1,0,0:0:0:0:
256,192,157841,1,0,0:0:0:0:
256,192,157920,1,8,0:0:0:0:
256,192,158078,1,8,0:0:0:0:
256,192,158236,1,8,0:0:0:0:
256,192,158275,1,8,0:0:0:0:
256,192,158314,1,8,0:0:0:0:
256,192,158354,1,8,0:0:0:0:
256,192,158393,1,8,0:0:0:0:
256,192,158551,1,0,0:0:0:0:
256,192,158709,1,8,0:0:0:0:
256,192,158867,1,0,0:0:0:0:
256,192,159025,1,8,0:0:0:0:
256,192,159183,1,8,0:0:0:0:
256,192,159301,1,8,0:0:0:0:
256,192,159420,1,8,0:0:0:0:
256,192,159538,1,8,0:0:0:0:
256,192,159656,1,0,0:0:0:0:
256,192,159775,1,0,0:0:0:0:
256,192,159893,1,0,0:0:0:0:
256,192,160012,1,0,0:0:0:0:
256,192,160130,12,0,160762,0:0:0:0:
256,192,161078,5,8,0:0:0:0:
256,192,161183,1,8,0:0:0:0:
256,192,161288,1,8,0:0:0:0:
256,192,161393,1,8,0:0:0:0:
256,192,161499,1,8,0:0:0:0:
256,192,161604,1,8,0:0:0:0:
256,192,161709,1,4,0:0:0:0:
