osu file format v14

[General]
AudioFilename: audio.mp3
AudioLeadIn: 0
PreviewTime: 191439
Countdown: 0
SampleSet: None
StackLeniency: 0.3
Mode: 0
LetterboxInBreaks: 0
WidescreenStoryboard: 1

[Editor]
Bookmarks: 38787,75000,116363,145454,146060,146666,147272,147878,148484,149090,149696,150303,150909,151515,152121,152727,153333,153939,154545,155151,189090,189696,190303,190909,191515,192121,192727,193333,193939
DistanceSpacing: 0.4
BeatDivisor: 4
GridSize: 16
TimelineZoom: 1.7

[Metadata]
Title:messages from nowhere
TitleUnicode:messages from nowhere
Artist:deadmau5
ArtistUnicode:deadmau5
Creator:squirrelpascals
Version:call of the void
Source:
Tags:stuff i used to do mau5trap progressive house
BeatmapID:1346092
BeatmapSetID:616605

[Difficulty]
HPDrainRate:6
CircleSize:4
OverallDifficulty:8.5
ApproachRate:9
SliderMultiplier:2.8
SliderTickRate:1

[Events]
//Background and Video events
0,0,"journey.jpg",0,0
//Break Periods
//Storyboard Layer 0 (Background)
//Storyboard Layer 1 (Fail)
//Storyboard Layer 2 (Pass)
//Storyboard Layer 3 (Foreground)
//Storyboard Sound Samples

[TimingPoints]
0,606.060606060606,4,2,4,35,1,0
4090,-100,4,2,4,5,0,0
4393,-500,4,2,4,35,0,0
9393,-66.6666666666667,4,2,4,75,0,0
9545,-200,4,2,4,35,0,0
14090,-200,4,2,4,5,0,0
14393,-500,4,2,4,35,0,0
19090,-66.6666666666667,4,2,4,75,0,0
19242,-200,4,2,4,35,0,0
23939,-200,4,2,4,50,0,0
24848,-200,4,2,4,35,0,0
25151,-200,4,2,4,20,0,0
25454,-200,4,2,4,35,0,0
25757,-200,4,2,4,50,0,0
27727,-200,4,2,4,35,0,0
28787,-66.6666666666667,4,2,4,75,0,0
28939,-200,4,2,4,20,0,0
33939,-200,4,2,4,35,0,0
34393,-200,4,2,4,50,0,0
35303,-200,4,2,4,75,0,0
35606,-200,4,2,4,50,0,0
36363,-200,4,2,4,35,0,0
36666,-200,4,2,4,50,0,0
36818,-200,4,2,4,35,0,0
36969,-200,4,2,4,50,0,0
37121,-200,4,2,4,20,0,0
37272,-200,4,2,4,50,0,0
37424,-200,4,2,4,35,0,0
37727,-200,4,2,4,50,0,0
38333,-66.6666666666667,4,2,3,100,0,0
38560,-66.6666666666667,4,2,3,5,0,0
38636,-66.6666666666667,4,2,3,100,0,0
38712,-66.6666666666667,4,2,3,5,0,0
38787,-100,4,3,2,100,0,0
39090,-100,4,3,1,100,0,0
39393,-100,4,3,2,50,0,0
39545,-100,4,3,1,100,0,0
46060,-100,4,2,3,100,0,0
46515,-100,4,3,1,100,0,0
48181,-50,4,2,4,100,0,0
48484,-100,4,3,1,100,0,0
55757,-100,4,2,3,100,0,0
56212,-100,4,3,1,100,0,0
57878,-50,4,2,4,100,0,0
58181,-100,4,3,2,100,0,0
58636,-100,4,3,1,100,0,0
58787,-100,4,3,2,50,0,0
58939,-100,4,3,1,100,0,0
65454,-100,4,2,3,100,0,0
65909,-100,4,3,1,100,0,0
67575,-50,4,2,4,100,0,0
67878,-100,4,3,1,100,0,0
75151,-100,4,2,3,100,0,0
75454,-133.333333333333,4,2,3,100,0,0
75606,-133.333333333333,4,3,1,100,0,0
76363,-500,4,3,1,50,0,0
77121,-133.333333333333,4,3,1,5,0,0
77272,-50,4,2,4,100,0,0
77575,-100,4,3,2,100,0,0
77878,-100,4,3,1,100,0,0
78181,-100,4,3,2,50,0,0
78333,-100,4,3,1,100,0,0
84848,-100,4,2,3,100,0,0
85303,-100,4,3,1,100,0,0
86969,-50,4,2,4,100,0,0
87272,-100,4,3,1,100,0,0
94545,-100,4,2,3,100,0,0
94999,-100,4,3,1,100,0,0
96666,-50,4,2,4,100,0,0
96969,-100,4,3,2,100,0,0
97424,-100,4,3,1,100,0,0
97575,-100,4,3,2,50,0,0
97724,-100,4,3,1,100,0,0
104242,-100,4,2,3,100,0,0
104696,-100,4,3,1,100,0,0
106363,-50,4,2,4,100,0,0
106666,-100,4,3,1,100,0,0
113939,-100,4,2,3,100,0,0
114393,-100,4,3,1,100,0,0
116060,-50,4,2,4,100,0,0
116363,-100,4,2,6,100,0,0
116666,-100,4,2,5,100,0,0
116969,-100,4,2,6,50,0,0
117121,-100,4,2,5,100,0,0
120227,-100,4,2,5,5,0,0
120303,-100,4,2,5,100,0,0
123636,-100,4,2,3,100,0,0
124242,-100,4,2,5,100,0,0
125075,-100,4,2,5,5,0,0
125151,-100,4,2,5,100,0,0
133333,-100,4,2,3,100,0,0
133939,-100,4,2,5,100,0,0
134772,-100,4,2,5,75,0,0
134848,-100,4,2,5,100,0,0
135757,-100,4,2,6,100,0,0
136363,-100,4,2,6,50,0,0
136515,-100,4,2,5,100,0,0
143030,-100,4,2,3,100,0,0
143636,-100,4,2,5,100,0,0
145454,-133.333333333333,4,2,7,100,0,0
150303,-111.111111111111,4,2,7,100,0,0
152727,-222.222222222222,4,2,7,100,0,0
154999,-222.222222222222,4,2,7,5,0,0
155151,-83.3333333333333,4,3,2,100,0,0
155454,-83.3333333333333,4,2,7,100,0,0
155606,-83.3333333333333,4,3,1,100,0,0
155757,-83.3333333333333,4,3,2,50,0,0
155909,-83.3333333333333,4,3,1,100,0,0
162424,-83.3333333333333,4,2,3,100,0,0
163030,-83.3333333333333,4,3,1,100,0,0
164545,-50,4,2,4,100,0,0
164848,-83.3333333333333,4,3,1,100,0,0
172121,-83.3333333333333,4,2,3,100,0,0
172727,-83.3333333333333,4,3,1,100,0,0
174242,-50,4,2,4,100,0,0
174545,-83.3333333333333,4,3,1,100,0,0
181818,-83.3333333333333,4,2,3,100,0,0
182424,-83.3333333333333,4,3,1,100,0,0
183939,-50,4,2,4,100,0,0
184242,-83.3333333333333,4,3,1,100,0,0
188636,-133.333333333333,4,3,1,100,0,0
189090,-133.333333333333,4,2,7,100,0,0
191666,-100,4,2,7,100,0,0
193939,-66.6666666666667,4,3,2,100,0,1
194242,-66.6666666666667,4,3,1,100,0,1
194545,-66.6666666666667,4,3,2,50,0,1
194696,-66.6666666666667,4,3,1,100,0,1
201212,-66.6666666666667,4,2,3,100,0,1
201818,-66.6666666666667,4,3,1,100,0,1
203333,-50,4,2,4,100,0,1
203636,-66.6666666666667,4,3,1,100,0,1
210909,-66.6666666666667,4,2,3,100,0,1
211515,-66.6666666666667,4,3,1,100,0,1
213030,-50,4,2,4,100,0,1
213333,-100,4,3,2,100,0,0
213939,-100,4,3,2,50,0,0
214090,-100,4,3,1,100,0,0
220606,-100,4,2,3,100,0,0
221060,-100,4,3,1,100,0,0
222727,-50,4,2,4,100,0,0
223030,-100,4,3,1,100,0,0
230303,-100,4,2,3,100,0,0
230757,-100,4,3,1,100,0,0
232424,-50,4,2,4,100,0,0
232727,-100,4,3,2,100,0,0
233333,-100,4,3,2,50,0,0
233484,-100,4,3,1,100,0,0
252121,-100,4,3,2,100,0,0
252424,-100,4,3,1,100,0,0
252727,-100,4,3,2,50,0,0
252878,-100,4,3,1,100,0,0
271515,-100,4,2,6,100,0,0
271818,-100,4,2,5,100,0,0
272121,-100,4,2,6,50,0,0
272272,-100,4,2,5,100,0,0
290151,-100,4,3,1,100,0,0
290606,-50,4,2,4,100,0,0
292121,-50,4,2,4,90,0,0
293333,-50,4,2,4,80,0,0
294545,-50,4,2,4,70,0,0
295757,-50,4,2,4,60,0,0
296969,-50,4,2,4,50,0,0
298181,-50,4,2,4,30,0,0
299393,-50,4,2,4,10,0,0
300606,-50,4,3,1,5,0,0

[Colours]
Combo1 : 241,35,51
Combo2 : 188,80,61
Combo3 : 200,190,176
Combo4 : 216,185,80
Combo5 : 113,130,118

[HitObjects]
256,192,606,12,0,4090,0:0:0:0:
408,306,4393,6,0,B|394:280|368:273|339:283|339:283|343:269|359:259|361:231|361:231|299:232|237:255|221:291|221:291|246:324|297:335|334:317,1,420
340,196,9393,54,0,P|314:162|318:202,1,105.000004005432,4|0,0:0|0:0,0:0:0:0:
256,192,9696,12,0,14090,0:0:0:0:
83,115,14393,38,0,B|110:77|110:77|91:170|143:136|127:214|127:214|115:262|86:274|86:274|70:198|155:192,1,392
150,40,19090,22,0,P|122:9|123:50,1,105.000004005432,4|0,0:0|0:0,0:0:0:0:
256,192,19393,12,8,23939,0:0:0:0:
99,192,24242,5,0,0:0:0:0:
113,175,24393,1,0,0:0:0:0:
128,159,24545,2,0,L|180:154,1,35,2|0,0:0|0:0,0:0:0:0:
230,214,24848,6,0,L|264:217,1,35,2|0,0:0|0:0,0:0:0:0:
344,125,25151,2,0,L|340:159,1,35,2|0,0:0|0:0,0:0:0:0:
442,226,25454,5,8,0:0:0:0:
443,208,25606,1,0,0:0:0:0:
423,181,25757,2,0,L|430:107,2,70,0|8|0,0:0|0:0|0:0,0:0:0:0:
317,289,26666,6,0,P|283:285|243:296,2,70,0|8|0,0:0|0:0|0:0,0:0:0:0:
330,299,27424,1,0,0:0:0:0:
339,332,27575,2,0,P|360:347|384:353,1,35,8|2,0:0|0:0,0:0:0:0:
223,52,28181,21,0,0:0:0:0:
407,93,28484,1,8,0:0:0:0:
53,200,28787,54,0,P|12:194|45:170,1,105.000004005432,4|0,0:0|0:0,0:0:0:0:
256,192,29090,12,0,33636,0:0:0:0:
417,268,33939,22,0,P|438:224|444:194,1,70,2|0,0:0|0:0,0:0:0:0:
444,182,34393,2,0,P|428:150|406:123,1,70,8|2,0:0|0:0,0:0:0:0:
306,284,35000,54,0,L|251:302,1,35,8|0,0:0|0:0,0:0:0:0:
198,223,35303,2,0,L|208:169,1,35,8|0,0:0|0:0,0:0:0:0:
120,291,35606,2,0,L|78:285,1,35,8|0,0:0|0:0,0:0:0:0:
65,149,35909,1,0,0:0:0:0:
54,162,36060,38,0,L|47:196,1,35,2|0,0:0|0:0,0:0:0:0:
129,38,36363,2,0,L|100:57,1,35,2|0,0:0|0:0,0:0:0:0:
272,34,36666,1,8,0:0:0:0:
242,52,36818,1,8,0:0:0:0:
292,111,36969,1,8,0:0:0:0:
262,129,37121,1,8,0:0:0:0:
318,190,37272,1,8,0:0:0:0:
288,208,37424,2,0,L|280:251,1,35,0|0,0:0|0:0,0:0:0:0:
183,325,37727,54,0,L|86:333,1,70,2|2,0:0|0:0,0:0:0:0:
389,206,38333,21,2,0:0:0:0:
390,220,38409,1,2,0:0:0:0:
393,237,38484,2,0,B|395:266|395:266|377:294,1,52.5000020027161,2|0,0:0|0:0,0:0:0:0:
113,176,38636,2,0,B|111:147|111:147|129:119,1,52.5000020027161,2|0,0:0|0:0,0:0:0:0:
244,224,38787,6,0,P|340:216|404:168,1,140,6|8,0:0|0:0,0:0:0:0:
244,224,39242,1,2,0:0:0:0:
304,100,39393,2,0,L|316:0,1,70,12|0,0:0|0:0,0:0:0:0:
124,128,39696,2,0,L|224:140,1,70,10|0,0:0|0:0,0:0:0:0:
372,192,40000,6,0,L|363:261,1,70,8|0,0:0|0:0,0:0:0:0:
185,320,40303,2,0,L|254:311,1,70,10|0,0:0|0:0,0:0:0:0:
401,99,40606,1,12,0:0:0:0:
372,192,40757,2,0,P|307:166|226:163,1,140,2|0,0:0|0:0,0:0:0:0:
90,242,41212,6,0,L|112:77,1,140,10|8,0:0|0:0,0:0:0:0:
90,242,41666,1,2,0:0:0:0:
181,24,41818,2,0,L|273:37,1,70,12|0,0:0|0:0,0:0:0:0:
213,137,42121,2,0,L|282:127,1,70,10|0,0:0|0:0,0:0:0:0:
234,240,42424,6,0,L|326:253,1,70,8|0,0:0|0:0,0:0:0:0:
266,353,42727,2,0,L|335:343,1,70,10|0,0:0|0:0,0:0:0:0:
385,198,43030,1,12,0:0:0:0:
303,249,43181,2,0,L|115:223,1,140,2|0,0:0|0:0,0:0:0:0:
251,21,43636,22,0,L|270:159,1,140,10|8,0:0|0:0,0:0:0:0:
251,21,44090,1,2,0:0:0:0:
174,117,44242,2,0,L|105:107,1,70,12|0,0:0|0:0,0:0:0:0:
345,92,44545,2,0,L|415:64,1,70,10|0,0:0|0:0,0:0:0:0:
190,234,44848,6,0,L|120:223,1,70,8|0,0:0|0:0,0:0:0:0:
360,208,45151,2,0,L|430:180,1,70,10|0,0:0|0:0,0:0:0:0:
190,234,45454,1,12,0:0:0:0:
161,328,45606,2,0,L|310:306,1,140,2|0,0:0|0:0,0:0:0:0:
315,109,46060,5,2,0:0:0:0:
200,81,46212,1,8,0:0:0:0:
292,134,46363,2,0,L|285:213,1,70,4|2,0:0|0:0,0:0:0:0:
426,332,46666,2,0,P|422:287|448:247,1,70,12|0,0:0|0:0,0:0:0:0:
294,374,46969,2,0,P|305:341|299:306,1,70,10|0,0:0|0:0,0:0:0:0:
175,279,47272,6,0,P|159:236|174:191,1,70,8|0,0:0|0:0,0:0:0:0:
58,353,47575,2,0,P|60:318|45:286,1,70,10|0,0:0|0:0,0:0:0:0:
175,279,47878,1,12,0:0:0:0:
196,168,48030,1,2,0:0:0:0:
218,58,48181,6,0,B|253:38|253:38|228:179,1,140,4|0,0:0|0:0,0:0:0:0:
90,36,48484,6,0,L|103:215,1,140,10|8,0:0|0:0,0:0:0:0:
90,36,48939,1,2,0:0:0:0:
196,168,49090,2,0,L|286:187,1,70,12|0,0:0|0:0,0:0:0:0:
372,70,49393,2,0,L|353:160,1,70,10|0,0:0|0:0,0:0:0:0:
235,303,49696,6,0,L|325:322,1,70,8|0,0:0|0:0,0:0:0:0:
411,205,49999,2,0,L|392:295,1,70,10|0,0:0|0:0,0:0:0:0:
236,302,50303,1,12,0:0:0:0:
225,204,50454,2,0,L|214:64,1,140,2|0,0:0|0:0,0:0:0:0:
11,169,50909,6,0,P|75:207|161:197,1,140,10|8,0:0|0:0,0:0:0:0:
11,169,51363,1,2,0:0:0:0:
174,300,51515,2,0,L|105:309,1,70,12|0,0:0|0:0,0:0:0:0:
217,94,51818,1,10,0:0:0:0:
234,107,51969,6,0,L|224:177,1,70,0|8,0:0|0:0,0:0:0:0:
371,130,52272,2,0,L|383:61,2,70,0|10|0,0:0|0:0|0:0,0:0:0:0:
453,265,52727,1,12,0:0:0:0:
356,283,52878,2,0,L|201:260,1,140,2|0,0:0|0:0,0:0:0:0:
135,64,53333,21,10,0:0:0:0:
155,69,53484,1,0,0:0:0:0:
173,72,53636,2,0,P|180:115|169:154,1,70,8|2,0:0|0:0,0:0:0:0:
103,297,53939,2,0,L|13:278,1,70,12|0,0:0|0:0,0:0:0:0:
217,262,54242,2,0,L|307:243,1,70,10|0,0:0|0:0,0:0:0:0:
174,140,54545,6,0,L|84:121,1,70,8|0,0:0|0:0,0:0:0:0:
288,105,54848,2,0,L|378:86,1,70,10|0,0:0|0:0,0:0:0:0:
166,43,55151,1,12,0:0:0:0:
174,140,55303,2,0,L|180:224,2,70,2|0|0,0:0|0:0|0:0,0:0:0:0:
21,215,55757,5,2,0:0:0:0:
125,259,55909,1,8,0:0:0:0:
14,184,56060,2,0,L|4:110,1,70,4|2,0:0|0:0,0:0:0:0:
109,348,56363,2,0,P|71:361|20:352,1,70,12|0,0:0|0:0,0:0:0:0:
251,370,56666,2,0,P|285:369|318:381,1,70,10|0,0:0|0:0,0:0:0:0:
200,205,56969,6,0,P|162:218|111:209,1,70,8|0,0:0|0:0,0:0:0:0:
342,227,57272,2,0,P|376:226|409:238,1,70,10|0,0:0|0:0,0:0:0:0:
183,94,57575,1,12,0:0:0:0:
200,205,57727,1,2,0:0:0:0:
219,314,57878,6,0,B|115:306|115:306|160:275,1,140,4|0,0:0|0:0,0:0:0:0:
471,126,58181,6,0,L|234:140,1,210,6|2,0:0|0:0,0:0:0:0:
151,208,58787,2,0,L|157:113,1,70,12|0,0:0|0:0,0:0:0:0:
163,40,59090,1,10,0:0:0:0:
342,344,59393,6,0,L|349:230,1,70,8|0,0:0|0:0,0:0:0:0:
245,271,59696,2,0,L|249:201,1,70,10|0,0:0|0:0,0:0:0:0:
342,344,59999,1,12,0:0:0:0:
431,304,60151,2,0,L|440:162,1,140,2|0,0:0|0:0,0:0:0:0:
240,60,60606,6,0,P|290:131|357:149,1,140,10|8,0:0|0:0,0:0:0:0:
240,60,61060,1,2,0:0:0:0:
182,168,61212,2,0,L|94:153,1,70,12|0,0:0|0:0,0:0:0:0:
336,50,61515,2,0,L|424:35,1,70,10|0,0:0|0:0,0:0:0:0:
202,278,61818,6,0,L|114:263,1,70,8|0,0:0|0:0,0:0:0:0:
356,160,62121,2,0,L|444:145,1,70,10|0,0:0|0:0,0:0:0:0:
202,278,62424,1,12,0:0:0:0:
263,353,62575,2,0,L|425:345,1,140,2|0,0:0|0:0,0:0:0:0:
207,119,63030,22,0,P|177:177|202:277,1,140,10|8,0:0|0:0,0:0:0:0:
207,119,63484,1,2,0:0:0:0:
115,28,63636,2,0,L|43:-8,1,70,12|0,0:0|0:0,0:0:0:0:
16,114,63939,2,0,L|105:126,1,70,10|0,0:0|0:0,0:0:0:0:
85,225,64242,6,0,L|15:234,1,70,8|0,0:0|0:0,0:0:0:0:
26,338,64545,2,0,L|94:353,1,70,10|0,0:0|0:0,0:0:0:0:
164,172,64848,1,4,0:0:0:0:
184,177,64999,1,2,0:0:0:0:
204,182,65151,2,0,L|189:250,1,70,8|0,0:0|0:0,0:0:0:0:
238,29,65454,5,2,0:0:0:0:
128,53,65606,1,8,0:0:0:0:
249,58,65757,2,0,L|339:81,1,70,4|2,0:0|0:0,0:0:0:0:
406,211,66060,2,0,L|423:120,1,70,12|0,0:0|0:0,0:0:0:0:
216,244,66363,2,0,L|187:150,1,70,10|0,0:0|0:0,0:0:0:0:
320,323,66666,6,0,L|337:232,1,70,8|0,0:0|0:0,0:0:0:0:
130,356,66969,2,0,L|101:262,1,70,10|0,0:0|0:0,0:0:0:0:
332,254,67272,1,12,0:0:0:0:
229,207,67424,1,2,0:0:0:0:
127,161,67575,6,0,B|95:144|80:112|80:112|98:188,1,140,4|0,0:0|0:0,0:0:0:0:
257,185,67878,6,0,L|416:175,1,140,10|8,0:0|0:0,0:0:0:0:
257,185,68333,1,2,0:0:0:0:
405,72,68484,2,0,P|410:38|399:-1,1,70,12|0,0:0|0:0,0:0:0:0:
242,73,68787,2,0,P|233:39|238:4,1,70,10|0,0:0|0:0,0:0:0:0:
327,215,69090,6,0,P|332:181|321:142,1,70,8|0,0:0|0:0,0:0:0:0:
164,216,69393,2,0,P|155:182|160:147,1,70,10|0,0:0|0:0,0:0:0:0:
302,311,69696,1,12,0:0:0:0:
327,215,69848,2,0,L|485:206,1,140,2|0,0:0|0:0,0:0:0:0:
234,180,70303,6,0,P|170:210|84:183,1,140,10|8,0:0|0:0,0:0:0:0:
234,180,70757,1,2,0:0:0:0:
151,96,70909,2,0,L|67:80,1,70,12|0,0:0|0:0,0:0:0:0:
177,239,71212,2,0,L|163:307,1,70,10|0,0:0|0:0,0:0:0:0:
323,63,71515,6,0,L|239:47,1,70,8|0,0:0|0:0,0:0:0:0:
349,206,71818,2,0,L|335:274,1,70,10|0,0:0|0:0,0:0:0:0:
412,22,72121,1,12,0:0:0:0:
323,63,72272,2,0,P|247:50|167:56,1,140,2|0,0:0|0:0,0:0:0:0:
42,184,72727,22,0,L|193:196,1,140,10|8,0:0|0:0,0:0:0:0:
42,184,73181,1,2,0:0:0:0:
192,292,73333,2,0,L|197:222,1,70,12|0,0:0|0:0,0:0:0:0:
269,52,73636,2,0,L|263:121,1,70,10|0,0:0|0:0,0:0:0:0:
324,339,73939,6,0,L|329:269,1,70,8|0,0:0|0:0,0:0:0:0:
401,99,74242,2,0,L|395:168,1,70,10|0,0:0|0:0,0:0:0:0:
192,292,74545,5,12,0:0:0:0:
239,303,74696,1,10,0:0:0:0:
288,297,74848,1,8,0:0:0:0:
328,269,75000,1,8,0:0:0:0:
333,220,75151,53,2,0:0:0:0:
262,139,75303,1,8,0:0:0:0:
296,229,75454,2,0,L|225:224,1,52.5000020027161,4|2,0:0|0:0,0:0:0:0:
135,46,75757,2,0,L|141:160,1,105.000004005432,12|2,0:0|0:0,0:0:0:0:
177,342,76363,6,0,L|252:335,1,70,8|0,0:0|0:0,0:0:0:0:
177,342,77272,22,0,B|12:358,1,140,4|0,0:0|0:0,0:0:0:0:
358,85,77575,6,0,B|334:166|404:143|377:234,1,140,6|8,0:0|0:0,0:0:0:0:
305,280,78030,1,2,0:0:0:0:
358,85,78181,2,0,P|392:70|453:73,1,70,12|0,0:0|0:0,0:0:0:0:
218,125,78484,2,0,P|184:110|123:113,1,70,10|0,0:0|0:0,0:0:0:0:
165,291,78787,6,0,L|318:278,1,140,8|10,0:0|0:0,0:0:0:0:
84,316,79242,2,0,L|248:325,1,140,0|2,0:0|0:0,0:0:0:0:
0,344,79696,2,0,L|96:363,1,70,12|0,0:0|0:0,0:0:0:0:
115,158,80000,6,0,P|189:138|269:165,1,140,10|8,0:0|0:0,0:0:0:0:
265,250,80454,1,2,0:0:0:0:
123,88,80606,2,0,L|115:158,1,70,12|0,0:0|0:0,0:0:0:0:
295,52,80909,1,10,0:0:0:0:
290,19,81060,1,0,0:0:0:0:
345,213,81212,6,0,L|324:60,1,140,8|10,0:0|0:0,0:0:0:0:
374,292,81667,2,0,L|394:141,1,140,0|2,0:0|0:0,0:0:0:0:
415,371,82121,2,0,L|404:294,1,70,8|0,0:0|0:0,0:0:0:0:
255,336,82424,22,0,B|180:358|203:288|122:312,1,140,10|8,0:0|0:0,0:0:0:0:
29,331,82878,1,2,0:0:0:0:
255,336,83030,2,0,P|288:320|366:318,1,70,12|0,0:0|0:0,0:0:0:0:
177,190,83333,2,0,P|145:175|66:172,1,70,10|0,0:0|0:0,0:0:0:0:
364,151,83636,6,0,L|516:130,1,140,8|10,0:0|0:0,0:0:0:0:
298,208,84090,2,0,L|450:187,1,140,0|2,0:0|0:0,0:0:0:0:
232,265,84545,2,0,L|308:254,1,70,8|0,0:0|0:0,0:0:0:0:
242,12,84848,5,2,0:0:0:0:
115,31,84999,1,8,0:0:0:0:
227,40,85151,2,0,L|236:131,1,70,4|2,0:0|0:0,0:0:0:0:
264,291,85454,2,0,L|270:221,1,70,12|0,0:0|0:0,0:0:0:0:
154,239,85757,2,0,L|84:232,1,70,10|0,0:0|0:0,0:0:0:0:
349,91,86060,6,0,L|418:84,1,70,8|0,0:0|0:0,0:0:0:0:
348,322,86363,1,10,0:0:0:0:
362,224,86515,2,0,B|371:127|371:127|347:88,1,140,8|10,0:0|0:0,0:0:0:0:
398,300,86969,6,0,B|412:143,1,140,4|0,0:0|0:0,0:0:0:0:
228,188,87272,6,0,P|156:179|85:201,1,140,10|8,0:0|0:0,0:0:0:0:
58,289,87727,1,2,0:0:0:0:
228,188,87878,2,0,L|250:92,1,70,12|0,0:0|0:0,0:0:0:0:
262,308,88181,2,0,L|271:377,1,70,10|0,0:0|0:0,0:0:0:0:
423,218,88484,6,0,L|402:65,1,140,8|10,0:0|0:0,0:0:0:0:
343,175,88939,2,0,L|364:22,1,140,0|2,0:0|0:0,0:0:0:0:
261,135,89393,2,0,L|249:51,1,70,8|0,0:0|0:0,0:0:0:0:
159,213,89696,6,0,P|216:256|292:244,1,140,10|8,0:0|0:0,0:0:0:0:
343,175,90151,1,2,0:0:0:0:
159,213,90303,2,0,P|139:250|142:291,1,70,12|0,0:0|0:0,0:0:0:0:
372,87,90606,2,0,P|360:54|335:30,1,70,10|0,0:0|0:0,0:0:0:0:
222,148,90909,6,0,L|201:301,1,140,8|10,0:0|0:0,0:0:0:0:
178,74,91363,2,0,L|157:227,1,140,0|10,0:0|0:0,0:0:0:0:
134,12,91818,2,0,L|124:81,1,70,8|0,0:0|0:0,0:0:0:0:
24,192,92121,22,0,P|10:224|10:258,1,70,10|0,0:0|0:0,0:0:0:0:
130,318,92424,1,8,0:0:0:0:
11,382,92575,1,2,0:0:0:0:
24,192,92727,2,0,P|60:161|112:154,1,70,12|0,0:0|0:0,0:0:0:0:
251,297,93030,2,0,P|215:266|163:259,1,70,10|0,0:0|0:0,0:0:0:0:
358,169,93333,6,0,L|337:16,1,140,8|10,0:0|0:0,0:0:0:0:
387,248,93788,2,0,L|387:83,1,140,0|2,0:0|0:0,0:0:0:0:
419,331,94242,2,0,L|432:233,1,70,8|0,0:0|0:0,0:0:0:0:
298,289,94545,5,2,0:0:0:0:
178,271,94696,1,8,0:0:0:0:
289,260,94848,2,0,L|279:190,1,70,4|2,0:0|0:0,0:0:0:0:
123,54,95151,2,0,L|53:63,1,70,12|0,0:0|0:0,0:0:0:0:
302,97,95454,2,0,L|292:28,1,70,10|0,0:0|0:0,0:0:0:0:
163,169,95757,6,0,L|93:179,1,70,8|0,0:0|0:0,0:0:0:0:
226,269,96060,1,10,0:0:0:0:
324,283,96212,2,0,B|421:292|421:292|460:268,1,140,8|10,0:0|0:0,0:0:0:0:
304,209,96666,6,0,B|285:403,1,140,4|0,0:0|0:0,0:0:0:0:
447,151,96969,6,0,L|267:2,1,210,6|2,0:0|0:0,0:0:0:0:
78,18,97575,2,0,L|151:79,1,70,12|0,0:0|0:0,0:0:0:0:
211,120,97878,1,10,0:0:0:0:
311,313,98181,6,0,L|160:345,1,140,8|10,0:0|0:0,0:0:0:0:
409,302,98636,2,0,L|258:270,1,140,0|10,0:0|0:0,0:0:0:0:
505,282,99090,2,0,L|417:327,1,70,12|0,0:0|0:0,0:0:0:0:
295,189,99393,6,0,B|219:156|233:228|163:196,1,140,10|8,0:0|0:0,0:0:0:0:
91,129,99848,1,2,0:0:0:0:
295,189,99999,2,0,P|334:189|382:161,1,70,12|0,0:0|0:0,0:0:0:0:
162,25,100303,1,10,0:0:0:0:
126,15,100454,1,0,0:0:0:0:
309,88,100606,6,0,L|158:55,1,140,8|10,0:0|0:0,0:0:0:0:
415,130,101060,2,0,L|260:129,1,140,0|10,0:0|0:0,0:0:0:0:
455,73,101515,2,0,L|370:91,1,70,8|0,0:0|0:0,0:0:0:0:
366,238,101818,22,0,L|229:267,1,140,10|8,0:0|0:0,0:0:0:0:
205,362,102272,1,2,0:0:0:0:
366,238,102424,2,0,L|381:132,1,70,12|0,0:0|0:0,0:0:0:0:
138,207,102727,2,0,L|128:276,1,70,10|0,0:0|0:0,0:0:0:0:
255,81,103030,6,0,L|100:91,1,140,8|10,0:0|0:0,0:0:0:0:
334,58,103485,2,0,L|169:46,1,140,0|2,0:0|0:0,0:0:0:0:
420,33,103939,2,0,L|323:13,1,70,8|0,0:0|0:0,0:0:0:0:
376,162,104242,5,2,0:0:0:0:
398,271,104393,1,8,0:0:0:0:
404,143,104545,2,0,L|472:157,1,70,4|2,0:0|0:0,0:0:0:0:
263,189,104848,2,0,L|194:203,1,70,12|0,0:0|0:0,0:0:0:0:
240,334,105151,2,0,L|308:348,1,70,10|0,0:0|0:0,0:0:0:0:
78,227,105454,6,0,L|9:241,1,70,8|0,0:0|0:0,0:0:0:0:
211,59,105757,1,10,0:0:0:0:
204,157,105909,2,0,B|192:253|192:253|161:286,1,140,8|10,0:0|0:0,0:0:0:0:
244,81,106363,6,0,B|260:243,1,140,4|0,0:0|0:0,0:0:0:0:
478,309,106666,6,0,P|415:280|347:294,1,140,10|8,0:0|0:0,0:0:0:0:
298,379,107121,1,2,0:0:0:0:
478,309,107272,2,0,P|489:276|487:241,1,70,12|0,0:0|0:0,0:0:0:0:
319,114,107575,2,0,P|307:146|309:181,1,70,10|0,0:0|0:0,0:0:0:0:
180,306,107878,6,0,L|330:338,1,140,8|10,0:0|0:0,0:0:0:0:
53,314,108333,2,0,L|203:346,1,140,0|10,0:0|0:0,0:0:0:0:
7,269,108787,2,0,L|85:285,1,70,8|0,0:0|0:0,0:0:0:0:
121,146,109090,6,0,L|284:136,1,140,10|8,0:0|0:0,0:0:0:0:
288,43,109545,1,2,0:0:0:0:
121,146,109696,2,0,P|105:184|110:224,1,70,12|0,0:0|0:0,0:0:0:0:
298,300,109999,2,0,P|298:265|283:233,1,70,10|0,0:0|0:0,0:0:0:0:
416,166,110303,6,0,L|427:11,1,140,8|10,0:0|0:0,0:0:0:0:
510,265,110758,2,0,L|427:120,1,140,0|2,0:0|0:0,0:0:0:0:
477,352,111212,2,0,L|483:264,1,70,8|0,0:0|0:0,0:0:0:0:
283,242,111515,22,0,P|211:221|135:246,1,140,10|8,0:0|0:0,0:0:0:0:
94,317,111969,1,2,0:0:0:0:
283,242,112121,2,0,L|401:232,1,70,12|0,0:0|0:0,0:0:0:0:
85,87,112424,2,0,L|90:156,1,70,10|0,0:0|0:0,0:0:0:0:
343,99,112727,6,0,L|188:110,1,140,8|10,0:0|0:0,0:0:0:0:
430,109,113181,2,0,L|277:62,1,140,0|2,0:0|0:0,0:0:0:0:
512,125,113636,2,0,L|434:130,1,70,8|0,0:0|0:0,0:0:0:0:
414,267,113939,5,2,0:0:0:0:
444,374,114090,1,8,0:0:0:0:
381,270,114242,2,0,P|339:267|297:282,1,70,4|2,0:0|0:0,0:0:0:0:
119,261,114545,2,0,P|152:252|187:255,1,70,12|0,0:0|0:0,0:0:0:0:
315,158,114848,2,0,P|273:155|231:170,1,70,10|0,0:0|0:0,0:0:0:0:
53,149,115151,6,0,P|86:140|121:143,1,70,8|0,0:0|0:0,0:0:0:0:
258,27,115454,1,10,0:0:0:0:
251,125,115606,2,0,B|239:221|239:221|208:254,1,140,8|10,0:0|0:0,0:0:0:0:
282,108,116060,6,0,B|343:75|343:75|418:96,1,140,4|0,0:0|0:0,0:0:0:0:
476,357,116363,6,0,L|365:346,1,70,6|0,0:0|0:0,0:0:0:0:
480,232,116666,1,8,0:0:0:0:
321,260,116818,2,0,L|210:249,1,70,2|12,0:0|0:0,0:0:0:0:
497,125,117121,2,0,L|427:117,1,70,0|10,0:0|0:0,0:0:0:0:
321,260,117424,1,0,0:0:0:0:
243,150,117575,6,0,L|173:156,2,70,8|0|10,0:0|0:0|0:0,0:0:0:0:
366,47,118030,2,8,L|297:53,1,70,0|12,0:0|0:0,0:0:0:0:
251,253,118333,2,0,L|97:268,1,140,2|0,0:0|0:0,0:0:0:0:
78,75,118787,6,0,L|71:144,1,70,10|0,0:0|0:0,0:0:0:0:
243,150,119090,1,8,0:0:0:0:
183,260,119242,2,8,L|174:329,1,70,2|12,0:0|0:0,0:0:0:0:
257,51,119545,2,0,L|249:120,1,70,0|10,0:0|0:0,0:0:0:0:
329,293,119848,2,0,L|336:224,1,70,0|8,0:0|0:0,0:0:0:0:
448,69,120151,6,0,L|444:15,1,35
458,166,120303,1,10,0:0:0:0:
469,262,120454,2,0,L|476:331,1,70,0|12,0:0|0:0,0:0:0:0:
220,222,120757,1,2,0:0:0:0:
293,294,120909,2,0,B|305:346|305:346|296:362,1,70,8|0,0:0|0:0,0:0:0:0:
346,31,121212,22,0,L|339:100,1,70,10|0,0:0|0:0,0:0:0:0:
220,222,121515,1,8,0:0:0:0:
208,110,121666,2,0,L|201:179,1,70,2|4,0:0|0:0,0:0:0:0:
360,221,121969,2,8,L|352:289,1,70,0|10,0:0|0:0,0:0:0:0:
196,333,122272,1,0,0:0:0:0:
119,254,122424,6,0,L|50:247,2,70,8|0|10,0:0|0:0|0:0,0:0:0:0:
211,82,122878,2,8,L|280:89,1,70,0|12,0:0|0:0,0:0:0:0:
360,221,123181,2,0,L|153:198,1,140,2|0,0:0|0:0,0:0:0:0:
388,329,123636,6,0,L|319:336,1,70,2|8,0:0|0:0,0:0:0:0:
465,233,123939,2,0,L|479:93,1,140,4|12,0:0|0:0,0:0:0:0:
325,188,124393,2,0,L|256:195,1,70,0|10,0:0|0:0,0:0:0:0:
140,86,124696,2,0,L|209:79,1,70,0|8,0:0|0:0,0:0:0:0:
202,296,124999,6,0,L|208:341,1,35
104,281,125151,1,10,0:0:0:0:
7,262,125303,2,0,L|0:193,1,70,0|12,0:0|0:0,0:0:0:0:
140,86,125606,1,2,0:0:0:0:
177,176,125757,2,0,B|174:224|174:224|183:245,1,70,8|0,0:0|0:0,0:0:0:0:
345,335,126060,22,0,L|276:342,1,70,10|0,0:0|0:0,0:0:0:0:
362,145,126363,1,8,0:0:0:0:
466,249,126515,2,0,L|397:256,1,70,2|12,0:0|0:0,0:0:0:0:
511,69,126818,2,0,L|442:76,1,70,0|10,0:0|0:0,0:0:0:0:
273,208,127121,1,0,0:0:0:0:
199,131,127272,6,0,L|130:123,2,70,8|0|10,0:0|0:0|0:0,0:0:0:0:
144,250,127727,2,0,L|75:243,1,70,0|12,0:0|0:0,0:0:0:0:
259,376,128030,2,0,L|75:357,1,140,2|0,0:0|0:0,0:0:0:0:
365,256,128484,6,0,L|372:187,1,70,10|0,0:0|0:0,0:0:0:0:
302,21,128787,1,8,0:0:0:0:
215,167,128939,2,0,L|222:98,1,70,2|12,0:0|0:0,3:0:0:0:
142,272,129242,2,0,L|134:340,1,70,0|10,0:0|0:0,3:0:0:0:
82,106,129545,2,0,L|75:175,1,70,0|8,0:0|0:0,3:0:0:0:
244,311,129848,6,0,L|313:318,2,70,0|10|0,0:0|0:0|0:0,0:0:0:0:
428,72,130303,1,12,0:0:0:0:
440,168,130454,1,2,0:0:0:0:
455,265,130606,2,0,B|405:259|405:259|384:267,1,70,8|0,0:0|0:0,0:0:0:0:
261,154,130909,22,8,L|254:85,1,70,10|0,0:0|0:0,0:0:0:0:
90,168,131212,1,8,0:0:0:0:
164,246,131363,2,0,L|157:315,1,70,2|12,0:0|0:0,0:0:0:0:
292,124,131666,2,0,L|285:55,1,70,0|10,0:0|0:0,0:0:0:0:
79,71,131969,1,0,0:0:0:0:
90,168,132121,6,0,L|21:161,2,70,8|0|10,0:0|0:0|0:0,0:0:0:0:
264,259,132575,2,8,L|195:251,1,70,0|12,0:0|0:0,0:0:0:0:
362,130,132878,2,0,L|213:115,1,140,2|0,0:0|0:0,0:0:0:0:
422,224,133333,6,0,L|415:293,1,70,2|8,0:0|0:0,0:0:0:0:
202,352,133636,2,0,L|341:366,1,140,4|12,0:0|0:0,0:0:0:0:
269,185,134090,2,0,L|262:254,1,70,0|10,0:0|0:0,0:0:0:0:
114,176,134393,2,0,L|121:107,1,70,0|8,0:0|0:0,0:0:0:0:
268,49,134696,5,0,0:0:0:0:
302,52,134772,1,0,0:0:0:0:
338,55,134848,1,10,0:0:0:0:
463,62,135000,2,0,L|470:131,1,70,0|12,0:0|0:0,0:0:0:0:
423,293,135303,1,2,0:0:0:0:
349,212,135454,2,0,B|343:164|343:164|354:144,1,70,8|0,0:0|0:0,0:0:0:0:
247,332,135757,22,0,L|38:310,1,210,6|2,0:0|0:0,0:0:0:0:
169,215,136363,2,0,L|90:207,1,70,12|0,0:0|0:0,0:0:0:0:
293,266,136666,1,10,0:0:0:0:
282,168,136818,1,0,0:0:0:0:
271,70,136969,6,0,L|340:77,2,70,8|0|10,0:0|0:0|0:0,0:0:0:0:
101,98,137424,2,0,L|32:91,1,70,0|12,0:0|0:0,0:0:0:0:
169,215,137727,2,0,L|358:234,1,140,2|0,0:0|0:0,0:0:0:0:
481,100,138181,6,0,L|474:169,1,70,10|0,0:0|0:0,0:0:0:0:
490,310,138484,1,8,0:0:0:0:
383,207,138636,2,0,L|376:276,1,70,2|12,0:0|0:0,0:0:0:0:
227,339,138939,2,0,L|234:270,1,70,0|10,0:0|0:0,0:0:0:0:
157,119,139242,2,0,L|164:50,1,70,0|8,0:0|0:0,0:0:0:0:
292,136,139545,6,0,L|361:143,2,70,0|10|0,0:0|0:0|0:0,0:0:0:0:
197,196,140000,1,12,0:0:0:0:
99,181,140152,1,2,0:0:0:0:
8,143,140303,2,0,B|30:138|30:138|77:150,1,70,8|0,0:0|0:0,0:0:0:0:
160,307,140606,22,0,L|167:376,1,70,10|0,0:0|0:0,0:0:0:0:
387,276,140909,1,8,0:0:0:0:
288,230,141060,2,0,L|295:299,1,70,2|12,0:0|0:0,0:0:0:0:
463,204,141363,2,0,L|456:135,1,70,0|10,0:0|0:0,0:0:0:0:
340,33,141666,1,0,0:0:0:0:
195,110,141818,6,0,L|202:41,2,70,8|0|10,0:0|0:0|0:0,0:0:0:0:
201,248,142272,2,0,L|194:317,1,70,0|12,0:0|0:0,0:0:0:0:
81,107,142575,2,0,L|67:246,1,140,2|0,0:0|0:0,0:0:0:0:
217,353,143030,6,0,L|286:346,1,70,2|8,0:0|0:0,0:0:0:0:
429,256,143333,2,0,L|289:241,1,140,4|12,0:0|0:0,0:0:0:0:
395,97,143787,2,0,B|379:130|379:130|388:166,1,70,0|10,0:0|0:0,0:0:0:0:
272,75,144090,2,0,B|288:42|288:42|279:9,1,70,0|8,0:0|0:0,0:0:0:0:
187,196,144393,6,0,L|118:203,2,70,0|10|0,0:0|0:0|0:0,0:0:0:0:
298,185,144848,1,12,0:0:0:0:
309,296,145000,1,2,0:0:0:0:
202,326,145151,2,0,B|246:321|246:321|273:328,1,70,8|0,0:0|0:0,0:0:0:0:
512,133,145606,22,0,L|479:174,2,52.5000020027161,0|8|0,0:0|0:0|0:0,0:0:0:0:
263,54,146212,2,0,L|279:121,1,52.5000020027161,8|0,0:0|0:0,0:0:0:0:
271,198,146515,1,0,0:0:0:0:
270,213,146666,1,8,0:0:0:0:
269,228,146818,1,0,0:0:0:0:
268,243,146969,1,8,0:0:0:0:
267,258,147121,2,0,L|283:325,1,52.5000020027161,0|0,0:0|0:0,0:0:0:0:
142,249,147424,1,8,0:0:0:0:
159,36,148030,5,0,0:0:0:0:
143,39,148181,1,8,0:0:0:0:
127,42,148333,2,0,L|61:52,1,52.5000020027161
287,86,148636,2,0,L|310:28,1,52.5000020027161,8|0,0:0|0:0,0:0:0:0:
179,148,148939,2,0,L|107:137,1,52.5000020027161,8|0,0:0|0:0,0:0:0:0:
264,227,149242,5,0,0:0:0:0:
266,243,149393,1,8,0:0:0:0:
267,258,149545,2,0,L|262:339,1,52.5000020027161,0|0,0:0|0:0,0:0:0:0:
443,297,149848,1,8,0:0:0:0:
428,296,149999,2,0,L|347:301,1,52.5000020027161
132,207,150454,6,0,L|64:203,2,62.9999980773926,0|8|0,0:0|0:0|0:0,0:0:0:0:
241,41,151060,2,0,L|273:125,1,62.9999980773926,8|0,0:0|0:0,0:0:0:0:
247,193,151363,1,0,0:0:0:0:
243,211,151515,1,8,0:0:0:0:
239,229,151666,1,0,0:0:0:0:
236,247,151818,1,8,0:0:0:0:
233,265,151969,2,0,L|265:349,1,62.9999980773926
378,297,152272,1,8,0:0:0:0:
418,135,152727,22,0,B|437:117|437:93|437:93|349:55|285:95|285:95|256:77|256:77|225:89|225:89|169:39|76:61|76:61|70:90|89:118,1,472.499985580445,4|0,0:0|0:0,0:0:0:0:
247,264,155151,6,0,L|114:285,1,83.9999974365235,6|0,0:0|0:0,0:0:0:0:
326,354,155454,1,10,0:0:0:0:
349,189,155606,1,2,0:0:0:0:
247,264,155757,1,12,0:0:0:0:
464,225,155909,2,0,L|457:112,1,83.9999974365235,0|10,0:0|0:0,0:0:0:0:
249,32,156212,1,0,0:0:0:0:
139,124,156363,6,0,L|4:130,1,83.9999974365235,8|0,0:0|0:0,0:0:0:0:
312,95,156666,1,10,0:0:0:0:
380,213,156817,2,0,L|513:231,1,83.9999974365235,0|12,0:0|0:0,0:0:0:0:
132,238,157121,2,0,P|117:271|126:339,2,83.9999974365235,2|8|0,0:0|0:0|0:0,0:0:0:0:
357,238,157575,6,0,L|373:357,1,83.9999974365235,10|0,0:0|0:0,0:0:0:0:
201,292,157878,1,8,0:0:0:0:
316,147,158030,1,2,0:0:0:0:
368,321,158181,1,12,0:0:0:0:
152,149,158333,2,0,L|68:160,1,83.9999974365235,0|10,0:0|0:0,0:0:0:0:
390,57,158636,2,0,L|473:68,1,83.9999974365235,0|8,0:0|0:0,0:0:0:0:
368,321,158939,22,0,L|285:334,2,83.9999974365235,0|10|0,0:0|0:0|0:0,0:0:0:0:
463,162,159393,1,12,0:0:0:0:
302,128,159545,1,2,0:0:0:0:
462,274,159696,2,0,L|468:374,1,83.9999974365235,8|0,0:0|0:0,0:0:0:0:
185,242,160000,6,0,L|190:158,1,83.9999974365235,10|0,0:0|0:0,0:0:0:0:
275,325,160303,1,8,0:0:0:0:
78,256,160454,1,2,0:0:0:0:
190,158,160606,1,12,0:0:0:0:
25,85,160757,2,0,L|30:168,1,83.9999974365235,0|10,0:0|0:0,0:0:0:0:
299,137,161060,1,0,0:0:0:0:
195,45,161212,6,0,L|112:40,1,83.9999974365235,8|0,0:0|0:0,0:0:0:0:
279,217,161515,1,10,0:0:0:0:
383,125,161667,2,0,L|466:120,1,83.9999974365235,0|12,0:0|0:0,0:0:0:0:
259,298,161969,2,0,P|253:339|268:378,2,83.9999974365235,2|8|0,0:0|0:0|0:0,0:0:0:0:
383,125,162424,5,2,0:0:0:0:
341,329,162575,1,8,0:0:0:0:
243,101,162727,2,0,B|172:88|172:88|139:90|139:90|60:76,1,167.999994873047,4|12,0:0|0:0,0:0:0:0:
175,303,163181,2,0,L|289:295,1,83.9999974365235,0|10,0:0|0:0,0:0:0:0:
95,174,163484,2,0,L|-24:153,1,83.9999974365235,0|8,0:0|0:0,0:0:0:0:
264,94,163787,22,0,L|279:181,2,83.9999974365235,0|10|0,0:0|0:0|0:0,0:0:0:0:
166,218,164242,1,12,0:0:0:0:
386,169,164393,1,2,0:0:0:0:
255,20,164545,54,0,P|229:63|284:31,1,140,4|0,0:0|0:0,0:0:0:0:
166,218,164848,22,0,L|179:317,1,83.9999974365235,10|0,0:0|0:0,0:0:0:0:
341,265,165151,1,8,0:0:0:0:
166,218,165303,1,2,0:0:0:0:
327,378,165454,1,12,0:0:0:0:
358,145,165606,2,0,L|368:61,1,83.9999974365235,0|10,0:0|0:0,0:0:0:0:
472,224,165909,1,0,0:0:0:0:
335,301,166060,6,0,L|251:290,1,83.9999974365235,8|0,0:0|0:0,0:0:0:0:
50,106,166364,1,10,0:0:0:0:
122,222,166515,2,0,L|205:210,1,83.9999974365235,0|12,0:0|0:0,0:0:0:0:
384,110,166818,2,0,P|385:68|369:29,2,83.9999974365235,2|8|0,0:0|0:0|0:0,0:0:0:0:
322,226,167272,5,10,0:0:0:0:
211,42,167424,1,0,0:0:0:0:
384,110,167575,1,8,0:0:0:0:
150,142,167727,2,0,L|66:145,1,83.9999974365235,2|12,0:0|0:0,0:0:0:0:
322,226,168030,2,0,L|405:229,1,83.9999974365235,0|10,0:0|0:0,0:0:0:0:
150,307,168333,2,0,L|66:310,1,83.9999974365235,0|8,0:0|0:0,0:0:0:0:
311,95,168636,21,0,0:0:0:0:
222,229,168787,1,10,0:0:0:0:
146,102,168939,2,0,P|143:67|174:18,1,83.9999974365235,0|12,0:0|0:0,0:0:0:0:
322,226,169242,1,2,0:0:0:0:
150,307,169393,2,0,L|49:311,1,83.9999974365235,8|0,0:0|0:0,0:0:0:0:
367,364,169696,6,0,P|388:328|386:286,1,83.9999974365235,10|0,0:0|0:0,0:0:0:0:
222,229,169999,1,8,0:0:0:0:
367,364,170151,1,2,0:0:0:0:
382,146,170303,1,12,0:0:0:0:
150,307,170454,2,0,L|49:311,1,83.9999974365235,0|10,0:0|0:0,0:0:0:0:
14,101,170757,1,0,0:0:0:0:
193,107,170909,6,0,L|182:190,1,83.9999974365235,8|0,0:0|0:0,0:0:0:0:
382,146,171212,1,10,0:0:0:0:
276,19,171364,2,0,L|286:102,1,83.9999974365235,0|12,0:0|0:0,0:0:0:0:
368,281,171666,2,0,P|414:284|456:262,2,83.9999974365235,2|8|0,0:0|0:0|0:0,0:0:0:0:
106,233,172121,5,2,0:0:0:0:
338,296,172272,1,8,0:0:0:0:
142,328,172424,2,0,B|147:256|147:256|142:223|142:223|147:143,1,167.999994873047,4|12,0:0|0:0,0:0:0:0:
326,133,172878,2,0,L|412:119,1,83.9999974365235,0|10,0:0|0:0,0:0:0:0:
113,42,173181,2,0,L|28:20,1,83.9999974365235,0|8,0:0|0:0,0:0:0:0:
146,160,173484,21,0,0:0:0:0:
217,3,173636,1,10,0:0:0:0:
15,127,173787,2,0,L|28:209,1,83.9999974365235,0|12,0:0|0:0,0:0:0:0:
287,257,174090,1,2,0:0:0:0:
128,333,174242,54,0,B|92:342|44:323|44:323|71:336|79:367,1,140,4|0,0:0|0:0,0:0:0:0:
287,257,174545,22,0,P|294:214|278:171,1,83.9999974365235,10|0,0:0|0:0,0:0:0:0:
15,127,174848,1,8,0:0:0:0:
149,254,174999,1,2,0:0:0:0:
216,59,175151,1,12,0:0:0:0:
74,208,175303,2,0,P|61:247|68:288,1,83.9999974365235,0|10,0:0|0:0,0:0:0:0:
287,257,175606,1,0,0:0:0:0:
216,59,175757,6,0,L|201:160,1,83.9999974365235,8|0,0:0|0:0,0:0:0:0:
303,347,176060,1,10,0:0:0:0:
373,147,176211,2,0,L|388:248,1,83.9999974365235,0|12,0:0|0:0,0:0:0:0:
190,316,176515,2,0,P|149:323|109:310,2,83.9999974365235,2|8|0,0:0|0:0|0:0,0:0:0:0:
373,147,176969,5,10,0:0:0:0:
154,238,177121,1,0,0:0:0:0:
303,347,177272,1,8,0:0:0:0:
266,141,177424,2,0,L|253:57,1,83.9999974365235,2|12,0:0|0:0,0:0:0:0:
409,245,177727,2,0,L|396:328,1,83.9999974365235,0|10,0:0|0:0,0:0:0:0:
154,238,178030,2,0,L|141:154,1,83.9999974365235,0|8,0:0|0:0,0:0:0:0:
373,147,178333,21,0,0:0:0:0:
253,57,178484,1,10,0:0:0:0:
451,18,178636,2,0,P|461:58|449:97,1,83.9999974365235,0|12,0:0|0:0,0:0:0:0:
141,154,178939,1,2,0:0:0:0:
271,276,179090,2,0,L|284:191,1,83.9999974365235,8|0,0:0|0:0,0:0:0:0:
60,119,179393,6,0,P|50:159|62:198,1,83.9999974365235,10|0,0:0|0:0,0:0:0:0:
253,57,179696,1,8,0:0:0:0:
60,119,179848,1,2,0:0:0:0:
194,255,179999,1,12,0:0:0:0:
79,10,180151,2,0,L|164:23,1,83.9999974365235,0|10,0:0|0:0,0:0:0:0:
361,208,180454,1,0,0:0:0:0:
421,90,180606,6,0,L|336:103,1,83.9999974365235,8|0,0:0|0:0,0:0:0:0:
123,237,180909,1,10,0:0:0:0:
60,119,181061,2,0,L|145:132,1,83.9999974365235,0|12,0:0|0:0,0:0:0:0:
361,208,181363,2,0,P|370:248|358:287,2,83.9999974365235,2|8|0,0:0|0:0|0:0,0:0:0:0:
123,237,181818,5,2,0:0:0:0:
268,324,181969,1,8,0:0:0:0:
225,62,182121,2,0,B|228:124|228:124|223:157|223:157|228:229,1,167.999994873047,4|12,0:0|0:0,0:0:0:0:
442,296,182575,2,0,L|312:283,1,83.9999974365235,0|10,0:0|0:0,0:0:0:0:
81,340,182878,2,0,L|211:327,1,83.9999974365235,0|8,0:0|0:0,0:0:0:0:
326,197,183181,21,0,0:0:0:0:
214,59,183333,1,10,0:0:0:0:
108,214,183484,2,0,P|142:236|184:237,1,83.9999974365235,0|12,0:0|0:0,0:0:0:0:
342,101,183787,1,2,0:0:0:0:
152,0,183939,54,0,B|121:32|130:77|130:77|147:151,1,140,4|0,0:0|0:0,0:0:0:0:
326,197,184242,22,0,L|456:184,1,83.9999974365235,10|0,0:0|0:0,0:0:0:0:
214,59,184545,1,8,0:0:0:0:
188,266,184696,1,2,0:0:0:0:
326,197,184848,1,12,0:0:0:0:
83,192,184999,2,0,L|-47:179,1,83.9999974365235,0|10,0:0|0:0,0:0:0:0:
73,339,185303,1,0,0:0:0:0:
184,237,185454,6,0,L|171:107,1,83.9999974365235,8|0,0:0|0:0,0:0:0:0:
401,225,185757,1,10,0:0:0:0:
298,39,185908,2,0,L|290:123,1,83.9999974365235,0|12,0:0|0:0,0:0:0:0:
478,192,186212,2,0,P|487:232|475:271,2,83.9999974365235,2|8|0,0:0|0:0|0:0,0:0:0:0:
175,153,186666,5,10,0:0:0:0:
401,225,186818,1,0,0:0:0:0:
298,39,186969,1,8,0:0:0:0:
274,263,187121,2,0,L|282:346,1,83.9999974365235,2|12,0:0|0:0,0:0:0:0:
83,164,187424,2,0,L|74:247,1,83.9999974365235,0|10,0:0|0:0,0:0:0:0:
392,141,187727,2,0,L|400:224,1,83.9999974365235,0|8,0:0|0:0,0:0:0:0:
172,294,188030,21,0,0:0:0:0:
374,344,188181,1,10,0:0:0:0:
266,137,188333,2,0,L|182:145,1,83.9999974365235,0|12,0:0|0:0,0:0:0:0:
474,331,188636,5,2,0:0:0:0:
376,293,188787,2,0,B|368:317|368:317|373:343,1,52.5000020027161,8|0,0:0|0:0,0:0:0:0:
90,309,189242,6,0,L|37:314,2,52.5000020027161,0|8|0,0:0|0:0|0:0,0:0:0:0:
322,181,189848,1,8,0:0:0:0:
95,73,190151,1,0,0:0:0:0:
92,88,190303,1,8,0:0:0:0:
89,103,190454,1,0,0:0:0:0:
87,118,190606,1,8,0:0:0:0:
85,133,190757,2,0,L|90:185,1,52.5000020027161
216,48,191060,1,8,0:0:0:0:
382,340,191666,5,0,0:0:0:0:
389,305,191818,1,8,0:0:0:0:
394,270,191969,2,0,L|301:280,1,70,0|0,0:0|0:0,0:0:0:0:
314,94,192272,2,0,L|369:169,1,70,8|0,0:0|0:0,0:0:0:0:
202,252,192575,2,0,L|239:166,1,70,8|0,0:0|0:0,0:0:0:0:
460,176,192878,1,0,0:0:0:0:
456,141,193030,1,8,0:0:0:0:
452,106,193181,22,0,B|441:9|441:9|421:55,1,140,0|8,0:0|0:0,0:0:0:0:
372,288,193636,2,0,B|363:343|363:343|394:323,1,70
224,104,193939,22,0,P|112:63|-12:79,1,210.000008010865,6|8,0:0|0:0,0:0:0:0:
245,312,194393,1,2,0:0:0:0:
325,65,194545,1,12,0:0:0:0:
66,258,194696,2,0,B|55:343|55:343|99:311,1,105.000004005432,0|10,0:0|0:0,0:0:0:0:
224,104,194999,1,0,0:0:0:0:
418,221,195151,6,0,B|408:306|408:306|372:264,1,105.000004005432,8|0,0:0|0:0,0:0:0:0:
123,53,195454,2,0,B|117:139|117:139|131:127,1,105.000004005432,10|0,0:0|0:0,0:0:0:0:
286,327,195757,1,12,0:0:0:0:
27,183,195909,2,0,P|130:181|271:243,1,210.000008010865,2|0,0:0|0:0,0:0:0:0:
399,34,196363,22,0,P|370:134|377:238,1,210.000008010865,10|8,0:0|0:0,0:0:0:0:
482,89,196818,1,2,0:0:0:0:
230,215,196969,1,12,0:0:0:0:
389,359,197121,2,0,B|304:349|304:349|346:313,1,105.000004005432,0|10,0:0|0:0,0:0:0:0:
162,145,197424,2,0,B|76:154|76:154|90:165,1,105.000004005432,0|8,0:0|0:0,0:0:0:0:
352,129,197727,5,0,0:0:0:0:
155,3,197878,1,10,0:0:0:0:
124,258,198030,2,0,B|119:303|119:303|126:317|126:317|120:376,1,105.000004005432,0|12,0:0|0:0,0:0:0:0:
371,259,198333,1,2,0:0:0:0:
162,145,198484,2,0,B|118:140|118:140|104:147|104:147|59:142,1,105.000004005432,8|0,0:0|0:0,0:0:0:0:
371,259,198787,6,0,P|378:154|349:54,1,210.000008010865,10|8,0:0|0:0,0:0:0:0:
256,313,199242,1,2,0:0:0:0:
492,162,199393,1,12,0:0:0:0:
263,83,199545,2,0,B|251:-2|251:-2|267:8,1,105.000004005432,0|10,0:0|0:0,0:0:0:0:
469,283,199848,1,0,0:0:0:0:
144,305,199999,6,0,B|58:309|58:309|93:267,1,105.000004005432,8|0,0:0|0:0,0:0:0:0:
263,83,200303,2,0,B|348:78|348:78|313:120,1,105.000004005432,10|0,0:0|0:0,0:0:0:0:
35,115,200606,1,12,0:0:0:0:
179,285,200757,2,0,P|283:292|383:263,1,210.000008010865,2|0,0:0|0:0,0:0:0:0:
35,115,201212,21,2,0:0:0:0:
286,153,201363,1,8,0:0:0:0:
103,22,201515,2,0,P|74:122|81:226,1,210.000008010865,4|12,0:0|0:0,0:0:0:0:
286,153,201969,2,0,B|290:67|290:67|248:102,1,105.000004005432,0|10,0:0|0:0,0:0:0:0:
428,282,202272,2,0,B|423:196|423:196|465:231,1,105.000004005432,0|8,0:0|0:0,0:0:0:0:
149,299,202575,5,0,0:0:0:0:
345,340,202727,1,10,0:0:0:0:
134,131,202878,2,0,B|89:133|89:133|77:143|77:143|32:145,1,105.000004005432,0|12,0:0|0:0,0:0:0:0:
206,373,203181,1,2,0:0:0:0:
337,194,203333,38,0,B|395:192|395:192|438:208|438:208|432:256,1,140,4|0,0:0|0:0,0:0:0:0:
332,18,203636,38,0,P|227:10|127:39,1,210.000008010865,10|8,0:0|0:0,0:0:0:0:
337,194,204090,1,2,0:0:0:0:
28,207,204242,1,12,0:0:0:0:
234,102,204393,2,0,B|320:97|320:97|285:139,1,105.000004005432,0|10,0:0|0:0,0:0:0:0:
196,346,204696,1,0,0:0:0:0:
127,38,204848,6,0,B|41:48|41:48|83:83,1,105.000004005432,8|0,0:0|0:0,0:0:0:0:
314,268,205151,2,0,B|399:273|399:273|364:231,1,105.000004005432,10|0,0:0|0:0,0:0:0:0:
117,129,205454,1,12,0:0:0:0:
375,25,205606,2,0,P|403:125|395:229,1,210.000008010865,2|0,0:0|0:0,0:0:0:0:
73,319,206060,22,0,P|173:347|277:339,1,210.000008010865,10|8,0:0|0:0,0:0:0:0:
245,96,206515,1,2,0:0:0:0:
394,229,206666,1,12,0:0:0:0:
117,129,206818,2,0,B|127:43|127:43|162:85,1,105.000004005432,0|10,0:0|0:0,0:0:0:0:
416,157,207121,2,0,B|406:243|406:243|371:201,1,105.000004005432,0|8,0:0|0:0,0:0:0:0:
268,17,207424,5,0,0:0:0:0:
174,313,207575,1,10,0:0:0:0:
416,157,207727,2,0,B|414:112|414:112|404:100|404:100|402:55,1,105.000004005432,0|12,0:0|0:0,0:0:0:0:
61,224,208030,1,2,0:0:0:0:
327,329,208181,2,0,B|372:327|372:327|384:317|384:317|429:315,1,105.000004005432,8|0,0:0|0:0,0:0:0:0:
248,104,208484,6,0,P|143:95|43:123,1,210.000008010865,10|8,0:0|0:0,0:0:0:0:
327,329,208939,1,2,0:0:0:0:
402,55,209090,1,12,0:0:0:0:
152,228,209242,2,0,B|139:313|139:313|184:282,1,105.000004005432,0|10,0:0|0:0,0:0:0:0:
441,216,209545,1,0,0:0:0:0:
179,36,209696,6,0,B|93:46|93:46|135:81,1,105.000004005432,8|0,0:0|0:0,0:0:0:0:
267,281,209999,2,0,B|353:286|353:286|318:244,1,105.000004005432,10|0,0:0|0:0,0:0:0:0:
41,174,210303,1,12,0:0:0:0:
237,367,210454,2,0,P|341:375|441:347,1,210.000008010865,2|0,0:0|0:0,0:0:0:0:
228,172,210909,21,2,0:0:0:0:
456,222,211060,1,8,0:0:0:0:
286,76,211212,2,0,P|257:176|266:280,1,210.000008010865,4|12,0:0|0:0,0:0:0:0:
395,91,211666,2,0,B|481:101|481:101|439:136,1,105.000004005432,0|10,0:0|0:0,0:0:0:0:
128,50,211969,2,0,B|42:60|42:60|84:95,1,105.000004005432,0|8,0:0|0:0,0:0:0:0:
363,255,212272,5,0,0:0:0:0:
121,214,212424,1,10,0:0:0:0:
272,17,212575,2,0,B|274:62|274:62|284:74|284:74|286:119,1,105.000004005432,0|12,0:0|0:0,0:0:0:0:
40,327,212878,1,2,0:0:0:0:
363,255,213030,38,0,B|415:248|453:286|453:286|447:258|389:244,1,140,4|0,0:0|0:0,0:0:0:0:
60,123,213333,6,0,P|31:223|40:327,1,210.000008010865,6|2,0:0|0:0,0:0:0:0:
166,214,213939,2,0,P|140:254|132:302,1,70,12|0,0:0|0:0,0:0:0:0:
144,373,214242,1,10,0:0:0:0:
334,94,214545,6,0,L|182:66,1,140,8|10,0:0|0:0,0:0:0:0:
418,90,215000,2,0,L|261:38,1,140,0|2,0:0|0:0,0:0:0:0:
506,84,215454,2,0,L|418:40,1,70,8|0,0:0|0:0,0:0:0:0:
306,166,215757,6,0,P|317:234|303:302,1,140,10|8,0:0|0:0,0:0:0:0:
224,360,216212,1,2,0:0:0:0:
306,166,216363,2,0,P|349:146|403:151,1,70,12|0,0:0|0:0,0:0:0:0:
420,32,216666,1,10,0:0:0:0:
417,2,216818,1,0,0:0:0:0:
415,199,216969,6,0,L|402:45,1,140,8|10,0:0|0:0,0:0:0:0:
460,271,217424,2,0,L|445:106,1,140,0|2,0:0|0:0,0:0:0:0:
511,338,217878,2,0,L|502:240,1,70,8|0,0:0|0:0,0:0:0:0:
281,208,218181,22,0,L|100:222,1,140,10|8,0:0|0:0,0:0:0:0:
73,147,218636,1,2,0:0:0:0:
281,208,218787,2,0,L|295:298,1,70,12|0,0:0|0:0,0:0:0:0:
104,62,219090,2,0,L|93:131,1,70,10|0,0:0|0:0,0:0:0:0:
210,316,219393,6,0,L|358:354,1,140,8|10,0:0|0:0,0:0:0:0:
93,308,219848,2,0,L|246:286,1,140,0|2,0:0|0:0,0:0:0:0:
6,320,220302,2,8,L|101:344,1,70,12|8,0:0|0:0,0:0:0:0:
191,180,220606,5,2,0:0:0:0:
81,160,220757,1,8,0:0:0:0:
214,159,220909,2,0,L|225:57,1,70,4|2,0:0|0:0,0:0:0:0:
358,32,221212,2,0,L|365:101,1,70,12|0,0:0|0:0,0:0:0:0:
331,325,221515,2,0,L|342:223,1,70,10|0,0:0|0:0,0:0:0:0:
456,153,221818,6,0,L|463:222,1,70,8|0,0:0|0:0,0:0:0:0:
338,255,222121,1,10,0:0:0:0:
240,239,222273,2,0,B|142:224|142:224|110:192,1,140,8|10,0:0|0:0,0:0:0:0:
214,270,222727,6,0,B|227:379|227:379|195:350,1,140,4|0,0:0|0:0,0:0:0:0:
300,171,223030,6,0,L|320:12,1,140,10|8,0:0|0:0,0:0:0:0:
409,0,223484,1,2,0:0:0:0:
300,171,223636,2,0,P|264:166|219:139,1,70,12|0,0:0|0:0,0:0:0:0:
458,129,223939,2,0,P|438:158|430:190,1,70,10|0,0:0|0:0,0:0:0:0:
327,303,224242,6,0,L|476:337,1,140,8|10,0:0|0:0,0:0:0:0:
232,311,224697,2,0,L|391:348,1,140,0|2,0:0|0:0,0:0:0:0:
134,321,225151,2,0,L|228:342,1,70,8|0,0:0|0:0,0:0:0:0:
236,142,225454,6,0,B|163:120|184:182|103:158,1,140,10|8,0:0|0:0,0:0:0:0:
60,69,225909,1,2,0:0:0:0:
236,142,226060,2,0,P|246:186|237:219,1,70,12|0,0:0|0:0,0:0:0:0:
361,38,226363,1,10,0:0:0:0:
363,3,226515,1,0,0:0:0:0:
350,211,226666,6,0,L|358:57,1,140,8|10,0:0|0:0,0:0:0:0:
433,295,227121,2,0,L|375:147,1,140,0|2,0:0|0:0,0:0:0:0:
396,384,227575,2,0,L|401:285,1,70,8|0,0:0|0:0,0:0:0:0:
210,332,227878,22,8,P|123:344|72:323,1,140,10|8,0:0|0:0,0:0:0:0:
45,232,228333,1,2,0:0:0:0:
210,332,228484,2,8,P|251:344|293:335,1,70,12|0,0:0|0:0,0:0:0:0:
340,192,228787,2,8,P|305:189|272:202,1,70,10|0,0:0|0:0,0:0:0:0:
172,56,229090,6,0,L|322:85,1,140,8|10,0:0|0:0,0:0:0:0:
87,54,229545,2,0,L|242:107,1,140,0|2,0:0|0:0,0:0:0:0:
0,60,229999,2,0,L|87:104,1,70,8|0,0:0|0:0,0:0:0:0:
165,233,230303,5,2,0:0:0:0:
182,122,230454,1,8,0:0:0:0:
133,250,230606,2,0,L|145:331,1,70,4|2,0:0|0:0,0:0:0:0:
350,269,230909,2,0,L|280:258,1,70,12|0,0:0|0:0,0:0:0:0:
285,64,231212,2,0,L|297:145,1,70,10|0,0:0|0:0,0:0:0:0:
502,83,231515,6,0,L|432:72,1,70,8|0,0:0|0:0,0:0:0:0:
278,233,231818,1,10,0:0:0:0:
377,225,231969,2,0,B|474:221|474:221|512:247,1,140,8|10,0:0|0:0,0:0:0:0:
359,190,232424,6,0,B|352:350,1,140,4|0,0:0|0:0,0:0:0:0:
205,127,232727,6,0,B|-46:181,1,210,6|2,0:0|0:0,0:0:0:0:
169,257,233333,2,0,B|89:274,1,70,12|0,0:0|0:0,0:0:0:0:
5,296,233636,1,10,0:0:0:0:
393,232,233939,6,0,B|324:217,1,70,8|0,0:0|0:0,0:0:0:0:
453,357,234242,2,0,B|384:342,1,70,10|0,0:0|0:0,0:0:0:0:
393,232,234545,1,12,0:0:0:0:
468,170,234696,2,0,L|478:5,1,140,2|0,0:0|0:0,0:0:0:0:
305,151,235151,6,0,L|140:161,1,140,10|8,0:0|0:0,0:0:0:0:
305,151,235606,1,2,0:0:0:0:
215,75,235757,2,0,P|218:43|205:2,1,70,12|0,0:0|0:0,0:0:0:0:
215,248,236060,2,0,P|218:279|204:319,1,70,10|0,0:0|0:0,0:0:0:0:
83,85,236363,6,0,P|86:53|73:12,1,70,8|0,0:0|0:0,0:0:0:0:
83,258,236666,2,0,P|86:289|72:329,1,70,10|0,0:0|0:0,0:0:0:0:
215,248,236969,1,12,0:0:0:0:
281,320,237121,2,0,L|428:326,1,140,2|0,0:0|0:0,0:0:0:0:
345,95,237575,22,0,P|328:163|348:249,1,140,10|8,0:0|0:0,0:0:0:0:
345,95,238030,1,2,0:0:0:0:
416,172,238181,2,0,L|494:157,1,70,12|0,0:0|0:0,0:0:0:0:
234,163,238484,2,0,L|166:145,1,70,10|0,0:0|0:0,0:0:0:0:
408,29,238787,6,0,L|486:14,1,70,8|0,0:0|0:0,0:0:0:0:
226,20,239090,2,0,L|158:2,1,70,10|0,0:0|0:0,0:0:0:0:
234,163,239393,1,12,0:0:0:0:
139,137,239545,2,0,L|127:319,1,140,2|0,0:0|0:0,0:0:0:0:
363,355,239999,6,0,P|295:369|229:348,1,140,10|8,0:0|0:0,0:0:0:0:
363,355,240454,1,2,0:0:0:0:
298,245,240606,2,0,L|283:159,1,70,12|0,0:0|0:0,0:0:0:0:
440,176,240909,2,0,L|448:91,1,70,10|0,0:0|0:0,0:0:0:0:
178,138,241212,6,0,L|163:52,1,70,8|0,0:0|0:0,0:0:0:0:
320,69,241515,2,0,L|328:-16,1,70,10|0,0:0|0:0,0:0:0:0:
252,202,241818,1,12,0:0:0:0:
178,138,241969,2,0,L|-3:149,1,140,2|0,0:0|0:0,0:0:0:0:
97,318,242424,22,0,P|182:345|256:320,1,140,10|8,0:0|0:0,0:0:0:0:
97,318,242878,1,2,0:0:0:0:
172,213,243030,2,0,L|270:207,1,70,12|0,0:0|0:0,0:0:0:0:
373,345,243333,2,0,L|275:339,1,70,10|0,0:0|0:0,0:0:0:0:
311,133,243636,6,0,L|409:127,1,70,8|0,0:0|0:0,0:0:0:0:
512,264,243939,2,0,L|414:258,1,70,10|0,0:0|0:0,0:0:0:0:
380,128,244242,1,12,0:0:0:0:
428,43,244393,2,0,L|238:54,1,140,2|0,0:0|0:0,0:0:0:0:
173,218,244848,6,0,P|187:151|163:63,1,140,10|8,0:0|0:0,0:0:0:0:
173,218,245303,1,2,0:0:0:0:
270,273,245454,2,0,P|314:285|360:277,1,70,12|0,0:0|0:0,0:0:0:0:
73,272,245757,2,8,P|28:280|-17:268,1,70,10|0,0:0|0:0,0:0:0:0:
278,139,246060,6,0,P|322:151|368:143,1,70,8|0,0:0|0:0,0:0:0:0:
81,138,246363,2,8,P|36:146|-9:134,1,70,10|0,0:0|0:0,0:0:0:0:
212,66,246666,1,12,0:0:0:0:
278,139,246818,2,0,L|267:302,1,140,2|0,0:0|0:0,0:0:0:0:
484,350,247272,22,0,L|344:359,1,140,10|8,0:0|0:0,0:0:0:0:
484,350,247727,1,2,0:0:0:0:
365,242,247878,2,0,L|472:235,1,70,12|0,0:0|0:0,0:0:0:0:
230,295,248181,2,0,L|221:188,1,70,10|0,0:0|0:0,0:0:0:0:
399,87,248484,6,0,L|506:80,1,70,8|0,0:0|0:0,0:0:0:0:
264,140,248787,2,0,L|255:33,1,70,10|0,0:0|0:0,0:0:0:0:
365,242,249090,1,12,0:0:0:0:
358,340,249242,2,0,L|218:330,1,140,2|0,0:0|0:0,0:0:0:0:
114,137,249696,6,0,P|129:201|109:279,1,140,10|8,0:0|0:0,0:0:0:0:
114,137,250151,1,2,0:0:0:0:
225,229,250303,2,0,L|313:216,1,70,12|0,0:0|0:0,0:0:0:0:
239,43,250606,2,0,L|327:56,1,70,10|0,0:0|0:0,0:0:0:0:
391,283,250909,6,0,L|479:270,1,70,8|0,0:0|0:0,0:0:0:0:
405,97,251212,2,0,L|493:110,1,70,10|0,0:0|0:0,0:0:0:0:
267,124,251515,1,12,0:0:0:0:
294,218,251666,2,0,L|283:365,1,140,2|0,0:0|0:0,0:0:0:0:
60,313,252121,22,0,P|146:308|213:332,1,140,6|8,0:0|0:0,0:0:0:0:
132,217,252575,1,2,0:0:0:0:
61,313,252727,2,0,L|42:214,1,70,12|0,0:0|0:0,0:0:0:0:
97,58,253030,2,0,L|110:126,1,70,10|0,0:0|0:0,0:0:0:0:
347,159,253333,6,0,L|193:161,2,140,8|10|12,0:0|0:0|0:0,0:0:0:0:
287,79,254090,1,2,0:0:0:0:
263,239,254242,2,0,L|284:357,1,70,8|0,0:0|0:0,0:0:0:0:
503,274,254545,6,0,P|417:269|350:293,1,140,10|8,0:0|0:0,0:0:0:0:
389,379,254999,1,2,0:0:0:0:
503,274,255151,2,0,P|514:222|495:182,1,70,12|0,0:0|0:0,0:0:0:0:
310,147,255454,2,0,P|342:158|377:154,1,70,10|0,0:0|0:0,0:0:0:0:
214,77,255757,6,0,B|149:106|149:106|61:95,2,140,8|10|12,0:0|0:0|0:0,0:0:0:0:
131,21,256515,1,2,0:0:0:0:
110,187,256666,2,0,L|99:274,1,70,8|0,0:0|0:0,0:0:0:0:
195,340,256969,22,0,L|282:329,1,70,10|0,0:0|0:0,0:0:0:0:
307,188,257272,2,0,L|237:196,1,70,8|2,0:0|0:0,0:0:0:0:
417,260,257575,2,0,L|391:55,1,140,12|10,0:0|0:0,0:0:0:0:
195,340,258181,6,0,L|-9:314,2,140,8|10|12,0:0|0:0|0:0,0:0:0:0:
128,249,258939,1,2,0:0:0:0:
209,191,259090,2,0,L|198:106,1,70,8|0,0:0|0:0,0:0:0:0:
429,95,259393,6,0,P|349:106|279:82,1,140,10|8,0:0|0:0,0:0:0:0:
363,8,259848,1,2,0:0:0:0:
429,95,259999,2,0,L|416:180,1,70,12|0,0:0|0:0,0:0:0:0:
292,254,260303,2,0,L|302:184,1,70,10|0,0:0|0:0,0:0:0:0:
431,356,260606,6,0,L|418:271,1,70,8|0,0:0|0:0,0:0:0:0:
229,327,260909,1,10,0:0:0:0:
135,305,261060,2,0,L|-2:275,1,140,0|2,0:0|0:0,0:0:0:0:
121,215,261515,2,0,L|1:189,1,70,8|0,0:0|0:0,0:0:0:0:
224,22,261818,22,0,P|233:102|199:180,1,140,10|8,0:0|0:0,0:0:0:0:
137,82,262272,1,2,0:0:0:0:
224,22,262424,2,0,L|320:31,1,70,12|0,0:0|0:0,0:0:0:0:
374,191,262727,2,0,L|304:184,1,70,10|0,0:0|0:0,0:0:0:0:
481,109,263030,6,0,L|497:289,2,140,8|10|12,0:0|0:0|0:0,0:0:0:0:
404,39,263787,1,2,0:0:0:0:
456,200,263939,2,0,L|465:305,1,70,8|0,0:0|0:0,0:0:0:0:
349,334,264242,6,0,P|296:311|206:325,1,140,10|8,0:0|0:0,0:0:0:0:
258,220,264696,1,2,0:0:0:0:
349,334,264848,2,0,L|343:264,1,70,12|0,0:0|0:0,0:0:0:0:
168,175,265151,2,0,L|162:244,1,70,10|0,0:0|0:0,0:0:0:0:
322,90,265454,6,0,B|275:98|275:98|160:61,2,140,8|10|12,0:0|0:0|0:0,0:0:0:0:
282,10,266212,1,2,0:0:0:0:
379,158,266363,2,0,L|373:227,1,70,8|0,0:0|0:0,0:0:0:0:
163,207,266666,22,0,L|245:201,1,70,10|0,0:0|0:0,0:0:0:0:
327,321,266969,2,0,L|245:315,1,70,8|2,0:0|0:0,0:0:0:0:
92,131,267272,2,0,P|68:208|77:265,1,140,12|10,0:0|0:0,0:0:0:0:
439,144,267878,6,0,B|370:152|370:152|304:129,2,140,8|10|12,0:0|0:0|0:0,0:0:0:0:
379,65,268636,1,2,0:0:0:0:
428,237,268787,2,0,P|429:279|413:311,1,70,8|0,0:0|0:0,0:0:0:0:
185,262,269090,6,0,L|333:256,1,140,10|8,0:0|0:0,0:0:0:0:
287,350,269545,1,2,0:0:0:0:
185,262,269696,2,0,L|162:156,1,70,12|0,0:0|0:0,0:0:0:0:
303,86,270000,2,0,L|294:156,1,70,10|0,0:0|0:0,0:0:0:0:
103,119,270303,6,0,L|80:13,1,70,8|0,0:0|0:0,0:0:0:0:
227,25,270606,1,10,0:0:0:0:
303,86,270757,2,0,L|466:75,1,140,0|2,0:0|0:0,0:0:0:0:
337,187,271212,2,0,L|411:182,1,70,8|0,0:0|0:0,0:0:0:0:
239,317,271515,22,0,L|76:306,1,140,6|8,0:0|0:0,0:0:0:0:
40,207,271969,1,2,0:0:0:0:
138,213,272121,2,0,L|207:217,1,70,12|0,0:0|0:0,0:0:0:0:
316,95,272424,1,10,0:0:0:0:
325,193,272575,1,0,0:0:0:0:
336,290,272727,6,0,L|342:359,2,70,8|0|10,0:0|0:0|0:0,0:0:0:0:
413,137,273181,2,0,L|407:66,1,70,0|12,0:0|0:0,0:0:0:0:
239,153,273484,1,2,0:0:0:0:
160,84,273636,2,0,L|155:14,1,70,8|0,0:0|0:0,0:0:0:0:
41,297,273939,6,0,L|52:134,1,140,10|8,0:0|0:0,0:0:0:0:
138,237,274393,1,2,0:0:0:0:
231,310,274545,2,0,L|235:241,1,70,12|0,0:0|0:0,0:0:0:0:
405,278,274848,2,0,L|401:347,1,70,10|0,0:0|0:0,0:0:0:0:
309,158,275151,6,0,B|356:155|356:155|460:93,2,140,8|10|12,0:0|0:0|0:0,0:0:0:0:
330,70,275909,1,2,0:0:0:0:
300,251,276060,2,0,L|226:256,1,70,8|0,0:0|0:0,0:0:0:0:
71,219,276363,22,0,L|2:223,1,70,10|0,0:0|0:0,0:0:0:0:
199,105,276666,2,0,L|130:109,1,70,8|2,0:0|0:0,0:0:0:0:
300,251,276969,2,0,L|137:262,1,140,12|10,0:0|0:0,0:0:0:0:
451,99,277575,6,0,L|243:87,2,140,8|10|12,0:0|0:0|0:0,0:0:0:0:
407,12,278333,1,2,0:0:0:0:
512,198,278484,2,0,L|408:192,1,70,8|0,0:0|0:0,0:0:0:0:
325,315,278787,6,0,L|320:384,1,70,10|0,0:0|0:0,0:0:0:0:
271,215,279090,1,8,0:0:0:0:
175,266,279242,2,0,L|179:196,1,70,2|12,0:0|0:0,0:0:0:0:
309,51,279545,2,0,L|304:120,1,70,0|10,0:0|0:0,0:0:0:0:
149,36,279848,6,0,L|79:40,2,70,0|8|0,0:0|0:0|0:0,0:0:0:0:
309,51,280302,1,10,0:0:0:0:
406,60,280454,2,0,L|475:55,1,70,0|12,0:0|0:0,0:0:0:0:
415,222,280757,1,2,0:0:0:0:
342,145,280909,2,0,L|272:150,1,70,8|0,0:0|0:0,0:0:0:0:
444,345,281212,22,0,L|304:336,1,140,10|8,0:0|0:0,0:0:0:0:
95,290,281666,1,2,0:0:0:0:
206,275,281818,2,0,L|136:270,1,70,12|0,0:0|0:0,0:0:0:0:
187,57,282121,1,10,0:0:0:0:
271,106,282272,1,0,0:0:0:0:
360,146,282424,6,0,L|355:77,2,70,8|0|10,0:0|0:0|0:0,0:0:0:0:
206,275,282879,2,0,L|201:205,1,70,0|12,0:0|0:0,0:0:0:0:
397,309,283181,1,2,0:0:0:0:
309,353,283333,2,0,L|305:283,1,70,8|0,0:0|0:0,0:0:0:0:
62,197,283636,6,0,L|201:205,1,140,10|8,0:0|0:0,0:0:0:0:
341,108,284090,1,2,0:0:0:0:
261,50,284242,2,0,L|192:45,1,70,12|0,0:0|0:0,0:0:0:0:
371,202,284545,2,0,L|441:206,1,70,10|0,0:0|0:0,0:0:0:0:
307,312,284848,6,0,B|260:320|260:320|145:283,2,140,8|10|12,0:0|0:0|0:0,0:0:0:0:
261,235,285606,1,2,0:0:0:0:
392,342,285757,2,0,L|467:327,1,70,8|0,0:0|0:0,0:0:0:0:
467,156,286060,22,0,L|397:160,1,70,10|0,0:0|0:0,0:0:0:0:
287,50,286363,2,0,L|356:46,1,70,8|2,0:0|0:0,0:0:0:0:
181,120,286666,2,0,L|41:111,1,140,12|10,0:0|0:0,0:0:0:0:
391,295,287272,6,0,L|251:303,2,140,8|10|12,0:0|0:0|0:0,0:0:0:0:
304,384,288030,1,2,0:0:0:0:
277,222,288181,2,0,L|355:218,1,70,8|0,0:0|0:0,0:0:0:0:
221,111,288484,6,0,L|217:42,1,70,10|0,0:0|0:0,0:0:0:0:
57,261,288787,1,8,0:0:0:0:
127,189,288939,2,0,L|123:119,1,70,2|12,0:0|0:0,0:0:0:0:
251,302,289242,2,0,L|255:372,1,70,0|10,0:0|0:0,0:0:0:0:
375,199,289545,2,0,L|371:129,1,70,0|8,0:0|0:0,0:0:0:0:
251,12,289848,5,0,0:0:0:0:
263,123,290000,1,2,0:0:0:0:
279,234,290151,2,0,B|294:280|349:304|349:304|287:304,1,140,2|2,0:0|0:0,0:0:0:0:
51,375,290606,6,0,B|13:375|13:375|68:351|84:304,1,140,4|0,0:0|0:0,0:0:0:0:
256,192,290909,12,0,300606,0:0:0:0:
