osu file format v14

[General]
AudioFilename: audio.mp3
AudioLeadIn: 0
PreviewTime: -1
Countdown: 1
SampleSet: None
StackLeniency: 0.7
Mode: 0
LetterboxInBreaks: 0
WidescreenStoryboard: 0

[Editor]
DistanceSpacing: 0.8
BeatDivisor: 1
GridSize: 32
TimelineZoom: 1

[Metadata]
Title:Infra Turbo Pigcart Racer
TitleUnicode:Infra Turbo Pigcart Racer
Artist:deadmau5
ArtistUnicode:deadmau5
Creator:despicablealex
Version:Insane
Source:
Tags:
BeatmapID:1209956
BeatmapSetID:570869

[Difficulty]
HPDrainRate:9
CircleSize:7
OverallDifficulty:9
ApproachRate:8
SliderMultiplier:1.4
SliderTickRate:1

[Events]
//Background and Video events
//Break Periods
//Storyboard Layer 0 (Background)
//Storyboard Layer 1 (Fail)
//Storyboard Layer 2 (Pass)
//Storyboard Layer 3 (Foreground)
//Storyboard Sound Samples

[TimingPoints]
0,405.405405405405,4,1,0,100,1,0
119881,287.081339712919,4,1,0,100,1,0
149801,173.913043478261,4,1,0,100,1,0
270661,405.405405405405,4,1,0,100,1,0
345064,287.081339712919,4,1,0,100,1,0
374914,173.913043478261,4,1,0,100,1,0

[HitObjects]
72,59,35675,5,0,0:0:0:0:
293,66,36081,1,0,0:0:0:0:
166,67,36891,1,0,0:0:0:0:
312,63,37297,1,0,0:0:0:0:
216,75,38108,1,0,0:0:0:0:
303,73,38513,1,0,0:0:0:0:
232,91,38918,1,0,0:0:0:0:
317,84,39729,1,0,0:0:0:0:
143,65,40135,1,0,0:0:0:0:
331,61,40540,1,0,0:0:0:0:
82,176,42162,1,0,0:0:0:0:
403,159,42567,1,0,0:0:0:0:
127,108,44189,1,0,0:0:0:0:
129,120,44594,1,0,0:0:0:0:
336,94,45810,1,0,0:0:0:0:
340,118,46621,1,0,0:0:0:0:
109,231,48243,1,0,0:0:0:0:
109,247,49054,1,0,0:0:0:0:
342,223,50270,1,0,0:0:0:0:
344,241,51081,1,0,0:0:0:0:
329,67,52702,1,0,0:0:0:0:
332,88,53108,1,0,0:0:0:0:
336,104,53918,1,0,0:0:0:0:
334,122,54729,1,0,0:0:0:0:
337,135,55540,1,0,0:0:0:0:
337,149,55945,1,0,0:0:0:0:
339,160,56756,1,0,0:0:0:0:
340,169,57567,1,0,0:0:0:0:
340,175,57972,1,0,0:0:0:0:
340,177,58378,1,0,0:0:0:0:
340,188,59189,1,0,0:0:0:0:
337,201,59594,1,0,0:0:0:0:
88,105,60000,1,0,0:0:0:0:
261,140,61216,1,0,0:0:0:0:
83,99,62432,1,0,0:0:0:0:
89,125,62837,1,0,0:0:0:0:
155,101,63243,1,0,0:0:0:0:
160,124,63648,1,0,0:0:0:0:
184,103,64459,1,0,0:0:0:0:
192,128,64864,1,0,0:0:0:0:
247,97,65270,1,0,0:0:0:0:
248,116,65675,1,0,0:0:0:0:
289,101,66486,1,0,0:0:0:0:
293,126,66891,1,0,0:0:0:0:
323,102,67702,1,0,0:0:0:0:
328,130,68513,1,0,0:0:0:0:
376,100,68918,1,0,0:0:0:0:
376,130,69324,1,0,0:0:0:0:
414,97,70135,1,0,0:0:0:0:
423,137,70540,1,0,0:0:0:0:
449,109,71351,1,0,0:0:0:0:
454,140,72162,1,0,0:0:0:0:
81,226,73378,1,0,0:0:0:0:
81,254,74189,1,0,0:0:0:0:
129,224,74594,1,0,0:0:0:0:
128,264,75405,1,0,0:0:0:0:
174,229,76621,1,0,0:0:0:0:
176,242,77027,1,0,0:0:0:0:
214,224,77837,1,0,0:0:0:0:
217,247,78243,1,0,0:0:0:0:
297,218,79054,1,0,0:0:0:0:
299,247,79864,1,0,0:0:0:0:
348,229,80675,1,0,0:0:0:0:
347,262,81486,1,0,0:0:0:0:
378,240,81891,1,0,0:0:0:0:
382,266,82702,1,0,0:0:0:0:
431,233,83513,1,0,0:0:0:0:
437,260,83918,1,0,0:0:0:0:
63,77,85540,1,0,0:0:0:0:
68,104,86351,1,0,0:0:0:0:
165,84,87162,1,0,0:0:0:0:
172,108,87567,1,0,0:0:0:0:
226,101,88378,1,0,0:0:0:0:
234,126,88783,1,0,0:0:0:0:
278,112,89189,1,0,0:0:0:0:
281,137,90000,1,0,0:0:0:0:
323,113,90405,1,0,0:0:0:0:
330,138,91216,1,0,0:0:0:0:
369,118,91621,1,0,0:0:0:0:
374,144,92027,1,0,0:0:0:0:
426,119,92837,1,0,0:0:0:0:
430,143,93243,1,0,0:0:0:0:
467,125,93648,1,0,0:0:0:0:
471,147,94459,1,0,0:0:0:0:
81,248,95675,1,0,0:0:0:0:
80,268,96081,1,0,0:0:0:0:
149,235,97702,1,0,0:0:0:0:
145,263,98108,1,0,0:0:0:0:
197,238,98918,1,0,0:0:0:0:
199,259,99324,1,0,0:0:0:0:
230,242,100135,1,0,0:0:0:0:
229,271,100945,1,0,0:0:0:0:
304,238,101756,1,0,0:0:0:0:
303,266,102162,1,0,0:0:0:0:
342,241,103378,1,0,0:0:0:0:
345,267,104189,1,0,0:0:0:0:
384,244,105000,1,0,0:0:0:0:
386,275,105405,1,0,0:0:0:0:
428,239,107027,1,0,0:0:0:0:
434,251,107432,1,0,0:0:0:0:
466,242,108648,1,0,0:0:0:0:
468,261,109459,1,0,0:0:0:0:
454,94,110675,1,0,0:0:0:0:
454,111,111081,1,0,0:0:0:0:
348,101,112297,1,0,0:0:0:0:
346,116,112702,1,0,0:0:0:0:
232,91,113513,1,0,0:0:0:0:
236,109,114324,1,0,0:0:0:0:
151,93,115135,1,0,0:0:0:0:
148,105,115540,1,0,0:0:0:0:
104,83,116756,1,0,0:0:0:0:
105,97,117162,1,0,0:0:0:0:
72,72,118378,1,0,0:0:0:0:
66,97,119189,1,0,0:0:0:0:
111,64,120168,1,0,0:0:0:0:
110,117,120455,1,0,0:0:0:0:
216,144,121029,1,0,0:0:0:0:
208,95,121603,1,0,0:0:0:0:
245,93,121890,1,0,0:0:0:0:
283,117,122464,1,0,0:0:0:0:
275,161,122751,1,0,0:0:0:0:
362,145,123325,1,0,0:0:0:0:
345,83,123900,1,0,0:0:0:0:
242,101,124474,1,0,0:0:0:0:
224,172,125048,1,0,0:0:0:0:
95,147,125622,1,0,0:0:0:0:
117,94,125909,1,0,0:0:0:0:
206,97,126483,1,0,0:0:0:0:
208,164,127058,1,0,0:0:0:0:
299,139,127632,1,0,0:0:0:0:
314,92,128206,1,0,0:0:0:0:
385,96,128493,1,0,0:0:0:0:
380,170,129067,1,0,0:0:0:0:
308,211,129641,1,0,0:0:0:0:
180,214,130215,1,0,0:0:0:0:
131,166,130790,1,0,0:0:0:0:
186,104,131364,1,0,0:0:0:0:
323,157,131651,1,0,0:0:0:0:
254,170,132225,1,0,0:0:0:0:
177,227,132512,1,0,0:0:0:0:
93,148,132799,1,0,0:0:0:0:
207,106,133086,1,0,0:0:0:0:
299,131,133373,1,0,0:0:0:0:
240,255,133947,1,0,0:0:0:0:
234,257,134235,1,0,0:0:0:0:
220,228,134522,1,0,0:0:0:0:
167,169,134809,1,0,0:0:0:0:
224,102,135096,1,0,0:0:0:0:
281,129,135383,1,0,0:0:0:0:
295,188,135670,1,0,0:0:0:0:
290,194,135957,1,0,0:0:0:0:
218,237,136244,1,0,0:0:0:0:
223,215,136531,1,0,0:0:0:0:
211,149,136818,1,0,0:0:0:0:
241,136,137105,1,0,0:0:0:0:
285,131,137392,1,0,0:0:0:0:
300,151,137680,1,0,0:0:0:0:
326,198,137967,1,0,0:0:0:0:
320,223,138254,1,0,0:0:0:0:
314,229,138541,1,0,0:0:0:0:
282,241,138828,1,0,0:0:0:0:
274,243,139115,1,0,0:0:0:0:
234,254,139402,1,0,0:0:0:0:
175,251,139689,1,0,0:0:0:0:
160,249,139976,1,0,0:0:0:0:
146,240,140263,1,0,0:0:0:0:
140,225,140550,1,0,0:0:0:0:
140,200,140837,1,0,0:0:0:0:
142,188,141125,1,0,0:0:0:0:
146,179,141412,1,0,0:0:0:0:
159,170,141699,1,0,0:0:0:0:
188,161,141986,1,0,0:0:0:0:
199,160,142273,1,0,0:0:0:0:
219,159,142560,1,0,0:0:0:0:
225,161,142847,1,0,0:0:0:0:
253,168,143421,1,0,0:0:0:0:
256,176,143708,1,0,0:0:0:0:
260,184,143995,1,0,0:0:0:0:
263,191,144282,1,0,0:0:0:0:
265,196,144569,1,0,0:0:0:0:
266,200,144857,1,0,0:0:0:0:
268,212,145144,1,0,0:0:0:0:
265,219,145431,1,0,0:0:0:0:
264,222,145718,1,0,0:0:0:0:
258,226,146005,1,0,0:0:0:0:
244,230,146292,1,0,0:0:0:0:
241,231,146579,1,0,0:0:0:0:
220,231,146866,1,0,0:0:0:0:
204,230,147153,1,0,0:0:0:0:
204,230,147440,1,0,0:0:0:0:
195,224,147727,1,0,0:0:0:0:
193,223,148014,1,0,0:0:0:0:
185,204,148302,1,0,0:0:0:0:
160,105,148589,1,0,0:0:0:0:
255,114,149163,1,0,0:0:0:0:
225,165,149450,1,0,0:0:0:0:
150,64,149974,1,0,0:0:0:0:
302,80,150322,1,0,0:0:0:0:
333,102,150670,1,0,0:0:0:0:
315,131,150844,1,0,0:0:0:0:
310,138,151018,1,0,0:0:0:0:
299,123,151366,1,0,0:0:0:0:
211,100,151540,1,0,0:0:0:0:
216,109,151887,1,0,0:0:0:0:
282,96,152235,1,0,0:0:0:0:
287,109,152409,1,0,0:0:0:0:
272,115,152757,1,0,0:0:0:0:
108,50,152931,1,0,0:0:0:0:
183,48,153279,1,0,0:0:0:0:
216,78,153453,1,0,0:0:0:0:
216,101,153801,1,0,0:0:0:0:
207,119,154148,1,0,0:0:0:0:
207,126,154322,1,0,0:0:0:0:
233,137,154670,1,0,0:0:0:0:
241,136,154844,1,0,0:0:0:0:
263,135,155018,1,0,0:0:0:0:
282,132,155366,1,0,0:0:0:0:
291,154,155540,1,0,0:0:0:0:
297,166,155714,1,0,0:0:0:0:
296,180,156061,1,0,0:0:0:0:
287,191,156235,1,0,0:0:0:0:
268,194,156409,1,0,0:0:0:0:
241,191,156757,1,0,0:0:0:0:
232,182,156931,1,0,0:0:0:0:
226,170,157105,1,0,0:0:0:0:
228,158,157279,1,0,0:0:0:0:
235,144,157627,1,0,0:0:0:0:
253,140,157801,1,0,0:0:0:0:
279,138,158148,1,0,0:0:0:0:
283,154,158322,1,0,0:0:0:0:
285,161,158496,1,0,0:0:0:0:
281,176,158844,1,0,0:0:0:0:
270,180,159192,1,0,0:0:0:0:
257,182,159366,1,0,0:0:0:0:
257,181,159714,1,0,0:0:0:0:
248,169,159887,1,0,0:0:0:0:
245,161,160061,1,0,0:0:0:0:
246,155,160409,1,0,0:0:0:0:
249,147,160583,1,0,0:0:0:0:
266,140,160931,1,0,0:0:0:0:
275,141,161105,1,0,0:0:0:0:
294,142,161453,1,0,0:0:0:0:
300,137,161627,1,0,0:0:0:0:
304,131,161974,1,0,0:0:0:0:
311,117,162148,1,0,0:0:0:0:
310,113,162496,1,0,0:0:0:0:
308,107,162670,1,0,0:0:0:0:
298,96,163018,1,0,0:0:0:0:
284,92,163192,1,0,0:0:0:0:
269,89,163540,1,0,0:0:0:0:
256,87,163714,1,0,0:0:0:0:
254,87,163887,1,0,0:0:0:0:
239,89,164235,1,0,0:0:0:0:
234,91,164409,1,0,0:0:0:0:
222,94,164757,1,0,0:0:0:0:
219,96,164931,1,0,0:0:0:0:
216,104,165279,1,0,0:0:0:0:
220,108,165453,1,0,0:0:0:0:
235,111,165801,1,0,0:0:0:0:
250,115,165974,1,0,0:0:0:0:
258,123,166322,1,0,0:0:0:0:
260,130,166496,1,0,0:0:0:0:
261,137,166844,1,0,0:0:0:0:
262,143,167018,1,0,0:0:0:0:
258,146,167366,1,0,0:0:0:0:
257,147,167540,1,0,0:0:0:0:
249,147,167887,1,0,0:0:0:0:
241,146,168061,1,0,0:0:0:0:
240,145,168409,1,0,0:0:0:0:
234,147,168583,1,0,0:0:0:0:
230,150,168931,1,0,0:0:0:0:
229,154,169279,1,0,0:0:0:0:
235,166,169453,1,0,0:0:0:0:
251,171,169801,1,0,0:0:0:0:
264,174,169974,1,0,0:0:0:0:
277,174,170322,1,0,0:0:0:0:
291,184,170670,1,0,0:0:0:0:
294,189,170844,1,0,0:0:0:0:
290,210,171192,1,0,0:0:0:0:
285,209,171366,1,0,0:0:0:0:
271,209,171714,1,0,0:0:0:0:
262,206,171887,1,0,0:0:0:0:
250,204,172235,1,0,0:0:0:0:
246,200,172583,1,0,0:0:0:0:
243,194,172757,1,0,0:0:0:0:
243,189,172931,1,0,0:0:0:0:
243,182,173279,1,0,0:0:0:0:
243,178,173627,1,0,0:0:0:0:
243,171,173801,1,0,0:0:0:0:
248,164,174148,1,0,0:0:0:0:
251,160,174322,1,0,0:0:0:0:
251,157,174670,1,0,0:0:0:0:
248,152,174844,1,0,0:0:0:0:
236,144,175192,1,0,0:0:0:0:
235,141,175366,1,0,0:0:0:0:
238,130,175714,1,0,0:0:0:0:
242,127,176061,1,0,0:0:0:0:
251,121,176235,1,0,0:0:0:0:
253,120,176583,1,0,0:0:0:0:
260,118,176931,1,0,0:0:0:0:
269,119,177105,1,0,0:0:0:0:
272,120,177453,1,0,0:0:0:0:
275,128,177627,1,0,0:0:0:0:
281,137,177974,1,0,0:0:0:0:
282,142,178148,1,0,0:0:0:0:
282,145,178496,1,0,0:0:0:0:
276,149,178844,1,0,0:0:0:0:
272,152,179018,1,0,0:0:0:0:
269,155,179366,1,0,0:0:0:0:
268,166,179540,1,0,0:0:0:0:
278,169,179887,1,0,0:0:0:0:
279,173,180235,1,0,0:0:0:0:
279,181,180583,1,0,0:0:0:0:
272,187,180757,1,0,0:0:0:0:
264,188,181105,1,0,0:0:0:0:
251,186,181453,1,0,0:0:0:0:
244,180,181627,1,0,0:0:0:0:
246,170,181974,1,0,0:0:0:0:
252,163,182148,1,0,0:0:0:0:
260,158,182496,1,0,0:0:0:0:
269,154,182844,1,0,0:0:0:0:
272,151,183018,1,0,0:0:0:0:
272,143,183366,1,0,0:0:0:0:
262,135,183540,1,0,0:0:0:0:
256,130,183887,1,0,0:0:0:0:
231,122,184061,1,0,0:0:0:0:
129,96,184235,1,0,0:0:0:0:
142,96,184583,1,0,0:0:0:0:
161,90,184931,1,0,0:0:0:0:
172,88,185105,1,0,0:0:0:0:
202,87,185279,1,0,0:0:0:0:
202,87,185453,1,0,0:0:0:0:
205,89,185627,1,0,0:0:0:0:
224,102,185974,1,0,0:0:0:0:
224,102,186148,1,0,0:0:0:0:
213,107,186322,1,0,0:0:0:0:
213,107,186496,1,0,0:0:0:0:
213,107,186670,1,0,0:0:0:0:
213,107,186844,1,0,0:0:0:0:
232,111,187018,1,0,0:0:0:0:
232,111,187366,1,0,0:0:0:0:
235,111,187540,1,0,0:0:0:0:
242,111,187714,1,0,0:0:0:0:
242,112,187887,1,0,0:0:0:0:
245,112,188061,1,0,0:0:0:0:
257,112,188409,1,0,0:0:0:0:
257,112,188583,1,0,0:0:0:0:
266,114,188757,1,0,0:0:0:0:
266,114,189105,1,0,0:0:0:0:
267,114,189279,1,0,0:0:0:0:
269,114,189453,1,0,0:0:0:0:
272,115,189627,1,0,0:0:0:0:
272,117,189974,1,0,0:0:0:0:
272,118,190148,1,0,0:0:0:0:
270,119,190322,1,0,0:0:0:0:
268,120,190496,1,0,0:0:0:0:
265,120,190844,1,0,0:0:0:0:
265,120,191018,1,0,0:0:0:0:
259,121,191192,1,0,0:0:0:0:
257,121,191540,1,0,0:0:0:0:
253,125,191714,1,0,0:0:0:0:
252,125,191887,1,0,0:0:0:0:
248,126,192235,1,0,0:0:0:0:
248,128,192409,1,0,0:0:0:0:
248,128,192583,1,0,0:0:0:0:
243,129,192757,1,0,0:0:0:0:
243,130,193105,1,0,0:0:0:0:
239,131,193279,1,0,0:0:0:0:
237,131,193453,1,0,0:0:0:0:
233,131,193627,1,0,0:0:0:0:
233,132,193974,1,0,0:0:0:0:
226,128,194148,1,0,0:0:0:0:
225,123,194322,1,0,0:0:0:0:
225,122,194670,1,0,0:0:0:0:
224,119,194844,1,0,0:0:0:0:
224,115,195192,1,0,0:0:0:0:
236,112,195366,1,0,0:0:0:0:
253,113,195714,1,0,0:0:0:0:
258,115,195887,1,0,0:0:0:0:
260,117,196061,1,0,0:0:0:0:
266,122,196409,1,0,0:0:0:0:
268,124,196583,1,0,0:0:0:0:
270,125,196931,1,0,0:0:0:0:
279,126,197105,1,0,0:0:0:0:
279,127,197453,1,0,0:0:0:0:
281,129,197627,1,0,0:0:0:0:
285,137,197974,1,0,0:0:0:0:
286,141,198148,1,0,0:0:0:0:
286,142,198496,1,0,0:0:0:0:
283,146,198670,1,0,0:0:0:0:
282,148,199018,1,0,0:0:0:0:
271,148,199192,1,0,0:0:0:0:
264,148,199366,1,0,0:0:0:0:
257,146,199714,1,0,0:0:0:0:
251,144,199887,1,0,0:0:0:0:
241,140,200235,1,0,0:0:0:0:
240,140,200583,1,0,0:0:0:0:
234,134,200757,1,0,0:0:0:0:
231,129,201105,1,0,0:0:0:0:
226,126,201279,1,0,0:0:0:0:
233,121,201453,1,0,0:0:0:0:
234,120,201801,1,0,0:0:0:0:
234,120,201974,1,0,0:0:0:0:
237,123,202322,1,0,0:0:0:0:
248,126,202670,1,0,0:0:0:0:
248,129,202844,1,0,0:0:0:0:
251,135,203018,1,0,0:0:0:0:
263,147,203366,1,0,0:0:0:0:
272,143,203714,1,0,0:0:0:0:
281,135,203887,1,0,0:0:0:0:
289,134,204235,1,0,0:0:0:0:
293,130,204409,1,0,0:0:0:0:
306,121,204757,1,0,0:0:0:0:
301,123,204931,1,0,0:0:0:0:
301,140,205279,1,0,0:0:0:0:
301,148,205453,1,0,0:0:0:0:
322,136,205801,1,0,0:0:0:0:
322,136,206148,1,0,0:0:0:0:
304,141,206496,1,0,0:0:0:0:
285,147,206670,1,0,0:0:0:0:
286,142,207018,1,0,0:0:0:0:
251,142,207192,1,0,0:0:0:0:
263,136,207540,1,0,0:0:0:0:
262,136,207714,1,0,0:0:0:0:
279,133,208061,1,0,0:0:0:0:
272,134,208235,1,0,0:0:0:0:
292,129,208409,1,0,0:0:0:0:
296,129,208757,1,0,0:0:0:0:
302,127,208931,1,0,0:0:0:0:
316,126,209279,1,0,0:0:0:0:
322,130,209627,1,0,0:0:0:0:
324,138,209801,1,0,0:0:0:0:
323,143,210148,1,0,0:0:0:0:
323,152,210322,1,0,0:0:0:0:
322,157,210670,1,0,0:0:0:0:
319,162,210844,1,0,0:0:0:0:
310,161,211366,5,0,0:0:0:0:
308,161,211714,1,0,0:0:0:0:
293,161,211887,1,0,0:0:0:0:
286,155,212061,1,0,0:0:0:0:
281,148,212409,1,0,0:0:0:0:
281,142,212757,1,0,0:0:0:0:
283,136,212931,1,0,0:0:0:0:
284,136,213105,1,0,0:0:0:0:
275,128,213453,1,0,0:0:0:0:
269,125,213627,1,0,0:0:0:0:
268,120,213974,1,0,0:0:0:0:
268,118,214148,1,0,0:0:0:0:
276,111,214496,1,0,0:0:0:0:
279,109,214670,1,0,0:0:0:0:
275,103,215018,1,0,0:0:0:0:
272,100,215366,1,0,0:0:0:0:
252,90,215714,1,0,0:0:0:0:
226,86,215887,1,0,0:0:0:0:
213,86,216235,1,0,0:0:0:0:
203,94,216583,1,0,0:0:0:0:
200,97,216931,1,0,0:0:0:0:
200,97,217105,1,0,0:0:0:0:
200,100,217453,1,0,0:0:0:0:
202,105,217801,1,0,0:0:0:0:
205,108,218148,1,0,0:0:0:0:
206,112,218322,1,0,0:0:0:0:
207,119,218670,1,0,0:0:0:0:
200,125,219018,1,0,0:0:0:0:
196,130,219366,1,0,0:0:0:0:
188,131,219540,1,0,0:0:0:0:
187,136,219714,1,0,0:0:0:0:
187,138,220061,1,0,0:0:0:0:
187,143,220409,1,0,0:0:0:0:
196,145,220583,1,0,0:0:0:0:
197,146,220931,1,0,0:0:0:0:
201,149,221279,1,0,0:0:0:0:
202,155,221453,1,0,0:0:0:0:
201,158,221801,1,0,0:0:0:0:
197,160,221974,1,0,0:0:0:0:
191,161,222322,1,0,0:0:0:0:
183,160,222496,1,0,0:0:0:0:
178,157,222844,1,0,0:0:0:0:
178,151,223018,1,0,0:0:0:0:
178,146,223366,1,0,0:0:0:0:
178,146,223540,1,0,0:0:0:0:
180,131,223887,1,0,0:0:0:0:
182,129,224061,1,0,0:0:0:0:
189,125,224235,1,0,0:0:0:0:
191,124,224583,1,0,0:0:0:0:
203,123,224757,1,0,0:0:0:0:
203,123,224931,1,0,0:0:0:0:
206,121,225279,1,0,0:0:0:0:
216,117,225453,1,0,0:0:0:0:
233,113,225801,1,0,0:0:0:0:
239,111,225974,1,0,0:0:0:0:
255,111,226322,1,0,0:0:0:0:
260,116,226496,1,0,0:0:0:0:
263,123,226844,1,0,0:0:0:0:
254,131,227018,1,0,0:0:0:0:
234,137,227366,1,0,0:0:0:0:
234,137,227540,1,0,0:0:0:0:
213,140,227887,1,0,0:0:0:0:
202,142,228235,1,0,0:0:0:0:
198,142,228409,1,0,0:0:0:0:
183,138,228757,1,0,0:0:0:0:
179,136,229105,1,0,0:0:0:0:
165,134,229453,1,0,0:0:0:0:
160,130,229627,1,0,0:0:0:0:
152,126,229974,1,0,0:0:0:0:
154,120,230148,1,0,0:0:0:0:
159,113,230496,1,0,0:0:0:0:
169,110,230670,1,0,0:0:0:0:
169,110,231018,1,0,0:0:0:0:
177,108,231366,1,0,0:0:0:0:
179,108,231540,1,0,0:0:0:0:
192,107,231887,1,0,0:0:0:0:
200,107,232061,1,0,0:0:0:0:
207,109,232409,1,0,0:0:0:0:
213,118,232583,1,0,0:0:0:0:
218,122,232931,1,0,0:0:0:0:
219,126,233105,1,0,0:0:0:0:
228,135,233453,1,0,0:0:0:0:
230,138,233627,1,0,0:0:0:0:
242,141,233974,1,0,0:0:0:0:
246,142,234322,1,0,0:0:0:0:
248,142,234496,1,0,0:0:0:0:
248,142,234844,1,0,0:0:0:0:
251,141,235192,1,0,0:0:0:0:
252,141,235540,1,0,0:0:0:0:
248,142,235714,1,0,0:0:0:0:
244,143,236061,1,0,0:0:0:0:
221,148,236409,1,0,0:0:0:0:
213,149,236757,1,0,0:0:0:0:
206,152,236931,1,0,0:0:0:0:
205,152,237105,1,0,0:0:0:0:
205,151,237453,1,0,0:0:0:0:
188,151,237627,1,0,0:0:0:0:
188,151,237974,1,0,0:0:0:0:
184,148,238322,1,0,0:0:0:0:
184,148,238496,1,0,0:0:0:0:
177,148,238844,1,0,0:0:0:0:
176,148,239192,1,0,0:0:0:0:
174,147,239366,1,0,0:0:0:0:
167,146,239714,1,0,0:0:0:0:
162,144,239887,1,0,0:0:0:0:
162,132,240235,1,0,0:0:0:0:
165,128,240409,1,0,0:0:0:0:
173,123,240757,1,0,0:0:0:0:
183,119,241105,1,0,0:0:0:0:
184,117,241627,5,0,0:0:0:0:
183,119,241801,1,0,0:0:0:0:
204,111,242148,1,0,0:0:0:0:
208,109,242322,1,0,0:0:0:0:
213,108,242670,1,0,0:0:0:0:
219,108,243018,1,0,0:0:0:0:
232,113,243192,1,0,0:0:0:0:
234,114,243714,5,0,0:0:0:0:
243,114,244061,1,0,0:0:0:0:
249,117,244409,1,0,0:0:0:0:
259,121,244583,1,0,0:0:0:0:
265,126,244931,1,0,0:0:0:0:
266,128,245105,1,0,0:0:0:0:
266,130,245453,1,0,0:0:0:0:
263,134,245627,1,0,0:0:0:0:
260,138,245974,1,0,0:0:0:0:
258,141,246322,1,0,0:0:0:0:
253,144,246496,1,0,0:0:0:0:
251,147,246844,1,0,0:0:0:0:
247,151,247018,1,0,0:0:0:0:
242,154,247366,1,0,0:0:0:0:
229,159,247540,1,0,0:0:0:0:
228,159,247887,1,0,0:0:0:0:
217,160,248061,1,0,0:0:0:0:
200,160,248409,1,0,0:0:0:0:
191,158,248583,1,0,0:0:0:0:
186,154,248931,1,0,0:0:0:0:
185,154,249105,1,0,0:0:0:0:
183,149,249453,1,0,0:0:0:0:
182,147,249627,1,0,0:0:0:0:
176,135,249974,1,0,0:0:0:0:
175,130,250148,1,0,0:0:0:0:
175,125,250496,1,0,0:0:0:0:
179,120,250670,1,0,0:0:0:0:
182,117,251018,1,0,0:0:0:0:
184,116,251366,1,0,0:0:0:0:
191,112,251540,1,0,0:0:0:0:
195,111,251887,1,0,0:0:0:0:
201,109,252061,1,0,0:0:0:0:
207,109,252409,1,0,0:0:0:0:
207,109,252583,1,0,0:0:0:0:
222,109,252931,1,0,0:0:0:0:
222,109,253279,1,0,0:0:0:0:
227,109,253627,1,0,0:0:0:0:
231,111,253974,1,0,0:0:0:0:
231,113,254322,1,0,0:0:0:0:
232,113,254496,1,0,0:0:0:0:
252,119,254844,1,0,0:0:0:0:
252,119,255192,1,0,0:0:0:0:
252,119,255366,1,0,0:0:0:0:
257,119,255714,1,0,0:0:0:0:
260,119,256061,1,0,0:0:0:0:
260,119,256235,1,0,0:0:0:0:
266,120,256757,1,0,0:0:0:0:
266,120,257105,1,0,0:0:0:0:
266,120,257279,1,0,0:0:0:0:
266,120,257627,1,0,0:0:0:0:
270,125,257974,1,0,0:0:0:0:
272,128,258322,1,0,0:0:0:0:
272,132,258496,1,0,0:0:0:0:
269,138,258844,1,0,0:0:0:0:
268,140,259018,1,0,0:0:0:0:
264,143,259366,1,0,0:0:0:0:
252,149,259540,1,0,0:0:0:0:
249,151,259887,1,0,0:0:0:0:
249,151,260061,1,0,0:0:0:0:
239,152,260235,1,0,0:0:0:0:
237,152,260583,1,0,0:0:0:0:
232,142,260757,1,0,0:0:0:0:
232,141,260931,1,0,0:0:0:0:
234,138,261279,1,0,0:0:0:0:
236,136,261453,1,0,0:0:0:0:
241,131,261801,1,0,0:0:0:0:
242,129,261974,1,0,0:0:0:0:
242,125,262322,1,0,0:0:0:0:
242,123,262496,1,0,0:0:0:0:
240,119,262670,1,0,0:0:0:0:
240,118,263018,1,0,0:0:0:0:
240,116,263366,1,0,0:0:0:0:
245,114,263540,1,0,0:0:0:0:
245,114,263887,1,0,0:0:0:0:
246,112,264061,1,0,0:0:0:0:
248,109,264409,1,0,0:0:0:0:
251,107,264757,1,0,0:0:0:0:
256,104,265105,1,0,0:0:0:0:
260,104,265279,1,0,0:0:0:0:
264,103,265627,1,0,0:0:0:0:
268,103,265974,1,0,0:0:0:0:
268,103,266148,1,0,0:0:0:0:
269,102,266496,1,0,0:0:0:0:
274,101,266670,1,0,0:0:0:0:
282,101,267018,1,0,0:0:0:0:
289,101,267366,1,0,0:0:0:0:
294,111,267714,1,0,0:0:0:0:
292,112,267887,1,0,0:0:0:0:
284,121,268235,1,0,0:0:0:0:
283,121,268409,1,0,0:0:0:0:
277,125,268583,1,0,0:0:0:0:
271,127,268931,1,0,0:0:0:0:
269,127,269279,1,0,0:0:0:0:
262,127,269453,1,0,0:0:0:0:
262,127,269974,1,0,0:0:0:0:
140,86,271066,1,0,0:0:0:0:
150,98,271877,1,0,0:0:0:0:
162,98,272688,1,0,0:0:0:0:
219,84,273498,1,0,0:0:0:0:
207,113,274309,1,0,0:0:0:0:
193,127,274715,1,0,0:0:0:0:
186,140,275525,1,0,0:0:0:0:
176,146,276336,1,0,0:0:0:0:
173,148,276742,1,0,0:0:0:0:
173,148,277552,1,0,0:0:0:0:
168,141,277958,1,0,0:0:0:0:
164,124,278363,1,0,0:0:0:0:
164,124,278769,1,0,0:0:0:0:
159,113,279174,1,0,0:0:0:0:
280,142,279985,1,0,0:0:0:0:
174,170,280796,1,0,0:0:0:0:
214,135,281606,1,0,0:0:0:0:
234,124,282012,1,0,0:0:0:0:
246,120,282823,1,0,0:0:0:0:
246,120,283228,1,0,0:0:0:0:
253,119,283633,1,0,0:0:0:0:
304,116,284444,1,0,0:0:0:0:
304,116,284850,1,0,0:0:0:0:
282,121,285255,1,0,0:0:0:0:
282,121,286066,1,0,0:0:0:0:
275,125,286471,1,0,0:0:0:0:
266,131,287282,1,0,0:0:0:0:
266,131,287688,1,0,0:0:0:0:
266,131,288498,1,0,0:0:0:0:
266,131,288904,1,0,0:0:0:0:
262,132,289309,1,0,0:0:0:0:
262,132,289715,1,0,0:0:0:0:
244,137,290525,1,0,0:0:0:0:
244,137,290931,1,0,0:0:0:0:
244,137,291742,1,0,0:0:0:0:
244,137,292147,1,0,0:0:0:0:
244,137,292552,1,0,0:0:0:0:
239,136,293363,1,0,0:0:0:0:
239,136,293769,1,0,0:0:0:0:
239,136,294174,1,0,0:0:0:0:
222,135,294985,1,0,0:0:0:0:
212,136,295796,1,0,0:0:0:0:
212,136,296201,1,0,0:0:0:0:
201,138,296606,1,0,0:0:0:0:
201,138,297012,1,0,0:0:0:0:
195,139,297417,1,0,0:0:0:0:
200,126,297823,1,0,0:0:0:0:
212,119,298633,1,0,0:0:0:0:
212,119,299039,1,0,0:0:0:0:
212,119,299444,1,0,0:0:0:0:
246,115,299850,1,0,0:0:0:0:
263,119,300661,1,0,0:0:0:0:
267,125,301471,1,0,0:0:0:0:
264,129,301877,1,0,0:0:0:0:
246,141,302688,1,0,0:0:0:0:
219,144,303093,1,0,0:0:0:0:
202,144,303498,1,0,0:0:0:0:
191,144,304309,1,0,0:0:0:0:
177,138,304715,1,0,0:0:0:0:
171,137,305120,1,0,0:0:0:0:
166,129,305931,1,0,0:0:0:0:
166,124,306336,1,0,0:0:0:0:
166,118,307147,5,0,0:0:0:0:
173,113,307552,1,0,0:0:0:0:
178,111,307958,1,0,0:0:0:0:
184,108,308769,1,0,0:0:0:0:
190,103,309174,1,0,0:0:0:0:
197,100,309579,1,0,0:0:0:0:
197,100,310390,1,0,0:0:0:0:
217,100,310796,1,0,0:0:0:0:
239,100,312012,1,0,0:0:0:0:
239,100,312417,1,0,0:0:0:0:
250,101,312823,1,0,0:0:0:0:
258,101,313633,1,0,0:0:0:0:
306,111,315255,1,0,0:0:0:0:
316,130,315661,1,0,0:0:0:0:
304,149,316471,1,0,0:0:0:0:
218,157,317688,1,0,0:0:0:0:
216,139,318093,1,0,0:0:0:0:
220,109,318904,1,0,0:0:0:0:
242,97,319309,1,0,0:0:0:0:
269,91,319715,1,0,0:0:0:0:
316,90,320525,1,0,0:0:0:0:
316,106,321336,1,0,0:0:0:0:
304,118,322147,1,0,0:0:0:0:
292,121,322552,1,0,0:0:0:0:
292,121,323769,1,0,0:0:0:0:
247,125,324579,1,0,0:0:0:0:
236,119,325390,1,0,0:0:0:0:
236,119,326201,1,0,0:0:0:0:
222,131,326606,1,0,0:0:0:0:
188,136,327417,1,0,0:0:0:0:
180,119,327823,1,0,0:0:0:0:
181,111,328633,1,0,0:0:0:0:
185,103,329039,1,0,0:0:0:0:
185,103,329444,1,0,0:0:0:0:
185,103,329850,1,0,0:0:0:0:
187,93,330661,1,0,0:0:0:0:
242,63,331471,1,0,0:0:0:0:
223,92,332688,1,0,0:0:0:0:
270,95,333498,1,0,0:0:0:0:
259,116,334309,1,0,0:0:0:0:
248,120,335120,1,0,0:0:0:0:
230,124,335931,1,0,0:0:0:0:
165,142,337147,1,0,0:0:0:0:
182,128,337958,1,0,0:0:0:0:
208,129,338769,1,0,0:0:0:0:
261,111,339579,1,0,0:0:0:0:
226,149,340390,1,0,0:0:0:0:
226,137,341606,1,0,0:0:0:0:
217,147,342012,1,0,0:0:0:0:
206,140,342823,1,0,0:0:0:0:
206,140,344039,1,0,0:0:0:0:
195,138,344444,1,0,0:0:0:0:
125,73,345351,5,0,0:0:0:0:
165,63,345925,1,0,0:0:0:0:
208,70,346212,1,0,0:0:0:0:
247,79,347073,1,0,0:0:0:0:
294,83,347360,1,0,0:0:0:0:
287,111,347934,1,0,0:0:0:0:
266,120,348796,1,0,0:0:0:0:
235,129,349370,1,0,0:0:0:0:
180,122,349657,1,0,0:0:0:0:
182,83,350231,1,0,0:0:0:0:
241,46,350805,1,0,0:0:0:0:
279,64,351379,1,0,0:0:0:0:
303,90,351953,1,0,0:0:0:0:
311,98,352528,1,0,0:0:0:0:
272,119,352815,1,0,0:0:0:0:
219,118,353389,1,0,0:0:0:0:
223,81,353963,1,0,0:0:0:0:
315,77,354537,1,0,0:0:0:0:
267,95,354824,1,0,0:0:0:0:
257,103,355398,1,0,0:0:0:0:
243,104,355973,1,0,0:0:0:0:
223,111,356547,1,0,0:0:0:0:
206,113,357121,1,0,0:0:0:0:
176,114,357695,1,0,0:0:0:0:
171,113,358269,1,0,0:0:0:0:
126,114,358843,1,0,0:0:0:0:
126,114,359418,1,0,0:0:0:0:
134,120,359992,1,0,0:0:0:0:
172,126,360566,1,0,0:0:0:0:
204,136,361140,1,0,0:0:0:0:
204,136,361427,1,0,0:0:0:0:
248,142,362001,1,0,0:0:0:0:
248,142,362288,1,0,0:0:0:0:
228,149,362863,1,0,0:0:0:0:
228,149,363437,1,0,0:0:0:0:
220,152,364011,1,0,0:0:0:0:
213,149,364585,1,0,0:0:0:0:
207,144,365159,1,0,0:0:0:0:
203,140,365446,1,0,0:0:0:0:
197,139,366020,1,0,0:0:0:0:
197,139,366308,1,0,0:0:0:0:
197,139,366595,1,0,0:0:0:0:
197,139,366882,1,0,0:0:0:0:
208,135,367456,1,0,0:0:0:0:
231,120,368030,1,0,0:0:0:0:
237,117,368604,1,0,0:0:0:0:
248,115,369178,1,0,0:0:0:0:
249,115,369752,1,0,0:0:0:0:
264,118,370040,1,0,0:0:0:0:
270,117,370901,1,0,0:0:0:0:
249,120,371188,1,0,0:0:0:0:
249,120,371762,1,0,0:0:0:0:
249,120,372336,1,0,0:0:0:0:
252,117,372910,1,0,0:0:0:0:
252,117,373485,1,0,0:0:0:0:
252,117,373772,1,0,0:0:0:0:
252,117,374059,1,0,0:0:0:0:
252,117,374346,1,0,0:0:0:0:
252,117,374633,1,0,0:0:0:0:
98,102,375261,1,0,0:0:0:0:
123,92,375609,1,0,0:0:0:0:
154,83,376131,1,0,0:0:0:0:
166,100,376653,1,0,0:0:0:0:
192,113,377174,1,0,0:0:0:0:
213,131,377696,1,0,0:0:0:0:
224,153,378218,1,0,0:0:0:0:
216,169,378740,1,0,0:0:0:0:
191,166,379087,1,0,0:0:0:0:
159,117,379609,1,0,0:0:0:0:
159,117,379783,1,0,0:0:0:0:
159,117,379957,1,0,0:0:0:0:
159,117,380131,1,0,0:0:0:0:
224,111,380653,1,0,0:0:0:0:
224,111,381000,1,0,0:0:0:0:
189,113,381348,1,0,0:0:0:0:
189,113,381696,1,0,0:0:0:0:
189,113,381870,1,0,0:0:0:0:
189,113,382044,1,0,0:0:0:0:
226,109,382566,1,0,0:0:0:0:
226,109,382914,1,0,0:0:0:0:
226,109,383087,1,0,0:0:0:0:
226,109,383435,1,0,0:0:0:0:
224,118,383609,1,0,0:0:0:0:
224,120,383783,1,0,0:0:0:0:
224,123,383957,1,0,0:0:0:0:
235,129,384305,1,0,0:0:0:0:
239,130,384479,1,0,0:0:0:0:
241,130,384653,1,0,0:0:0:0:
244,126,385000,1,0,0:0:0:0:
247,120,385174,1,0,0:0:0:0:
250,119,385348,1,0,0:0:0:0:
258,118,385522,1,0,0:0:0:0:
266,120,385870,1,0,0:0:0:0:
276,128,386044,1,0,0:0:0:0:
280,131,386218,1,0,0:0:0:0:
280,139,386566,1,0,0:0:0:0:
276,144,386740,1,0,0:0:0:0:
269,150,386914,1,0,0:0:0:0:
265,153,387087,1,0,0:0:0:0:
262,157,387435,1,0,0:0:0:0:
254,160,387609,1,0,0:0:0:0:
245,164,387783,1,0,0:0:0:0:
241,165,388131,1,0,0:0:0:0:
240,162,388305,1,0,0:0:0:0:
217,157,388479,1,0,0:0:0:0:
206,150,388827,1,0,0:0:0:0:
206,150,389000,1,0,0:0:0:0:
203,149,389348,1,0,0:0:0:0:
203,148,389522,1,0,0:0:0:0:
204,146,389696,1,0,0:0:0:0:
205,142,390044,1,0,0:0:0:0:
207,138,390218,1,0,0:0:0:0:
210,132,390740,5,0,0:0:0:0:
211,132,391087,1,0,0:0:0:0:
210,132,391261,1,0,0:0:0:0:
216,129,391609,1,0,0:0:0:0:
219,126,391783,1,0,0:0:0:0:
224,124,392131,1,0,0:0:0:0:
224,124,392305,1,0,0:0:0:0:
224,124,392479,1,0,0:0:0:0:
235,124,392827,1,0,0:0:0:0:
236,123,393000,1,0,0:0:0:0:
247,123,393348,1,0,0:0:0:0:
249,123,393696,1,0,0:0:0:0:
249,122,394044,1,0,0:0:0:0:
250,122,394218,1,0,0:0:0:0:
255,125,394566,1,0,0:0:0:0:
264,125,394914,1,0,0:0:0:0:
264,125,395087,1,0,0:0:0:0:
270,126,395435,1,0,0:0:0:0:
270,126,395609,1,0,0:0:0:0:
284,132,395957,1,0,0:0:0:0:
284,132,396131,1,0,0:0:0:0:
287,138,396479,1,0,0:0:0:0:
291,140,396653,1,0,0:0:0:0:
291,146,397000,1,0,0:0:0:0:
291,151,397174,1,0,0:0:0:0:
288,156,397522,1,0,0:0:0:0:
288,157,397696,1,0,0:0:0:0:
285,159,398044,1,0,0:0:0:0:
281,161,398218,1,0,0:0:0:0:
272,163,398566,1,0,0:0:0:0:
268,164,398740,1,0,0:0:0:0:
257,166,399087,1,0,0:0:0:0:
252,166,399435,1,0,0:0:0:0:
239,166,399609,1,0,0:0:0:0:
227,166,399957,1,0,0:0:0:0:
224,167,400305,1,0,0:0:0:0:
222,170,400479,1,0,0:0:0:0:
222,170,400827,1,0,0:0:0:0:
202,166,401000,1,0,0:0:0:0:
191,159,401348,1,0,0:0:0:0:
190,154,401696,1,0,0:0:0:0:
187,148,401870,1,0,0:0:0:0:
187,147,402218,1,0,0:0:0:0:
187,142,402566,1,0,0:0:0:0:
188,138,402914,1,0,0:0:0:0:
191,136,403261,1,0,0:0:0:0:
204,128,403609,1,0,0:0:0:0:
204,128,403957,1,0,0:0:0:0:
229,133,404305,1,0,0:0:0:0:
229,133,404653,1,0,0:0:0:0:
229,133,405000,1,0,0:0:0:0:
232,135,405174,1,0,0:0:0:0:
233,136,405522,1,0,0:0:0:0:
238,138,405696,1,0,0:0:0:0:
243,141,406044,1,0,0:0:0:0:
247,143,406218,1,0,0:0:0:0:
253,144,406566,1,0,0:0:0:0:
258,146,406740,1,0,0:0:0:0:
285,149,407087,1,0,0:0:0:0:
285,149,407261,1,0,0:0:0:0:
285,149,407435,1,0,0:0:0:0:
289,151,407783,1,0,0:0:0:0:
296,151,407957,1,0,0:0:0:0:
296,151,408131,1,0,0:0:0:0:
309,152,408479,1,0,0:0:0:0:
309,152,408653,1,0,0:0:0:0:
310,152,408827,1,0,0:0:0:0:
305,153,409174,1,0,0:0:0:0:
305,153,409348,1,0,0:0:0:0:
305,153,409522,1,0,0:0:0:0:
305,153,409870,1,0,0:0:0:0:
305,153,410044,1,0,0:0:0:0:
312,154,410218,1,0,0:0:0:0:
314,154,410566,1,0,0:0:0:0:
320,154,410740,1,0,0:0:0:0:
327,155,411087,1,0,0:0:0:0:
327,155,411261,1,0,0:0:0:0:
336,158,411609,1,0,0:0:0:0:
339,160,411957,1,0,0:0:0:0:
343,164,412131,1,0,0:0:0:0:
345,168,412479,1,0,0:0:0:0:
348,172,412653,1,0,0:0:0:0:
348,174,413000,1,0,0:0:0:0:
350,176,413348,1,0,0:0:0:0:
350,179,413522,1,0,0:0:0:0:
350,179,413870,1,0,0:0:0:0:
351,182,414218,1,0,0:0:0:0:
351,185,414566,1,0,0:0:0:0:
350,187,414914,1,0,0:0:0:0:
346,191,415087,1,0,0:0:0:0:
343,192,415435,1,0,0:0:0:0:
332,195,415783,1,0,0:0:0:0:
331,196,416131,1,0,0:0:0:0:
331,196,416305,1,0,0:0:0:0:
327,203,416653,1,0,0:0:0:0:
327,203,417000,1,0,0:0:0:0:
323,204,417174,1,0,0:0:0:0:
323,205,417522,1,0,0:0:0:0:
321,206,417696,1,0,0:0:0:0:
319,207,418044,1,0,0:0:0:0:
317,209,418392,1,0,0:0:0:0:
317,209,418566,1,0,0:0:0:0:
312,210,418914,1,0,0:0:0:0:
311,211,419087,1,0,0:0:0:0:
306,211,419435,1,0,0:0:0:0:
300,211,419783,1,0,0:0:0:0:
290,211,419957,1,0,0:0:0:0:
290,211,420131,1,0,0:0:0:0:
285,211,420479,1,0,0:0:0:0:
285,211,420827,1,0,0:0:0:0:
285,211,421000,1,0,0:0:0:0:
285,211,421348,1,0,0:0:0:0:
285,211,421522,1,0,0:0:0:0:
280,212,421870,1,0,0:0:0:0:
269,214,422044,1,0,0:0:0:0:
268,214,422392,1,0,0:0:0:0:
251,215,422566,1,0,0:0:0:0:
251,215,422914,1,0,0:0:0:0:
251,215,423087,1,0,0:0:0:0:
251,215,423261,1,0,0:0:0:0:
251,215,423609,1,0,0:0:0:0:
245,215,423783,1,0,0:0:0:0:
240,217,424131,1,0,0:0:0:0:
240,217,424305,1,0,0:0:0:0:
234,218,424653,1,0,0:0:0:0:
231,218,424827,1,0,0:0:0:0:
231,218,425174,1,0,0:0:0:0:
234,218,425348,1,0,0:0:0:0:
234,218,425522,1,0,0:0:0:0:
220,219,425870,1,0,0:0:0:0:
219,220,426044,1,0,0:0:0:0:
219,220,426392,1,0,0:0:0:0:
214,218,427087,1,0,0:0:0:0:
214,218,427435,1,0,0:0:0:0:
238,209,427783,1,0,0:0:0:0:
238,209,427957,1,0,0:0:0:0:
238,209,428131,1,0,0:0:0:0:
240,200,428305,1,0,0:0:0:0:
239,197,428653,1,0,0:0:0:0:
226,188,428827,1,0,0:0:0:0:
225,187,429000,1,0,0:0:0:0:
226,186,429174,1,0,0:0:0:0:
236,181,429522,1,0,0:0:0:0:
234,181,429696,1,0,0:0:0:0:
235,180,429870,1,0,0:0:0:0:
235,180,430218,1,0,0:0:0:0:
236,181,430392,1,0,0:0:0:0:
236,175,430740,1,0,0:0:0:0:
234,175,430914,1,0,0:0:0:0:
234,175,431261,1,0,0:0:0:0:
239,172,431435,1,0,0:0:0:0:
245,172,431609,1,0,0:0:0:0:
252,172,431957,1,0,0:0:0:0:
256,172,432131,1,0,0:0:0:0:
252,172,432305,1,0,0:0:0:0:
253,171,432653,1,0,0:0:0:0:
252,172,432827,1,0,0:0:0:0:
256,172,433174,1,0,0:0:0:0:
277,166,433348,1,0,0:0:0:0:
272,165,433696,1,0,0:0:0:0:
272,165,433870,1,0,0:0:0:0:
267,161,434218,1,0,0:0:0:0:
264,161,434392,1,0,0:0:0:0:
259,155,434566,1,0,0:0:0:0:
256,155,434914,1,0,0:0:0:0:
243,152,435087,1,0,0:0:0:0:
237,152,435435,1,0,0:0:0:0:
233,152,435783,1,0,0:0:0:0:
228,152,435957,1,0,0:0:0:0:
226,152,436305,1,0,0:0:0:0:
222,152,436479,1,0,0:0:0:0:
214,152,436827,1,0,0:0:0:0:
214,152,437000,1,0,0:0:0:0:
214,152,437348,1,0,0:0:0:0:
214,152,437522,1,0,0:0:0:0:
212,160,437870,1,0,0:0:0:0:
213,162,438044,1,0,0:0:0:0:
213,163,438392,1,0,0:0:0:0:
213,163,438566,1,0,0:0:0:0:
219,171,438914,1,0,0:0:0:0:
224,177,439087,1,0,0:0:0:0:
232,178,439435,1,0,0:0:0:0:
238,176,439609,1,0,0:0:0:0:
249,176,439957,1,0,0:0:0:0:
249,176,440305,1,0,0:0:0:0:
238,163,440479,1,0,0:0:0:0:
234,163,440827,1,0,0:0:0:0:
228,159,441000,1,0,0:0:0:0:
229,159,441348,1,0,0:0:0:0:
212,147,441522,1,0,0:0:0:0:
211,147,441870,1,0,0:0:0:0:
212,147,442044,1,0,0:0:0:0:
212,147,442392,1,0,0:0:0:0:
211,147,442566,1,0,0:0:0:0:
195,148,442914,1,0,0:0:0:0:
195,148,443261,1,0,0:0:0:0:
195,148,443609,1,0,0:0:0:0:
195,148,443783,1,0,0:0:0:0:
214,155,444131,1,0,0:0:0:0:
216,161,444479,1,0,0:0:0:0:
240,172,444653,1,0,0:0:0:0:
240,176,445000,1,0,0:0:0:0:
235,171,445348,1,0,0:0:0:0:
234,171,445696,1,0,0:0:0:0:
234,171,446044,1,0,0:0:0:0:
231,168,446218,1,0,0:0:0:0:
234,171,446566,1,0,0:0:0:0:
227,168,446914,1,0,0:0:0:0:
222,164,447087,1,0,0:0:0:0:
222,164,447435,1,0,0:0:0:0:
218,164,447609,1,0,0:0:0:0:
216,164,447957,1,0,0:0:0:0:
216,164,448305,1,0,0:0:0:0:
218,164,448653,1,0,0:0:0:0:
216,164,448827,1,0,0:0:0:0:
216,164,449174,1,0,0:0:0:0:
208,162,449522,1,0,0:0:0:0:
207,162,449696,1,0,0:0:0:0:
206,162,450044,1,0,0:0:0:0:
208,162,450218,1,0,0:0:0:0:
208,162,450566,1,0,0:0:0:0:
207,162,450740,1,0,0:0:0:0:
206,162,450914,1,0,0:0:0:0:
222,163,451261,1,0,0:0:0:0:
223,163,451609,1,0,0:0:0:0:
223,163,451957,1,0,0:0:0:0:
225,164,452131,1,0,0:0:0:0:
223,163,452479,1,0,0:0:0:0:
224,166,452827,1,0,0:0:0:0:
225,167,453174,1,0,0:0:0:0:
225,167,453522,1,0,0:0:0:0:
228,170,453696,1,0,0:0:0:0:
228,171,454044,1,0,0:0:0:0:
227,172,454392,1,0,0:0:0:0:
225,177,454740,1,0,0:0:0:0:
225,177,454914,1,0,0:0:0:0:
222,181,455261,1,0,0:0:0:0:
222,181,455609,1,0,0:0:0:0:
222,181,455783,1,0,0:0:0:0:
217,187,456131,1,0,0:0:0:0:
217,187,456479,1,0,0:0:0:0:
217,187,456653,1,0,0:0:0:0:
217,187,457000,1,0,0:0:0:0:
217,187,457348,1,0,0:0:0:0:
217,187,457522,1,0,0:0:0:0:
217,187,457870,1,0,0:0:0:0:
217,187,458044,1,0,0:0:0:0:
217,187,458392,1,0,0:0:0:0:
217,187,458566,1,0,0:0:0:0:
211,191,458914,1,0,0:0:0:0:
200,193,459261,1,0,0:0:0:0:
182,184,459609,1,0,0:0:0:0:
182,184,459957,1,0,0:0:0:0:
186,175,460131,1,0,0:0:0:0:
186,175,460479,1,0,0:0:0:0:
186,175,460827,1,0,0:0:0:0:
192,175,461000,1,0,0:0:0:0:
196,177,461348,1,0,0:0:0:0:
198,176,461696,1,0,0:0:0:0:
200,177,462044,1,0,0:0:0:0:
202,179,462392,1,0,0:0:0:0:
203,180,462566,1,0,0:0:0:0:
205,181,462914,1,0,0:0:0:0:
207,181,463261,1,0,0:0:0:0:
208,181,463609,1,0,0:0:0:0:
210,181,463783,1,0,0:0:0:0:
211,181,464131,1,0,0:0:0:0:
212,181,464479,1,0,0:0:0:0:
213,182,464653,1,0,0:0:0:0:
211,181,465000,1,0,0:0:0:0:
216,182,465348,1,0,0:0:0:0:
217,182,465696,1,0,0:0:0:0:
217,182,466044,1,0,0:0:0:0:
216,182,466218,1,0,0:0:0:0:
217,182,466566,1,0,0:0:0:0:
217,182,466914,1,0,0:0:0:0:
225,182,467087,1,0,0:0:0:0:
225,181,467435,1,0,0:0:0:0:
225,181,467783,1,0,0:0:0:0:
225,182,468131,1,0,0:0:0:0:
231,181,468305,1,0,0:0:0:0:
235,180,468653,1,0,0:0:0:0:
237,180,469000,1,0,0:0:0:0:
241,181,469174,1,0,0:0:0:0:
246,181,469522,1,0,0:0:0:0:
246,181,469870,1,0,0:0:0:0:
252,184,470392,1,0,0:0:0:0:
252,184,470740,1,0,0:0:0:0:
252,184,471087,1,0,0:0:0:0:
252,184,471435,1,0,0:0:0:0:
246,187,471609,1,0,0:0:0:0:
246,187,471957,1,0,0:0:0:0:
245,187,472305,1,0,0:0:0:0:
237,188,472479,1,0,0:0:0:0:
235,189,472653,1,0,0:0:0:0:
231,188,473000,1,0,0:0:0:0:
229,187,473348,1,0,0:0:0:0:
228,183,473522,1,0,0:0:0:0:
225,181,473870,1,0,0:0:0:0:
224,179,474044,1,0,0:0:0:0:
224,170,474392,1,0,0:0:0:0:
224,170,474566,1,0,0:0:0:0:
225,165,474914,1,0,0:0:0:0:
226,164,475087,1,0,0:0:0:0:
226,163,475261,1,0,0:0:0:0:
226,163,475609,1,0,0:0:0:0:
225,165,475783,1,0,0:0:0:0:
221,164,476131,1,0,0:0:0:0:
221,164,476305,1,0,0:0:0:0:
217,164,476653,1,0,0:0:0:0:
217,164,476827,1,0,0:0:0:0:
141,97,477174,1,0,0:0:0:0:
305,110,477522,1,0,0:0:0:0:
244,166,477870,1,0,0:0:0:0:
224,188,478044,1,0,0:0:0:0:
238,71,478218,1,0,0:0:0:0:
294,155,478392,1,0,0:0:0:0:
295,55,478740,1,0,0:0:0:0:
319,84,479261,1,0,0:0:0:0:
215,111,479609,1,0,0:0:0:0:
354,184,480131,1,0,0:0:0:0:
256,201,480479,1,0,0:0:0:0:
230,143,481000,1,0,0:0:0:0:
320,124,481522,1,0,0:0:0:0:
287,187,482044,1,0,0:0:0:0:
196,157,482392,1,0,0:0:0:0:
203,98,482740,1,0,0:0:0:0:
332,97,483261,1,0,0:0:0:0:
297,145,483609,1,0,0:0:0:0:
256,191,483957,1,0,0:0:0:0:
192,164,484479,1,0,0:0:0:0:
200,111,484827,1,0,0:0:0:0:
303,99,485348,1,0,0:0:0:0:
279,153,485870,1,0,0:0:0:0:
130,100,486392,1,0,0:0:0:0:
185,82,486740,1,0,0:0:0:0:
208,99,487435,1,0,0:0:0:0:
208,99,487609,1,0,0:0:0:0:
263,106,487957,1,0,0:0:0:0:
263,106,488305,1,0,0:0:0:0:
268,118,488479,1,0,0:0:0:0:
266,125,488653,1,0,0:0:0:0:
246,142,489348,1,0,0:0:0:0:
238,148,489522,1,0,0:0:0:0:
202,149,490044,1,0,0:0:0:0:
183,151,490218,1,0,0:0:0:0:
169,148,490566,1,0,0:0:0:0:
164,144,490740,1,0,0:0:0:0:
166,137,490914,1,0,0:0:0:0:
168,134,491261,1,0,0:0:0:0:
174,131,491435,1,0,0:0:0:0:
176,127,491609,1,0,0:0:0:0:
177,121,491783,1,0,0:0:0:0:
179,119,492131,1,0,0:0:0:0:
183,115,492305,1,0,0:0:0:0:
187,114,492653,1,0,0:0:0:0:
188,114,492827,1,0,0:0:0:0:
188,114,493000,1,0,0:0:0:0:
199,111,493348,1,0,0:0:0:0:
200,110,493522,1,0,0:0:0:0:
212,111,493870,1,0,0:0:0:0:
213,111,494044,1,0,0:0:0:0:
224,119,494392,1,0,0:0:0:0:
229,121,494566,1,0,0:0:0:0:
230,123,494914,1,0,0:0:0:0:
230,123,495087,1,0,0:0:0:0:
245,129,495435,1,0,0:0:0:0:
245,129,495609,1,0,0:0:0:0:
243,131,495957,1,0,0:0:0:0:
251,137,496131,1,0,0:0:0:0:
251,137,496479,1,0,0:0:0:0:
248,141,496653,1,0,0:0:0:0:
256,148,497000,1,0,0:0:0:0:
256,148,497174,1,0,0:0:0:0:
259,154,497522,1,0,0:0:0:0:
263,159,497696,1,0,0:0:0:0:
264,165,498044,1,0,0:0:0:0:
260,171,498218,1,0,0:0:0:0:
260,171,498566,1,0,0:0:0:0:
259,171,498740,1,0,0:0:0:0:
256,175,499087,1,0,0:0:0:0:
253,180,499435,1,0,0:0:0:0:
247,184,499609,1,0,0:0:0:0:
244,186,499957,1,0,0:0:0:0:
234,186,500305,1,0,0:0:0:0:
223,183,500479,1,0,0:0:0:0:
220,177,500653,1,0,0:0:0:0:
219,169,501000,1,0,0:0:0:0:
220,169,501348,1,0,0:0:0:0:
220,167,501522,1,0,0:0:0:0:
223,162,501870,1,0,0:0:0:0:
225,159,502218,1,0,0:0:0:0:
228,158,502392,1,0,0:0:0:0:
228,158,502740,1,0,0:0:0:0:
232,158,502914,1,0,0:0:0:0:
239,157,503261,1,0,0:0:0:0:
243,155,503609,1,0,0:0:0:0:
243,155,503783,1,0,0:0:0:0:
243,155,504131,1,0,0:0:0:0:
243,155,504479,1,0,0:0:0:0:
243,155,504653,1,0,0:0:0:0:
243,155,505000,1,0,0:0:0:0:
260,153,505348,1,0,0:0:0:0:
260,153,505696,1,0,0:0:0:0:
278,153,506044,1,0,0:0:0:0:
278,153,506218,1,0,0:0:0:0:
278,153,506740,1,0,0:0:0:0:
278,153,506914,1,0,0:0:0:0:
282,153,507261,1,0,0:0:0:0:
282,153,507609,1,0,0:0:0:0:
284,153,507783,1,0,0:0:0:0:
282,153,508131,1,0,0:0:0:0:
293,155,508479,1,0,0:0:0:0:
293,155,508653,1,0,0:0:0:0:
293,159,509000,1,0,0:0:0:0:
293,159,509348,1,0,0:0:0:0:
293,162,509522,1,0,0:0:0:0:
290,167,509870,1,0,0:0:0:0:
290,167,510218,1,0,0:0:0:0:
172,131,510392,1,0,0:0:0:0:
243,118,510914,1,0,0:0:0:0:
216,143,511261,1,0,0:0:0:0:
275,124,511783,1,0,0:0:0:0:
258,146,512131,1,0,0:0:0:0:
322,136,512653,1,0,0:0:0:0:
308,115,513000,1,0,0:0:0:0:
242,140,513696,1,0,0:0:0:0:
351,153,514044,1,0,0:0:0:0:
308,96,514566,1,0,0:0:0:0:
242,152,515087,1,0,0:0:0:0:
363,159,515609,1,0,0:0:0:0:
258,124,515957,1,0,0:0:0:0:
358,120,516305,1,0,0:0:0:0:
203,119,516827,1,0,0:0:0:0:
319,98,517348,1,0,0:0:0:0:
214,78,517696,1,0,0:0:0:0:
325,85,518218,1,0,0:0:0:0:
178,89,518740,1,0,0:0:0:0:
308,98,519087,1,0,0:0:0:0:
173,139,519609,1,0,0:0:0:0:
348,145,519957,1,0,0:0:0:0:
197,149,520479,1,0,0:0:0:0:
264,154,520827,1,0,0:0:0:0:
196,171,521174,1,0,0:0:0:0:
400,180,521870,1,0,0:0:0:0:
210,194,522392,1,0,0:0:0:0:
351,199,522914,1,0,0:0:0:0:
155,199,523435,1,0,0:0:0:0:
160,195,523783,1,0,0:0:0:0:
219,187,524653,5,0,0:0:0:0:
296,180,525174,1,0,0:0:0:0:
143,137,525870,1,0,0:0:0:0:
321,131,526392,1,0,0:0:0:0:
166,147,526914,1,0,0:0:0:0:
342,174,527435,1,0,0:0:0:0:
196,176,527783,1,0,0:0:0:0:
351,180,528305,1,0,0:0:0:0:
213,194,528827,1,0,0:0:0:0:
353,204,529348,1,0,0:0:0:0:
305,204,529696,1,0,0:0:0:0:
200,200,530044,1,0,0:0:0:0:
200,200,530218,1,0,0:0:0:0:
275,198,530740,1,0,0:0:0:0:
287,197,531087,1,0,0:0:0:0:
287,197,531435,1,0,0:0:0:0:
287,197,531609,1,0,0:0:0:0:
287,197,531783,1,0,0:0:0:0:
287,197,531957,1,0,0:0:0:0:
287,197,532131,1,0,0:0:0:0:
309,186,532653,1,0,0:0:0:0:
279,184,533000,1,0,0:0:0:0:
205,186,533696,1,0,0:0:0:0:
332,184,534392,1,0,0:0:0:0:
234,182,534914,1,0,0:0:0:0:
304,184,535435,1,0,0:0:0:0:
235,189,535957,1,0,0:0:0:0:
299,187,536479,1,0,0:0:0:0:
209,199,537000,1,0,0:0:0:0:
296,194,537348,1,0,0:0:0:0:
209,199,537870,1,0,0:0:0:0:
261,202,538566,1,0,0:0:0:0:
198,176,538914,1,0,0:0:0:0:
198,176,539261,1,0,0:0:0:0:
198,176,539435,1,0,0:0:0:0:
198,176,539609,1,0,0:0:0:0:
236,172,540131,1,0,0:0:0:0:
284,157,540479,1,0,0:0:0:0:
182,148,541000,1,0,0:0:0:0:
321,150,541522,1,0,0:0:0:0:
163,158,542218,1,0,0:0:0:0:
274,151,542740,1,0,0:0:0:0:
222,159,543261,1,0,0:0:0:0:
275,156,543957,1,0,0:0:0:0:
221,161,544479,1,0,0:0:0:0:
266,157,545000,1,0,0:0:0:0:
209,164,545696,1,0,0:0:0:0:
259,164,546044,1,0,0:0:0:0:
282,163,546740,1,0,0:0:0:0:
222,170,547087,1,0,0:0:0:0:
297,170,547609,1,0,0:0:0:0:
235,176,548305,1,0,0:0:0:0:
276,173,549000,1,0,0:0:0:0:
231,176,549696,1,0,0:0:0:0:
252,176,550218,1,0,0:0:0:0:
265,175,550392,1,0,0:0:0:0:
225,180,551609,1,0,0:0:0:0:
215,181,552131,1,0,0:0:0:0:
259,171,552653,1,0,0:0:0:0:
232,171,553174,1,0,0:0:0:0:
269,169,553870,1,0,0:0:0:0:
230,177,554392,1,0,0:0:0:0:
256,192,555261,12,0,570914,0:0:0:0:
