osu file format v14

[General]
AudioFilename: audio.mp3
AudioLeadIn: 0
PreviewTime: 41447
Countdown: 1
SampleSet: Soft
StackLeniency: 0.7
Mode: 0
LetterboxInBreaks: 0
WidescreenStoryboard: 0

[Editor]
DistanceSpacing: 0.3
BeatDivisor: 4
GridSize: 4
TimelineZoom: 2.2

[Metadata]
Title:Omae Wa Mou
TitleUnicode:Omae Wa Mou
Artist:deadman
ArtistUnicode:deadman 死人
Creator:Hishiro Chizuru
Version:Gangsta
Source:東方花映塚 ~ Phantasmagoria of Flower View.
Tags:lil boom タイニーリトル・アジアンタム Tiny Little Adianturn 3L Shibayan Instrumental ShibayanRecords milka
BeatmapID:2130387
BeatmapSetID:1017950

[Difficulty]
HPDrainRate:5
CircleSize:4
OverallDifficulty:8
ApproachRate:9
SliderMultiplier:1.6
SliderTickRate:1

[Events]
//Background and Video events
0,0,"lil broomstick.jpg",0,0
//Break Periods
//Storyboard Layer 0 (Background)
//Storyboard Layer 1 (Fail)
//Storyboard Layer 2 (Pass)
//Storyboard Layer 3 (Foreground)
//Storyboard Layer 4 (Overlay)
//Storyboard Sound Samples

[TimingPoints]
318,322.58064516129,4,2,1,100,1,0
318,-144.927536231884,4,2,1,30,0,0
19672,-144.927536231884,4,2,1,40,0,0
20963,-133.333333333333,4,2,1,65,0,0
40156,-166.666666666667,4,2,1,30,0,0
41447,-133.333333333333,4,2,1,65,0,0
62253,-166.666666666667,4,2,1,50,0,0
72576,-133.333333333333,4,2,1,65,0,0
91769,-133.333333333333,4,2,1,50,0,0
92737,-133.333333333333,4,2,1,30,0,0

[Colours]
Combo1 : 0,255,255
Combo2 : 255,0,255
Combo3 : 128,0,255
Combo4 : 128,128,192

[HitObjects]
0,23,318,6,0,P|60:11|108:34,1,110.400000168457,2|2,0:0|0:0,0:0:0:0:
177,173,963,1,0,0:0:0:0:
177,173,1124,2,0,B|165:139|165:139|195:64,1,110.400000168457,2|0,0:0|0:0,0:0:0:0:
272,10,1608,2,0,P|290:38|281:116,1,110.400000168457,2|2,0:0|0:0,0:0:0:0:
435,191,2253,1,0,0:0:0:0:
435,191,2414,2,0,B|403:173|403:173|329:181,1,110.400000168457,2|0,0:0|0:0,0:0:0:0:
274,242,2898,5,2,0:0:0:0:
370,364,3221,2,0,P|382:311|359:262,1,110.400000168457,2|0,0:0|0:0,0:0:0:0:
202,287,3705,2,0,P|241:324|295:328,1,110.400000168457,2|0,0:0|0:0,0:0:0:0:
274,242,4188,1,2,0:0:0:0:
274,242,4350,1,2,0:0:0:0:
202,286,4511,2,0,P|147:283|102:253,1,110.400000168457,2|0,0:0|0:0,0:0:0:0:
162,97,4995,2,0,B|180:129|180:129|171:202,1,110.400000168457,2|0,0:0|0:0,0:0:0:0:
102,253,5479,5,2,0:0:0:0:
65,70,5801,2,0,P|108:102|161:96,1,110.400000168457,2|0,0:0|0:0,0:0:0:0:
233,24,6285,2,0,P|284:7|344:32,1,110.400000168457,2|0,0:0|0:0,0:0:0:0:
381,133,6769,2,0,P|430:147|451:101,1,110.400000168457,2|2,0:0|0:0,0:0:0:0:
284,94,7414,1,0,0:0:0:0:
284,94,7576,2,0,B|293:121|293:121|277:203,1,110.400000168457,2|0,0:0|0:0,0:0:0:0:
221,313,8059,6,0,P|261:278|313:290,1,110.400000168457,2|2,0:0|0:0,0:0:0:0:
436,380,8705,1,0,0:0:0:0:
436,380,8866,2,0,P|428:321|431:263,1,110.400000168457,2|0,0:0|0:0,0:0:0:0:
493,197,9350,1,2,0:0:0:0:
345,161,9672,2,0,P|373:157|400:155,2,55.2000000842285,2|0|0,0:0|0:0|0:0,0:0:0:0:
274,272,10156,2,0,P|240:264|236:186,1,110.400000168457,2|0,0:0|0:0,0:0:0:0:
95,51,10640,6,0,P|120:84|117:155,1,110.400000168457,2|0,0:3|0:0,0:0:0:0:
6,376,11285,1,8,0:0:0:0:
78,332,11447,2,0,P|116:318|192:351,1,110.400000168457,2|0,0:0|0:0,0:0:0:0:
292,384,11930,2,0,B|277:357|277:357|293:279,1,110.400000168457,2|0,0:3|0:0,0:0:0:0:
498,111,12576,1,8,0:0:0:0:
452,183,12737,2,0,P|416:193|361:132,1,110.400000168457,2|0,0:0|0:0,0:0:0:0:
276,40,13221,6,0,P|225:35|163:45,1,110.400000168457,2|0,0:3|0:0,0:0:0:0:
11,265,13866,1,8,0:0:0:0:
67,196,14027,2,0,P|122:193|174:212,1,110.400000168457,2|0,0:0|0:0,0:0:0:0:
222,306,14511,1,2,0:3:0:0:
222,306,14672,1,2,0:0:0:0:
280,169,14834,1,2,0:0:0:0:
486,377,15156,1,8,0:0:0:0:
419,325,15317,2,0,B|407:297|407:297|419:202,1,110.400000168457,2|0,0:0|0:0,0:0:0:0:
461,101,15801,6,0,P|421:138|367:141,1,110.400000168457,2|0,0:3|0:0,0:0:0:0:
146,9,16447,1,8,0:0:0:0:
224,55,16608,2,0,P|226:83|211:172,1,110.400000168457,2|0,0:0|0:0,0:0:0:0:
137,298,17092,2,0,P|112:260|166:217,1,110.400000168457,2|0,0:3|0:0,0:0:0:0:
386,380,17737,1,8,0:0:0:0:
450,324,17898,2,0,B|457:302|457:302|446:215,1,110.400000168457,2|0,0:0|0:0,0:0:0:0:
355,172,18382,2,0,L|371:289,1,110.400000168457,2|0,0:3|0:0,0:0:0:0:
175,378,19027,1,8,0:0:0:0:
101,338,19188,2,0,P|86:299|98:223,1,110.400000168457,2|0,0:0|0:0,0:0:0:0:
369,281,19672,5,8,0:1:0:0:
101,338,20156,1,2,0:0:0:0:
152,276,20317,1,2,0:0:0:0:
227,300,20479,1,2,0:0:0:0:
151,198,20640,1,2,0:0:0:0:
247,144,20801,1,0,3:0:0:0:
247,144,20882,1,0,3:0:0:0:
247,144,20963,6,0,L|312:151,2,60.0000022888184,8|0|0,0:1|0:0|0:0,0:0:0:0:
374,92,21447,1,0,0:0:0:0:
446,175,21608,1,10,0:0:0:0:
446,175,21769,2,0,P|441:216|419:249,1,60.0000022888184,2|8,0:0|0:1,0:0:0:0:
373,287,22092,1,2,0:0:0:0:
240,205,22253,2,0,P|287:188|356:213,1,120.000004577637,2|10,0:0|0:1,0:0:0:0:
420,107,22737,2,0,P|393:121|364:121,1,60.0000022888184,2|8,0:0|0:0,0:0:0:0:
285,74,23059,1,2,0:0:0:0:
285,74,23221,1,2,0:0:0:0:
121,26,23382,6,0,L|125:88,1,60.0000022888184,2|8,0:0|0:1,0:0:0:0:
37,194,23705,2,0,L|86:158,1,60.0000022888184,2|0,0:0|0:0,0:0:0:0:
228,183,24027,1,2,0:0:0:0:
228,183,24188,2,0,L|155:148,1,60.0000022888184,10|0,0:0|0:0,0:0:0:0:
125,85,24511,1,10,0:1:0:0:
85,159,24672,1,2,0:0:0:0:
297,255,24834,6,0,P|326:195|309:133,1,120.000004577637,2|8,0:0|0:1,0:0:0:0:
125,85,25317,1,2,0:0:0:0:
125,85,25479,1,10,0:0:0:0:
48,234,25640,1,2,0:0:0:0:
48,234,25802,1,2,0:0:0:0:
91,306,25963,1,2,0:0:0:0:
251,236,26124,6,0,P|208:216|134:229,1,120.000004577637,10|0,0:1|0:0,0:0:0:0:
91,306,26608,1,2,0:0:0:0:
193,154,26769,1,10,0:0:0:0:
193,154,26930,1,2,0:0:0:0:
226,344,27092,1,10,0:1:0:0:
176,257,27253,1,2,0:0:0:0:
327,313,27414,2,0,P|384:312|428:249,1,120.000004577637,2|8,0:0|0:1,0:0:0:0:
391,187,27898,1,2,0:0:0:0:
431,348,28059,1,10,0:0:0:0:
510,138,28221,2,0,P|477:111|381:115,1,120.000004577637,2|2,0:0|0:0,0:0:0:0:
306,265,28705,6,0,P|286:242|284:213,1,60.0000022888184,10|0,0:1|0:0,0:0:0:0:
325,139,29027,1,2,0:0:0:0:
246,36,29188,2,0,L|182:41,1,60.0000022888184,2|8,0:0|0:0,0:0:0:0:
150,119,29511,2,0,L|209:113,1,60.0000022888184,2|8,0:0|0:1,0:0:0:0:
91,56,29834,2,0,P|62:95|69:189,1,120.000004577637,2|0,0:0|0:0,0:0:0:0:
94,246,30317,1,8,0:1:0:0:
94,246,30479,1,2,0:0:0:0:
182,214,30640,2,0,P|218:237|232:261,1,60.0000022888184,10|0,0:0|0:0,0:0:0:0:
264,348,30963,1,0,0:0:0:0:
346,286,31124,1,0,0:0:0:0:
504,380,31285,6,0,L|498:316,2,60.0000022888184,8|0|0,0:1|0:0|0:0,0:0:0:0:
436,261,31769,1,2,0:0:0:0:
378,321,31930,2,0,P|350:332|320:332,1,60.0000022888184,10|0,0:0|0:0,0:0:0:0:
274,267,32253,1,10,0:1:0:0:
274,267,32414,1,2,0:0:0:0:
324,122,32576,2,0,P|356:151|356:236,1,120.000004577637,2|8,0:0|0:1,0:0:0:0:
225,80,33059,2,0,P|212:107|208:137,1,60.0000022888184,2|8,0:0|0:0,0:0:0:0:
293,13,33382,2,0,P|323:17|349:32,1,60.0000022888184,2|0,0:0|0:0,0:0:0:0:
173,0,33705,6,0,L|109:5,1,60.0000022888184,2|8,0:0|0:1,0:0:0:0:
79,82,34027,2,0,L|138:76,1,60.0000022888184,2|0,0:0|0:0,0:0:0:0:
219,134,34350,2,0,P|224:104|220:74,1,60.0000022888184,0|8,0:0|0:0,0:0:0:0:
154,239,34672,2,0,P|148:209|152:179,1,60.0000022888184,2|8,0:0|0:1,0:0:0:0:
26,270,34995,2,0,P|64:280|120:352,1,120.000004577637,2|0,0:0|0:0,0:0:0:0:
28,365,35479,1,8,0:1:0:0:
108,266,35640,1,2,0:0:0:0:
108,266,35801,1,10,0:0:0:0:
192,316,35963,2,0,L|251:321,2,60.0000022888184,2|0|0,0:0|0:0|0:0,0:0:0:0:
316,384,36447,6,0,P|301:326|317:269,1,120.000004577637,10|0,0:1|0:0,0:0:0:0:
362,189,36930,2,0,L|298:194,1,60.0000022888184,2|8,0:0|0:0,0:0:0:0:
401,107,37253,1,0,0:0:0:0:
401,107,37414,2,0,L|337:112,1,60.0000022888184,8|0,0:1|0:0,0:0:0:0:
229,41,37737,2,0,L|352:30,1,120.000004577637,0|8,0:0|0:1,0:0:0:0:
255,122,38221,1,2,0:0:0:0:
150,15,38382,1,10,0:0:0:0:
150,15,38543,1,2,0:0:0:0:
55,88,38705,2,0,P|82:99|112:98,1,60.0000022888184,2|0,0:0|0:0,0:0:0:0:
255,122,39027,6,0,P|224:135|178:226,1,120.000004577637,10|0,0:1|0:0,0:0:0:0:
122,280,39511,2,0,P|113:251|96:227,1,60.0000022888184,2|8,0:0|0:0,0:0:0:0:
184,358,39834,2,0,P|192:329|209:305,1,60.0000022888184,2|8,0:0|0:1,0:0:0:0:
328,369,40156,6,0,P|368:345|416:347,3,95.9999970703126,2|2|2|2,0:0|0:0|0:0|0:0,0:0:0:0:
512,179,41447,1,0,3:0:0:0:
512,179,41527,1,0,3:0:0:0:
512,179,41608,6,0,L|453:185,2,60.0000022888184,8|0|0,0:1|0:0|0:0,0:0:0:0:
411,120,42092,1,2,0:0:0:0:
352,223,42253,1,10,0:0:0:0:
352,222,42414,2,0,P|353:189|343:158,1,60.0000022888184,2|8,0:0|0:1,0:0:0:0:
274,113,42737,1,2,0:0:0:0:
203,202,42898,2,0,P|161:214|94:178,1,120.000004577637,2|8,0:0|0:1,0:0:0:0:
155,64,43382,2,0,L|160:127,1,60.0000022888184,2|8,0:0|0:0,0:0:0:0:
203,202,43705,1,2,0:0:0:0:
203,202,43866,1,2,0:0:0:0:
151,311,44027,6,0,P|175:292|203:282,1,60.0000022888184,2|8,0:0|0:1,0:0:0:0:
332,361,44350,2,0,P|308:342|280:332,1,60.0000022888184,2|0,0:0|0:0,0:0:0:0:
212,384,44672,1,2,0:0:0:0:
359,283,44834,2,0,P|407:273|477:313,1,120.000004577637,10|8,0:0|0:1,0:0:0:0:
512,384,45317,1,2,0:0:0:0:
433,233,45479,2,0,P|435:197|485:125,1,120.000004577637,2|8,0:0|0:1,0:0:0:0:
478,38,45963,1,2,0:0:0:0:
478,38,46124,1,10,0:0:0:0:
395,91,46285,1,2,0:0:0:0:
395,91,46447,1,2,0:0:0:0:
310,27,46608,1,2,0:0:0:0:
238,130,46769,6,0,P|179:158|137:128,1,120.000004577637,10|0,0:1|0:0,0:0:0:0:
80,63,47253,1,2,0:0:0:0:
0,130,47414,2,0,P|-2:171|5:194,1,60.0000022888184,10|0,0:0|0:0,0:0:0:0:
59,253,47737,1,10,0:1:0:0:
59,253,47898,1,2,0:0:0:0:
0,382,48059,2,0,P|53:355|112:362,1,120.000004577637,2|8,0:0|0:1,0:0:0:0:
199,335,48543,1,2,0:0:0:0:
199,335,48705,1,10,0:0:0:0:
274,384,48866,2,0,P|286:357|287:327,1,60.0000022888184,2|0,0:0|0:0,0:0:0:0:
244,253,49188,1,2,0:0:0:0:
392,365,49350,6,0,P|370:330|377:245,1,120.000004577637,10|0,0:1|0:0,0:0:0:0:
448,184,49834,2,0,P|418:184|388:178,1,60.0000022888184,2|8,0:0|0:0,0:0:0:0:
318,57,50156,2,0,P|333:82|342:110,1,60.0000022888184,2|8,0:0|0:1,0:0:0:0:
195,108,50479,2,0,P|224:107|254:113,2,60.0000022888184,2|0|0,0:0|0:0|0:0,0:0:0:0:
129,167,50963,1,8,0:1:0:0:
68,103,51124,1,2,0:0:0:0:
68,103,51285,1,10,0:0:0:0:
27,178,51447,2,0,P|18:204|13:240,1,60.0000022888184,2|0,0:0|0:0,0:0:0:0:
52,317,51769,1,2,0:0:0:0:
179,237,51930,6,0,L|246:242,2,60.0000022888184,8|0|0,0:1|0:0|0:0,0:0:0:0:
291,304,52414,1,2,0:0:0:0:
353,251,52576,2,0,P|362:222|362:192,1,60.0000022888184,10|0,0:0|0:0,0:0:0:0:
317,121,52898,1,10,0:1:0:0:
317,121,53059,1,2,0:0:0:0:
381,59,53221,2,0,P|440:57|491:87,1,120.000004577637,2|8,0:0|0:1,0:0:0:0:
308,23,53705,2,0,L|244:28,1,60.0000022888184,2|8,0:0|0:0,0:0:0:0:
132,88,54027,2,0,L|192:94,1,60.0000022888184,2|0,0:0|0:0,0:0:0:0:
61,44,54350,6,0,P|47:70|50:100,1,60.0000022888184,2|8,0:0|0:1,0:0:0:0:
104,165,54672,2,0,P|113:193|107:222,1,60.0000022888184,2|0,0:0|0:0,0:0:0:0:
5,302,54995,2,0,P|31:289|62:293,1,60.0000022888184,2|8,0:0|0:0,0:0:0:0:
118,354,55317,2,0,B|142:367|142:367|176:363,1,60.0000022888184,2|8,0:0|0:1,0:0:0:0:
298,281,55640,2,0,L|303:348,2,60.0000022888184,2|0|0,0:0|0:0|0:0,0:0:0:0:
367,384,56124,1,8,0:1:0:0:
411,231,56285,1,2,0:0:0:0:
411,231,56447,1,10,0:0:0:0:
298,281,56608,2,0,P|245:286|196:235,1,120.000004577637,2|0,0:0|0:0,0:0:0:0:
256,80,57092,6,0,B|272:108|272:108|268:195,1,120.000004577637,10|0,0:1|0:0,0:0:0:0:
198,243,57576,1,2,0:0:0:0:
107,185,57737,2,0,P|141:164|174:164,1,60.0000022888184,8|0,0:0|0:0,0:0:0:0:
256,80,58059,2,0,P|222:59|189:59,1,60.0000022888184,8|0,0:1|0:0,0:0:0:0:
267,195,58382,2,0,P|336:186|357:140,1,120.000004577637,0|8,0:0|0:1,0:0:0:0:
335,59,58866,1,2,0:0:0:0:
429,6,59027,1,10,0:0:0:0:
429,6,59188,1,2,0:0:0:0:
488,108,59350,1,2,0:0:0:0:
488,108,59511,1,0,0:0:0:0:
334,58,59672,6,0,P|275:55|217:68,1,120.000004577637,10|0,0:1|0:0,0:0:0:0:
124,123,60156,2,0,L|118:55,1,60.0000022888184,2|8,0:0|0:0,0:0:0:0:
34,19,60479,2,0,L|39:78,1,60.0000022888184,2|8,0:0|0:1,0:0:0:0:
20,202,60801,2,0,P|48:194|78:195,1,60.0000022888184,2|0,0:0|0:0,0:0:0:0:
154,273,61124,2,0,P|182:280|212:279,1,60.0000022888184,2|8,0:0|0:1,0:0:0:0:
56,292,61447,2,0,L|61:362,1,60.0000022888184,2|8,0:0|0:0,0:0:0:0:
158,213,61769,2,0,L|152:283,1,60.0000022888184,2|0,0:0|0:0,0:0:0:0:
225,363,62092,1,0,3:0:0:0:
225,363,62172,1,0,3:0:0:0:
225,363,62253,6,0,P|239:319|286:284,1,95.9999970703126,8|0,0:1|0:0,0:0:0:0:
276,287,62737,1,0,0:0:0:0:
440,250,62898,2,0,P|394:259|341:236,1,95.9999970703126,10|8,0:0|0:1,0:0:0:0:
349,243,63382,1,2,0:0:0:0:
289,175,63543,2,0,P|244:163|198:175,1,95.9999970703126,0|8,0:0|0:1,0:0:0:0:
198,175,64027,1,2,0:0:0:0:
122,244,64188,2,0,L|113:148,1,95.9999970703126,8|0,0:0|0:0,0:0:0:0:
113,148,64672,1,2,0:0:0:0:
153,37,64834,6,0,P|200:34|246:48,2,95.9999970703126,8|0|8,0:1|0:0|0:0,0:0:0:0:
310,110,65801,2,0,P|323:90|330:67,2,47.9999985351563,8|2|0,0:1|0:0|0:0,0:0:0:0:
310,110,66285,1,0,0:0:0:0:
425,17,66447,2,0,P|418:39|416:63,1,47.9999985351563,8|2,0:1|0:0,0:0:0:0:
467,148,66769,2,0,P|464:183|422:253,1,95.9999970703126,8|0,0:0|0:0,0:0:0:0:
437,237,67253,1,0,0:0:0:0:
494,355,67414,6,0,P|452:335|404:338,1,95.9999970703126,10|0,0:1|0:0,0:0:0:0:
404,338,67898,1,2,0:0:0:0:
326,384,68059,2,0,P|302:386|278:380,1,47.9999985351563,8|0,0:0|0:0,0:0:0:0:
223,307,68382,2,0,P|200:290|117:289,2,95.9999970703126,8|0|8,0:1|0:0|0:1,0:0:0:0:
223,307,69188,1,2,0:0:0:0:
327,305,69350,2,0,P|331:258|326:210,1,95.9999970703126,10|0,0:0|0:0,0:0:0:0:
37,139,69995,6,0,P|66:114|138:122,1,95.9999970703126,10|0,0:1|0:0,0:0:0:0:
121,112,70479,1,2,0:0:0:0:
203,179,70640,2,0,L|208:120,1,47.9999985351563,8|2,0:0|0:0,0:0:0:0:
216,56,70963,1,8,0:1:0:0:
375,99,71285,6,0,P|327:115|279:103,1,95.9999970703126
400,15,71930,2,0,L|455:9,1,47.9999985351563,0|2,0:0|0:0,0:0:0:0:
500,87,72253,1,0,0:0:0:0:
482,175,72414,1,0,3:0:0:0:
482,175,72495,1,0,3:0:0:0:
482,175,72576,6,0,L|491:251,2,60.0000022888184,8|0|0,0:1|0:0|0:0,0:0:0:0:
446,298,73059,1,2,0:0:0:0:
342,235,73221,2,0,P|286:232|258:281,1,120.000004577637,10|8,0:0|0:1,0:0:0:0:
158,342,73705,2,0,L|152:274,1,60.0000022888184,2|0,0:0|0:0,0:0:0:0:
48,189,74027,2,0,L|109:217,1,60.0000022888184,2|8,0:0|0:1,0:0:0:0:
235,170,74350,2,0,L|179:209,1,60.0000022888184,2|8,0:0|0:0,0:0:0:0:
48,248,74672,2,0,P|43:218|47:188,1,60.0000022888184,2|0,0:0|0:0,0:0:0:0:
95,54,74995,6,0,P|100:84|96:114,2,60.0000022888184,2|8|0,0:0|0:1|0:0,0:0:0:0:
0,0,75479,1,2,0:0:0:0:
96,113,75640,2,0,P|136:110|159:100,1,60.0000022888184,2|8,0:0|0:0,0:0:0:0:
216,27,75963,2,0,P|245:22|274:28,1,60.0000022888184,2|8,0:0|0:1,0:0:0:0:
355,128,76285,2,0,L|349:60,2,60.0000022888184,2|0|0,0:0|0:0|0:0,0:0:0:0:
417,197,76769,1,8,0:1:0:0:
417,197,76930,1,2,0:0:0:0:
281,244,77092,2,0,P|308:232|330:211,1,60.0000022888184,10|0,0:0|0:0,0:0:0:0:
355,128,77414,1,2,0:0:0:0:
355,128,77576,1,2,0:0:0:0:
208,200,77737,6,0,B|193:230|193:230|203:315,1,120.000004577637,10|0,0:1|0:0,0:0:0:0:
276,367,78221,1,2,0:0:0:0:
360,322,78382,1,10,0:0:0:0:
360,322,78543,1,2,0:0:0:0:
293,178,78705,1,10,0:1:0:0:
293,178,78866,1,2,0:0:0:0:
182,279,79027,2,0,P|153:299|62:289,1,120.000004577637,2|8,0:0|0:1,0:0:0:0:
24,221,79511,1,2,0:0:0:0:
99,131,79672,1,10,0:0:0:0:
99,131,79834,1,2,0:0:0:0:
0,41,79995,2,0,P|27:53|56:52,1,60.0000022888184,2|0,0:0|0:0,0:0:0:0:
182,6,80317,6,0,P|215:2|306:27,1,120.000004577637,10|0,0:1|0:0,0:0:0:0:
377,91,80801,2,0,L|382:16,1,60.0000022888184,2|8,0:0|0:0,0:0:0:0:
272,120,81124,2,0,L|275:179,1,60.0000022888184,2|8,0:0|0:1,0:0:0:0:
354,336,81447,2,0,P|369:310|374:279,1,60.0000022888184,2|0,0:0|0:0,0:0:0:0:
373,165,81769,2,0,P|387:190|411:210,1,60.0000022888184,2|8,0:0|0:1,0:0:0:0:
512,269,82092,2,0,P|482:268|453:279,1,60.0000022888184,2|8,0:0|0:0,0:0:0:0:
354,336,82414,1,2,0:0:0:0:
166,243,82737,1,0,3:0:0:0:
166,243,82817,1,0,3:0:0:0:
166,243,82898,6,0,L|161:305,2,60.0000022888184,8|0|0,0:1|0:0|0:0,0:0:0:0:
99,355,83382,1,2,0:0:0:0:
0,280,83543,2,0,P|-12:222|5:159,1,120.000004577637,10|8,0:0|0:1,0:0:0:0:
53,66,84027,2,0,B|79:96|79:96|172:85,1,120.000004577637,2|0,0:0|0:0,0:0:0:0:
223,23,84511,1,10,0:1:0:0:
287,95,84672,2,0,P|298:123|301:153,1,60.0000022888184,2|8,0:0|0:0,0:0:0:0:
168,187,84995,2,0,P|186:163|211:146,1,60.0000022888184,2|0,0:0|0:0,0:0:0:0:
306,273,85317,6,0,P|287:249|262:232,1,60.0000022888184,2|8,0:0|0:1,0:0:0:0:
372,326,85640,2,0,P|382:298|385:268,1,60.0000022888184,2|0,0:0|0:0,0:0:0:0:
356,188,85963,1,2,0:0:0:0:
425,111,86124,2,0,P|469:106|512:118,2,90.0000034332277,10|2|2,0:0|0:0|0:0,0:0:0:0:
356,188,86769,2,0,P|327:196|297:194,1,60.0000022888184
227,137,87092,1,8,0:1:0:0:
160,198,87253,1,2,0:0:0:0:
186,311,87414,2,0,P|226:319|286:299,2,90.0000034332277,10|2|2,0:0|0:0|0:0,0:0:0:0:
295,231,88059,6,0,P|354:224|408:248,1,120.000004577637,10|0,0:1|0:0,0:0:0:0:
490,317,88543,2,0,P|485:287|490:258,1,60.0000022888184,2|8,0:0|0:0,0:0:0:0:
420,380,88866,2,0,P|393:365|364:361,1,60.0000022888184,2|8,0:0|0:1,0:0:0:0:
274,308,89188,2,0,P|231:328|157:306,1,120.000004577637,2|0,0:0|0:0,0:0:0:0:
92,366,89672,1,8,0:1:0:0:
30,274,89834,1,2,0:0:0:0:
30,274,89995,1,10,0:0:0:0:
101,177,90156,1,2,0:0:0:0:
100,177,90317,2,0,P|105:147|100:117,1,60.0000022888184,2|0,0:0|0:0,0:0:0:0:
0,0,90640,6,0,P|26:34|122:30,1,120.000004577637,10|0,0:1|0:0,0:0:0:0:
195,0,91124,2,0,L|200:67,1,60.0000022888184,2|8,0:0|0:0,0:0:0:0:
273,137,91447,2,0,L|278:77,1,60.0000022888184,2|8,0:0|0:1,0:0:0:0:
354,21,91769,2,0,P|383:16|412:25,1,60.0000022888184,2|0,0:0|0:0,0:0:0:0:
496,100,92092,2,0,P|466:95|437:104,1,60.0000022888184,2|8,0:0|0:1,0:0:0:0:
459,241,92414,2,0,L|464:181,1,60.0000022888184,2|8,0:0|0:0,0:0:0:0:
381,312,92737,2,0,L|375:252,1,60.0000022888184,2|0,0:0|0:0,0:0:0:0:
305,201,93059,1,0,0:0:0:0:
305,201,93221,5,0,0:0:0:0:
