osu file format v14

[General]
AudioFilename: audio.mp3
AudioLeadIn: 0
PreviewTime: -1
Countdown: 1
SampleSet: Normal
StackLeniency: 0.7
Mode: 0
LetterboxInBreaks: 0
WidescreenStoryboard: 1

[Editor]
Bookmarks: 1228,2746,5252,7857,10647,11762,13125,14389,15691,16989,18330,19705,21565,22608,23340,23953,24796,25564,26218,26854,27516,28106,28823,29426,30105,30709,31290,31916,32679,33363,34019,34642,35281,35866,36452,38152,38763,39203,40285,41682,42344,42976,43612,44255,44893,45504,46203,46869,47997,49324,49914,50694,51292,52600,53842,55078,56391,57110,58259,59607,60967,61595,62286,63574,64827,66133,67443,68640,69916,71209,72641,73295,73898,74493,75158,75858,76502,77144,77811,78491,79175,79761,80397,81031,81683,82283,82937,83640,84314,84926,85531,86259,86893,87520,88180,88822,89453,90093,90731,91413,92098,92770,93323,94500,95864,97150,98538,99843,101180,102414,103901,105274,106601,107759,109043,110299,111619,112846,113723
DistanceSpacing: 0.8
BeatDivisor: 6
GridSize: 32
TimelineZoom: 0.4

[Metadata]
Title:Omae Wa Mou
TitleUnicode:あなたはもう
Artist:deadman -
ArtistUnicode:deadman 死人
Creator:SakuwaUwU
Version:Shinderou
Source:
Tags:
BeatmapID:2420867
BeatmapSetID:1158789

[Difficulty]
HPDrainRate:10
CircleSize:7
OverallDifficulty:10
ApproachRate:10
SliderMultiplier:3.59999990463257
SliderTickRate:4

[Events]
//Background and Video events
0,0,"dgs.jpg",0,0
//Break Periods
2,48170,53613
//Storyboard Layer 0 (Background)
//Storyboard Layer 1 (Fail)
//Storyboard Layer 2 (Pass)
//Storyboard Layer 3 (Foreground)
//Storyboard Layer 4 (Overlay)
//Storyboard Sound Samples

[TimingPoints]
11147.2631578947,416.666666666667,4,1,0,100,1,0

[Colours]
Combo1 : 43,0,21
Combo2 : 255,0,128
Combo3 : 210,0,105
Combo4 : 140,0,70

[HitObjects]
256,192,10574,5,0,0:0:0:0:
288,192,10730,1,0,0:0:0:0:
288,192,10886,1,0,0:0:0:0:
288,224,10991,1,0,0:0:0:0:
288,224,11147,1,0,0:0:0:0:
256,224,11303,1,0,0:0:0:0:
256,224,11407,1,0,0:0:0:0:
256,192,11772,6,0,L|160:192,1,59.9999984105428
192,256,11980,1,0,0:0:0:0:
192,256,12188,2,0,P|352:320|384:192,1,299.999992052714
416,192,12657,1,0,0:0:0:0:
416,224,13230,1,0,0:0:0:0:
384,224,13595,1,0,0:0:0:0:
352,224,14011,1,0,0:0:0:0:
320,224,14272,6,0,L|320:96,1,119.999996821086
320,96,14532,1,0,0:0:0:0:
288,96,14688,1,0,0:0:0:0:
288,128,14845,1,0,0:0:0:0:
288,160,15105,2,0,L|192:160,6,59.9999984105428
192,160,15782,1,0,0:0:0:0:
192,224,15886,1,0,0:0:0:0:
256,192,16355,12,0,16652,0:0:0:0:
256,192,16720,5,0,0:0:0:0:
288,192,16772,1,0,0:0:0:0:
288,224,16928,1,0,0:0:0:0:
288,256,17188,6,0,L|96:96,2,239.999993642171
320,288,17866,1,0,0:0:0:0:
320,288,18022,1,0,0:0:0:0:
288,288,18178,1,0,0:0:0:0:
256,288,18386,1,0,0:0:0:0:
256,288,18491,1,0,0:0:0:0:
256,256,18647,1,0,0:0:0:0:
256,256,18803,1,0,0:0:0:0:
288,256,18907,1,0,0:0:0:0:
288,288,19063,1,0,0:0:0:0:
288,288,19220,1,0,0:0:0:0:
256,288,19428,2,0,L|128:192,2,119.999996821086
288,288,19845,1,0,0:0:0:0:
288,320,20053,1,0,0:0:0:0:
288,320,20157,1,0,0:0:0:0:
256,288,20470,6,0,L|256:96,2,179.999995231628
256,288,21199,1,0,0:0:0:0:
288,288,21824,1,0,0:0:0:0:
320,256,21980,1,0,0:0:0:0:
320,288,22136,1,0,0:0:0:0:
352,288,22241,1,0,0:0:0:0:
384,320,22397,1,0,0:0:0:0:
416,320,22657,6,0,L|320:96,1,239.999993642171
288,96,23074,1,0,0:0:0:0:
256,128,23386,1,0,0:0:0:0:
288,160,23699,1,0,0:0:0:0:
256,160,24063,1,0,0:0:0:0:
288,192,24480,1,0,0:0:0:0:
256,224,24897,1,0,0:0:0:0:
256,256,25053,6,0,L|96:128,2,179.999995231628
288,288,25678,1,0,0:0:0:0:
320,288,26095,1,0,0:0:0:0:
320,320,26511,1,0,0:0:0:0:
352,320,26824,1,0,0:0:0:0:
384,320,27136,2,0,L|288:64,1,239.999993642171
288,64,27761,1,0,0:0:0:0:
256,128,28074,1,0,0:0:0:0:
256,160,28230,1,0,0:0:0:0:
224,192,28386,1,0,0:0:0:0:
256,256,28491,1,0,0:0:0:0:
256,288,28647,6,0,P|384:96|256:96,1,479.999987284342
256,96,29324,1,0,0:0:0:0:
256,128,30053,1,0,0:0:0:0:
320,160,30157,1,0,0:0:0:0:
256,192,30366,5,0,0:0:0:0:
256,224,30574,2,0,L|256:352,3,119.999996821086
256,384,31147,1,0,0:0:0:0:
320,352,31303,1,0,0:0:0:0:
320,320,31407,1,0,0:0:0:0:
256,384,31563,1,0,0:0:0:0:
224,352,31720,1,0,0:0:0:0:
224,320,32188,6,0,L|256:128,1,179.999995231628
256,96,32553,1,0,0:0:0:0:
288,128,32761,1,0,0:0:0:0:
256,128,33282,1,0,0:0:0:0:
256,192,33491,1,0,0:0:0:0:
320,160,33699,1,0,0:0:0:0:
288,192,33855,1,0,0:0:0:0:
224,192,34063,1,0,0:0:0:0:
224,160,34220,1,0,0:0:0:0:
192,192,34428,1,0,0:0:0:0:
224,224,34636,6,0,L|384:224,1,119.999996821086
320,192,35261,1,8,0:0:0:0:
288,192,35574,1,0,0:0:0:0:
224,192,35938,1,0,0:0:0:0:
160,192,36407,1,0,0:0:0:0:
96,192,36928,1,0,0:0:0:0:
64,192,37345,1,0,0:0:0:0:
64,224,37397,2,8,L|160:224,1,59.9999984105428
64,224,37605,1,8,0:0:0:0:
128,192,37866,1,0,0:0:0:0:
128,192,38022,1,0,0:0:0:0:
128,192,38178,1,0,0:0:0:0:
128,192,38386,2,0,L|320:192,1,179.999995231628
352,192,38647,1,0,0:0:0:0:
320,224,39532,5,0,0:0:0:0:
288,224,39845,1,0,0:0:0:0:
256,224,39949,1,0,0:0:0:0:
256,224,40105,1,0,0:0:0:0:
256,288,40313,1,0,0:0:0:0:
288,288,40522,1,0,0:0:0:0:
320,256,40730,1,0,0:0:0:0:
288,256,40886,1,0,0:0:0:0:
256,256,41095,1,0,0:0:0:0:
224,256,41355,2,0,P|224:160|256:160,1,119.999996821086
256,160,41563,1,0,0:0:0:0:
256,192,41720,6,0,P|256:320|288:288,1,299.999992052714
288,288,42188,1,0,0:0:0:0:
224,256,42241,1,0,0:0:0:0:
256,256,42449,1,0,0:0:0:0:
288,256,42657,2,0,L|288:128,1,119.999996821086
288,128,42970,1,0,0:0:0:0:
320,128,43074,1,0,0:0:0:0:
320,160,43230,1,0,0:0:0:0:
288,160,43438,1,0,0:0:0:0:
288,160,43491,6,0,L|288:288,2,119.999996821086
288,160,44272,1,0,0:0:0:0:
288,160,44532,2,0,L|96:128,1,179.999995231628
96,128,44949,1,0,0:0:0:0:
256,192,45157,12,0,45652,0:0:0:0:
128,192,45574,5,0,0:0:0:0:
128,192,45730,1,0,0:0:0:0:
160,192,45938,1,0,0:0:0:0:
160,192,46095,1,0,0:0:0:0:
192,192,46355,1,0,0:0:0:0:
192,192,46563,2,0,L|320:192,1,119.999996821086
320,192,46720,1,0,0:0:0:0:
320,224,47136,6,0,L|192:224,2,119.999996821086
320,224,47970,1,0,0:0:0:0:
256,192,54063,5,0,0:0:0:0:
288,192,54220,5,0,0:0:0:0:
288,192,54324,5,0,0:0:0:0:
320,192,54480,5,0,0:0:0:0:
352,192,54845,5,0,0:0:0:0:
352,192,54949,5,0,0:0:0:0:
352,192,55053,1,0,0:0:0:0:
352,192,55261,2,0,L|352:352,1,119.999996821086
352,320,55470,1,0,0:0:0:0:
352,320,55574,1,0,0:0:0:0:
352,320,55678,1,0,0:0:0:0:
352,320,55782,1,0,0:0:0:0:
352,320,55938,6,0,B|128:288|128:256|224:224,1,239.999993642171
224,224,56355,1,0,0:0:0:0:
224,256,56511,1,0,0:0:0:0:
224,288,56720,2,0,L|288:256,3,59.9999984105428
320,224,57032,1,0,0:0:0:0:
320,224,57188,1,0,0:0:0:0:
320,224,57345,2,0,L|384:64,1,119.999996821086
384,96,57657,1,0,0:0:0:0:
384,96,57761,1,0,0:0:0:0:
384,96,57866,2,0,L|448:256,1,119.999996821086
416,224,58282,5,0,0:0:0:0:
416,224,58438,1,0,0:0:0:0:
416,224,58647,2,0,L|160:256,1,239.999993642171
160,256,59063,1,0,0:0:0:0:
160,256,59220,1,0,0:0:0:0:
160,256,59324,2,0,L|128:96,1,119.999996821086
128,128,59636,1,0,0:0:0:0:
160,128,59741,1,0,0:0:0:0:
160,128,59897,1,0,0:0:0:0:
192,128,60105,1,0,0:0:0:0:
160,192,60366,6,0,L|288:192,1,119.999996821086
320,192,60522,2,0,L|320:320,1,119.999996821086
320,320,61095,1,0,0:0:0:0:
320,320,61147,1,0,0:0:0:0:
320,320,61303,1,0,0:0:0:0:
320,320,61355,1,0,0:0:0:0:
320,320,61616,2,0,B|224:256|224:256|288:224,1,179.999995231628
320,224,61928,1,0,0:0:0:0:
320,256,62449,6,0,L|192:256,1,119.999996821086
192,256,62657,1,0,0:0:0:0:
192,256,62813,1,0,0:0:0:0:
192,256,62866,1,0,0:0:0:0:
192,256,62970,1,0,0:0:0:0:
192,256,63074,2,0,L|352:64,1,239.999993642171
384,64,63438,1,0,0:0:0:0:
384,96,63595,1,0,0:0:0:0:
384,96,63699,1,0,0:0:0:0:
384,96,63907,6,0,L|192:128,1,179.999995231628
192,128,64220,1,0,0:0:0:0:
192,128,64324,1,0,0:0:0:0:
192,128,64480,1,0,0:0:0:0:
192,128,64532,1,0,0:0:0:0:
192,128,64845,2,0,L|256:256,1,119.999996821086
256,256,65157,1,0,0:0:0:0:
256,256,65261,1,0,0:0:0:0:
256,256,65366,1,0,0:0:0:0:
256,256,65470,1,0,0:0:0:0:
256,256,65678,6,0,L|320:128,1,119.999996821086
320,128,65991,1,0,0:0:0:0:
320,128,66147,1,0,0:0:0:0:
320,128,66199,1,0,0:0:0:0:
320,128,66355,1,0,0:0:0:0:
320,128,66563,2,0,L|352:224,1,59.9999984105428
352,192,66772,1,0,0:0:0:0:
352,192,66928,1,0,0:0:0:0:
352,192,67032,1,0,0:0:0:0:
352,192,67188,1,0,0:0:0:0:
352,192,67345,6,0,B|192:192|192:224|256:224,1,179.999995231628
288,256,67761,1,0,0:0:0:0:
288,256,67866,1,0,0:0:0:0:
288,256,68022,1,0,0:0:0:0:
288,256,68074,1,0,0:0:0:0:
288,256,68282,2,0,L|288:96,1,119.999996821086
288,160,69063,5,0,0:0:0:0:
288,160,69480,1,0,0:0:0:0:
320,160,69741,1,0,0:0:0:0:
320,192,69949,1,0,0:0:0:0:
352,224,70366,1,0,0:0:0:0:
352,256,70886,1,0,0:0:0:0:
384,256,71355,1,0,0:0:0:0:
384,288,71616,1,0,0:0:0:0:
352,288,71928,1,0,0:0:0:0:
320,288,72241,6,0,L|160:288,2,119.999996821086
352,288,72761,1,0,0:0:0:0:
352,320,72970,1,0,0:0:0:0:
352,288,73178,2,0,L|352:160,3,119.999996821086
352,128,74116,1,0,0:0:0:0:
320,128,74220,2,0,L|128:192,2,179.999995231628
352,128,74845,1,0,0:0:0:0:
352,128,74949,1,0,0:0:0:0:
352,128,75105,1,0,0:0:0:0:
352,128,75261,6,0,B|384:288|320:192|288:192,1,119.999996821086
320,192,75574,1,0,0:0:0:0:
320,224,75938,1,0,0:0:0:0:
288,256,76303,1,0,0:0:0:0:
288,224,76511,2,0,L|288:128,1,59.9999984105428
288,128,76720,1,0,0:0:0:0:
288,128,76824,1,0,0:0:0:0:
256,128,76980,1,0,0:0:0:0:
256,128,77136,1,0,0:0:0:0:
256,160,77241,2,0,L|256:256,1,59.9999984105428
256,256,77449,2,0,P|320:256|288:288,2,119.999996821086
256,288,78230,1,0,0:0:0:0:
224,288,78491,1,0,0:0:0:0:
224,256,78907,6,0,L|384:96,2,179.999995231628
224,288,79428,1,0,0:0:0:0:
256,288,79688,1,0,0:0:0:0:
288,288,80522,6,0,L|288:160,1,119.999996821086
288,192,81286,1,0,0:0:0:0:
288,192,81633,1,0,0:0:0:0:
320,192,81911,1,0,0:0:0:0:
320,224,82327,1,0,0:0:0:0:
320,256,82813,2,0,L|96:256,2,179.999995231629
352,256,84063,1,0,0:0:0:0:
384,256,84619,1,0,0:0:0:0:
384,288,84827,1,0,0:0:0:0:
352,288,85036,1,0,0:0:0:0:
320,288,85244,1,0,0:0:0:0:
288,288,85452,6,0,B|416:32|256:96|192:160,2,299.999992052714
288,288,86355,1,0,0:0:0:0:
288,288,86563,1,0,0:0:0:0:
320,288,86772,1,0,0:0:0:0:
320,320,86980,1,0,0:0:0:0:
352,320,87188,1,0,0:0:0:0:
352,320,87397,1,0,0:0:0:0:
384,320,87605,1,0,0:0:0:0:
416,320,87744,6,0,P|384:160|320:224,2,299.999992052714
416,320,88577,1,0,0:0:0:0:
384,352,88786,1,0,0:0:0:0:
352,320,88994,1,0,0:0:0:0:
352,320,89133,1,0,0:0:0:0:
320,288,89550,2,0,L|96:256,2,179.999995231629
352,320,90244,1,0,0:0:0:0:
320,320,90522,1,0,0:0:0:0:
320,288,91494,5,0,0:0:0:0:
384,288,91702,1,0,0:0:0:0:
352,256,92050,1,0,0:0:0:0:
288,256,92466,1,0,0:0:0:0:
256,256,93022,2,0,L|160:224,4,59.9999984105428
256,256,94272,1,0,0:0:0:0:
320,256,94897,1,0,0:0:0:0:
256,288,96147,5,0,0:0:0:0:
224,288,96633,1,0,0:0:0:0:
224,256,97327,1,0,0:0:0:0:
256,256,97813,1,0,0:0:0:0:
256,224,98577,1,0,0:0:0:0:
224,224,98994,1,0,0:0:0:0:
224,192,99688,1,0,0:0:0:0:
256,192,100105,1,0,0:0:0:0:
320,160,100800,5,0,0:0:0:0:
320,192,101286,1,0,0:0:0:0:
288,160,102188,5,0,0:0:0:0:
288,192,102744,1,0,0:0:0:0:
256,160,103647,5,0,0:0:0:0:
256,192,104133,1,0,0:0:0:0:
224,160,105036,5,0,0:0:0:0:
224,192,105452,1,0,0:0:0:0:
192,160,106216,5,0,0:0:0:0:
192,192,106702,1,0,0:0:0:0:
160,128,107536,5,0,0:0:0:0:
160,192,108091,1,0,0:0:0:0:
96,128,108855,5,0,0:0:0:0:
96,192,109341,1,0,0:0:0:0:
160,192,109966,5,0,0:0:0:0:
480,256,110591,1,0,0:0:0:0:
256,288,111425,5,0,0:0:0:0:
128,288,111911,1,0,0:0:0:0:
96,224,112675,5,0,0:0:0:0:
160,192,113369,1,0,0:0:0:0:
