osu file format v14

[General]
AudioFilename: audio.mp3
AudioLeadIn: 0
PreviewTime: 10053
Countdown: 0
SampleSet: Soft
StackLeniency: 0.7
Mode: 0
LetterboxInBreaks: 0
WidescreenStoryboard: 0

[Editor]
Bookmarks: 10092,30197,40249,50301,60354,70406,90511,95537
DistanceSpacing: 1.6
BeatDivisor: 8
GridSize: 8
TimelineZoom: 1.8

[Metadata]
Title:dancing on the sidewalk lights flicker
TitleUnicode:dancing on the sidewalk lights flicker
Artist:david shawty
ArtistUnicode:david shawty
Creator:wafer
Version:xenon's normal
Source:
Tags:english electronic glitchcore glitch core rap hip-hop hip hop hyperpop hyper nitemare jamesjan3 apollo apo11o xenon- xehn xen ancelysia ancel goopert chills
BeatmapID:2739333
BeatmapSetID:1314466

[Difficulty]
HPDrainRate:4
CircleSize:3
OverallDifficulty:4
ApproachRate:5
SliderMultiplier:1
SliderTickRate:1

[Events]
//Background and Video events
0,0,"owl2.png",0,0
//Break Periods
//Storyboard Layer 0 (Background)
//Storyboard Layer 1 (Fail)
//Storyboard Layer 2 (Pass)
//Storyboard Layer 3 (Foreground)
//Storyboard Layer 4 (Overlay)
//Storyboard Sound Samples
Sample,76626,0,"wafer_goodnight.wav or something.wav",55

[TimingPoints]
40,314.13612565445,4,2,0,60,1,0
10092,-100,4,2,1,100,0,0
10170,-100,4,2,0,90,0,0
15118,-100,4,2,1,100,0,0
15197,-100,4,2,0,90,0,0
25170,-100,4,2,1,100,0,0
25249,-100,4,2,0,90,0,0
30197,-100,4,2,0,70,0,0
40249,-100,4,2,1,100,0,0
40327,-100,4,2,0,90,0,0
65066,-100,4,2,1,100,0,0
65144,-100,4,2,0,90,0,0
65380,-100,4,2,0,70,0,0
67893,-100,4,2,0,100,0,0
68521,-100,4,2,0,90,0,0
70406,-100,4,2,1,100,0,0
70485,-100,4,2,0,90,0,0
90511,-294.273438879407,4,2,0,90,0,0
91453,-80,4,2,1,70,0,0
92396,-80,4,2,0,60,0,0
93652,-80,4,2,1,50,0,0
94280,-80,4,2,0,30,0,0
95498,-80,4,2,1,5,0,0

[Colours]
Combo1 : 45,198,255
Combo2 : 242,13,13
Combo3 : 236,106,19
Combo4 : 41,80,214

[HitObjects]
68,72,10092,6,0,P|57:119|82:162,1,100,4|0,1:2|1:0,0:0:0:0:
119,204,10563,1,4,1:3:0:0:
119,204,10720,1,8,1:0:0:0:
207,156,11034,1,10,1:3:0:0:
290,211,11348,2,0,L|282:275,1,50,2|0,0:0|0:0,0:0:0:0:
274,309,11663,1,4,1:3:0:0:
350,373,11977,2,0,L|449:360,1,100,8|0,1:0|0:0,0:0:0:0:
511,282,12605,6,2,P|521:234|496:191,1,100,4|0,1:3|0:0,3:2:0:0:
465,160,13076,1,4,1:3:0:0:
465,160,13233,1,8,1:0:0:0:
377,209,13547,2,0,L|277:196,1,100,10|2,1:3|0:0,0:0:0:0:
198,258,14176,1,4,1:3:0:0:
116,200,14490,2,0,L|109:150,1,50,8|4,0:1|1:3,0:0:0:0:
103,100,14804,1,0,0:0:0:0:
173,28,15118,6,0,P|220:17|263:42,1,100,6|2,1:2|3:0,0:0:0:0:
302,82,15589,1,4,1:3:0:0:
302,82,15746,1,8,1:0:0:0:
387,30,16060,1,10,1:3:0:0:
469,86,16374,2,0,L|477:150,1,50,2|0,0:0|0:0,0:0:0:0:
484,184,16689,1,4,1:3:0:0:
412,253,17003,2,0,L|312:240,1,100,8|0,1:0|0:0,0:0:0:0:
247,315,17631,6,0,L|131:329,1,100,4|0,1:3|0:0,0:0:0:0:
102,336,18102,1,0,1:3:0:0:
102,336,18259,1,8,1:0:0:0:
20,277,18574,2,0,P|9:229|34:186,1,100,10|2,1:3|0:0,0:0:0:0:
114,126,19202,1,4,1:3:0:0:
193,185,19516,2,0,L|292:197,1,100,2|2,0:0|0:0,0:0:0:0:
347,280,20144,6,0,P|394:290|437:265,1,100,4|4,1:0|1:3,0:0:0:0:
469,228,20615,1,4,1:3:0:0:
469,228,20772,1,8,1:0:0:0:
404,151,21086,1,4,1:3:0:0:
463,70,21401,2,0,L|512:76,2,50,6|0|6,1:3|0:0|1:3,0:0:0:0:
389,1,22029,1,8,1:0:0:0:
330,82,22343,1,4,1:3:0:0:
240,37,22657,6,0,P|192:26|149:51,1,100,4|4,1:3|1:3,0:0:0:0:
123,95,23129,1,4,1:3:0:0:
123,95,23286,1,8,1:0:0:0:
27,124,23600,1,4,1:3:0:0:
24,224,23914,1,4,1:3:0:0:
118,256,24228,1,4,1:3:0:0:
179,177,24542,2,0,L|228:183,1,50,8|8,1:0|1:3,0:0:0:0:
278,192,24856,1,4,1:3:0:0:
354,255,25170,6,0,P|364:302|339:345,1,100,4|4,1:2|1:3,3:0:0:0:
300,374,25642,1,4,1:3:0:0:
300,374,25799,1,8,1:0:0:0:
225,307,26112,1,4,1:3:0:0:
128,334,26427,2,0,L|121:383,2,50,4|0|6,1:3|0:0|1:3,0:0:0:0:
58,261,27055,1,8,1:0:0:0:
122,184,27369,1,4,1:3:0:0:
44,120,27683,6,0,P|33:72|58:29,1,100,4|4,1:3|1:3,0:0:0:0:
104,5,28155,1,4,1:3:0:0:
104,5,28312,1,8,1:0:0:0:
187,60,28626,1,4,1:3:0:0:
271,6,28940,2,0,P|302:6|324:18,1,50,6|0,1:3|0:0,0:0:0:0:
354,48,29254,1,6,1:3:0:0:
453,37,29568,2,0,P|470:62|473:87,1,50,8|4,1:3|1:3,0:0:0:0:
466,129,29882,1,8,1:3:0:0:
391,195,30197,6,0,B|378:169|378:169|236:186|236:186|224:161,1,200,2|8,0:0|0:1,1:0:0:0:
133,120,31139,1,2,3:1:0:0:
54,181,31453,2,0,P|29:223|41:271,2,100,2|0|8,0:0|0:0|0:1,0:0:0:0:
133,120,32396,1,2,0:0:0:0:
225,161,32710,6,0,B|323:138|308:236|406:213,1,200,0|8,3:0|0:1,0:0:0:0:
480,280,33652,1,2,0:3:0:0:
428,364,33966,2,0,L|316:377,2,100,2|0|8,0:0|3:0|3:1,0:0:0:0:
480,280,34909,1,2,3:2:0:0:
407,212,35223,6,0,P|386:134|320:192,1,200,2|8,0:0|0:1,0:0:0:0:
240,250,36165,1,2,0:0:0:0:
165,182,36479,2,0,P|117:170|75:195,1,100,2|0,0:0|0:0,0:0:0:0:
49,239,36950,1,0,0:0:0:0:
49,239,37108,2,0,L|62:350,1,100,8|0,0:1|0:0,0:0:0:0:
157,361,37736,6,0,P|259:339|279:244,1,200,2|8,0:0|0:1,0:0:0:0:
234,168,38678,1,2,0:0:0:0:
330,143,38992,2,0,L|429:154,1,100,2|0,0:0|0:0,0:0:0:0:
471,126,39464,1,0,0:0:0:0:
471,126,39621,2,0,P|495:83|483:36,1,100,4|0,1:3|0:0,1:0:0:0:
386,9,40249,6,0,L|282:21,2,100,4|4|8,1:2|1:3|1:0,0:0:0:0:
483,36,41191,1,4,1:3:0:0:
440,126,41505,2,0,P|428:173|452:215,1,100,4|4,1:3|1:3,0:0:0:0:
424,309,42134,2,0,L|374:315,1,50,8|8,1:0|1:3,0:0:0:0:
324,319,42448,1,4,1:3:0:0:
246,380,42762,6,0,L|134:366,1,100,6|4,1:3|1:3,0:0:0:0:
93,283,43390,1,8,1:0:0:0:
150,201,43704,1,4,1:3:0:0:
71,137,44019,2,0,P|46:94|58:47,1,100,4|6,1:3|1:3,0:0:0:0:
146,0,44647,2,0,L|209:8,1,50,8|8,1:0|1:3,0:0:0:0:
245,13,44961,1,4,1:3:0:0:
315,84,45275,6,0,P|315:115|303:137,1,50,6|2,1:3|0:3,0:0:0:0:
260,151,45589,2,0,P|250:174|252:198,1,50,6|10,1:3|1:3,0:0:0:0:
277,241,45903,2,0,L|376:253,1,100,4|4,1:3|1:3,0:0:0:0:
466,208,46532,2,0,P|477:160|453:118,1,100,6|4,1:3|1:3,0:0:0:0:
362,76,47161,2,0,L|312:81,1,50,8|8,1:0|1:3,0:0:0:0:
262,84,47475,1,4,1:3:0:0:
191,12,47788,6,0,L|80:-2,1,100,6|4,1:3|1:3,0:0:0:0:
16,64,48417,1,8,1:0:0:0:
70,147,48731,1,4,1:3:0:0:
4,222,49045,2,0,P|-7:269|16:311,1,100,6|4,1:3|1:3,0:0:0:0:
103,361,49674,2,0,L|152:354,1,50,8|8,1:0|1:3,0:0:0:0:
202,349,49988,1,2,0:1:0:0:
265,271,50302,6,0,L|328:279,2,50,2|0|0,3:2|3:0|1:0,3:0:0:0:
233,240,50772,1,4,1:3:0:0:
233,240,50930,2,0,L|221:137,1,100,8|4,0:1|0:3,0:0:0:0:
281,60,51558,2,0,P|328:48|370:72,1,100,2|4,0:0|1:3,0:0:0:0:
407,114,52029,1,0,0:0:0:0:
407,114,52186,1,8,1:0:0:0:
486,174,52500,1,4,1:3:0:0:
424,252,52814,6,0,L|430:301,2,50,2|0|0,3:2|3:0|3:0,3:0:0:0:
392,221,53286,1,4,1:3:0:0:
392,221,53443,2,0,P|344:209|302:233,1,100,10|4,1:0|1:3,0:0:0:0:
243,313,54070,2,0,L|132:299,1,100,2|4,0:0|1:3,0:0:0:0:
99,294,54541,1,0,0:0:0:0:
99,294,54698,1,8,1:0:0:0:
35,217,55012,1,10,1:3:0:0:
99,140,55327,6,0,P|87:92|111:50,1,100,4|2,1:3|3:2,0:0:0:0:
156,25,55798,1,4,0:3:0:0:
156,25,55955,1,8,1:0:0:0:
232,88,56269,1,4,1:3:0:0:
317,35,56584,2,0,L|381:42,1,50,2|0,0:0|0:0,0:0:0:0:
416,46,56898,1,4,1:3:0:0:
487,116,57212,2,0,P|499:164|475:206,1,100,8|2,1:0|1:3,0:0:0:0:
376,223,57841,6,0,L|369:272,2,50,0|0|2,3:0|0:0|0:0,0:0:0:0:
336,192,58311,1,4,1:3:0:0:
336,192,58469,2,0,P|324:144|348:102,1,100,8|4,0:1|0:3,0:0:0:0:
292,18,59097,2,0,L|192:30,1,100,2|4,0:0|1:3,0:0:0:0:
147,39,59568,1,0,0:0:0:0:
147,39,59725,1,8,1:0:0:0:
93,123,60039,1,2,0:0:0:0:
160,197,60354,5,2,1:0:0:0:
93,271,60668,2,0,P|69:313|81:360,2,100
160,197,61610,2,0,B|235:182|223:251|298:237,1,150,2|0,1:0|0:0,1:0:0:0:
342,215,62238,2,0,P|384:238|431:226,1,100
502,156,62867,6,0,L|488:45,1,100,2|0,1:0|0:0,1:0:0:0:
456,26,63338,1,0,0:0:0:0:
456,26,63495,2,0,P|413:2|366:14,1,100,2|0,1:0|0:0,1:0:0:0:
292,81,64123,1,2,1:0:0:0:
200,39,64438,1,2,1:0:0:0:
131,113,64752,1,2,1:0:0:0:
180,201,65066,1,4,3:2:0:0:
280,181,65380,6,2,L|379:192,1,100,2|0,1:0|0:0,0:3:0:0:
433,201,65851,1,4,0:3:0:0:
433,201,66008,1,2,0:0:0:0:
493,280,66322,1,4,1:3:0:0:
431,358,66636,2,0,L|381:364,1,50,0|0,3:0|3:0,3:0:0:0:
345,329,66950,2,0,P|297:341|255:317,1,100,8|2,1:3|0:0,0:0:0:0:
212,226,67579,1,2,0:0:0:0:
305,188,67893,6,0,L|354:194,1,50,8|8,1:3|1:3,0:0:0:0:
391,160,68207,2,0,L|440:153,1,50,8|8,1:3|1:3,0:3:0:0:
474,116,68521,2,0,P|486:68|462:26,1,100,8|8,1:0|1:0,0:0:0:0:
364,46,69149,2,0,P|307:-10|260:75,1,200,8|0,0:1|0:0,1:0:0:0:
54,70,70406,6,0,P|101:60|144:85,1,100,4|8,1:2|1:3,0:0:0:0:
178,128,70877,1,4,1:3:0:0:
178,128,71034,1,4,1:3:0:0:
206,223,71348,1,10,1:3:0:0:
125,282,71663,2,0,L|119:331,2,50,6|0|6,1:3|0:0|1:3,0:0:0:0:
43,223,72291,1,8,1:0:0:0:
73,126,72605,1,8,1:3:0:0:
178,128,72919,6,0,P|226:117|269:142,1,100,4|8,1:3|1:3,0:0:0:0:
298,188,73391,1,4,1:3:0:0:
298,188,73548,1,8,1:0:0:0:
260,280,73862,1,10,1:3:0:0:
352,318,74176,1,4,1:3:0:0:
390,226,74490,1,4,1:3:0:0:
477,178,74804,2,0,L|471:129,1,50,8|8,1:0|1:3,0:0:0:0:
463,79,75118,1,4,1:3:0:0:
375,31,75432,6,0,P|328:21|285:46,1,100,10|8,1:3|1:3,0:0:0:0:
256,85,75904,1,4,1:3:0:0:
256,85,76061,1,8,1:0:0:0:
170,135,76374,1,4,1:3:0:0:
77,95,76689,2,0,L|70:46,2,50,10|0|10,1:3|0:0|1:3,0:0:0:0:
11,170,77317,1,8,1:0:0:0:
76,245,77631,1,4,1:3:0:0:
35,336,77945,6,0,L|134:348,1,100,6|8,1:3|1:3,0:0:0:0:
188,358,78417,1,4,1:3:0:0:
188,358,78574,1,8,1:0:0:0:
256,284,78888,1,10,1:3:0:0:
197,202,79202,2,0,P|197:171|209:149,1,50,4|0,1:3|0:0,0:0:0:0:
239,119,79516,1,4,1:3:0:0:
228,20,79830,2,0,P|253:3|278:0,1,50,8|4,1:0|1:3,0:0:0:0:
320,7,80144,1,4,1:3:0:0:
405,58,80458,6,0,P|416:105|391:148,1,100,2|2,1:3|0:0,0:0:0:0:
355,182,80929,1,2,0:0:0:0:
355,182,81086,1,8,1:0:0:0:
266,134,81400,1,6,1:3:0:0:
201,210,81714,2,0,L|209:274,1,50,2|0,1:3|0:0,0:0:0:0:
214,309,82029,1,10,1:3:0:0:
127,358,82343,2,0,P|79:368|36:343,1,100,8|0,1:0|0:0,0:0:0:0:
1,250,82971,6,0,L|14:151,1,100,4|0,1:3|0:0,0:0:0:0:
27,105,83442,1,4,1:3:0:0:
27,105,83599,1,8,1:0:0:0:
119,66,83914,2,0,P|167:56|210:81,1,100,6|2,1:3|1:3,0:0:0:0:
280,150,84542,1,4,1:3:0:0:
223,232,84856,2,0,L|230:282,1,50,8|4,1:0|1:3,0:0:0:0:
237,333,85170,1,0,0:0:0:0:
329,371,85484,6,0,P|376:382|419:357,1,100,6|8,1:3|1:3,0:0:0:0:
455,323,85955,1,4,1:3:0:0:
455,323,86112,1,8,1:0:0:0:
390,247,86426,1,2,1:0:0:0:
447,165,86740,2,0,L|439:101,1,50,2|0,1:3|0:0,0:0:0:0:
432,67,87055,1,6,1:3:0:0:
348,11,87369,2,0,P|301:0|258:25,1,100,8|0,1:0|0:0,0:0:0:0:
196,103,87997,6,0,L|210:219,1,100,4|0,1:3|0:0,0:0:0:0:
217,248,88468,1,4,1:3:0:0:
217,248,88625,1,8,1:0:0:0:
158,330,88940,2,0,P|110:341|67:316,1,100,4|2,1:3|0:3,0:0:0:0:
8,236,89568,1,2,3:0:0:0:
66,157,89882,2,0,L|78:58,1,100,2|2,0:3|0:3,0:0:0:0:
159,0,90511,6,0,B|197:4|203:43|203:43|208:81|247:87|247:87|285:93|290:130|290:130|296:169|335:175|335:175|373:180|378:218|378:218|383:256|422:262|422:262|461:268|466:306|466:306|472:344|510:350,1,539.464252528739,6|0,0:0|0:0,1:0:0:0:
