osu file format v14

[General]
AudioFilename: audio.mp3
AudioLeadIn: 0
PreviewTime: 10053
Countdown: 0
SampleSet: Soft
StackLeniency: 0.7
Mode: 0
LetterboxInBreaks: 0
WidescreenStoryboard: 0

[Editor]
Bookmarks: 20144,30197,40249,50301,60354,65380,70406,80458
DistanceSpacing: 1.6
BeatDivisor: 8
GridSize: 32
TimelineZoom: 2.6

[Metadata]
Title:dancing on the sidewalk lights flicker
TitleUnicode:dancing on the sidewalk lights flicker
Artist:david shawty
ArtistUnicode:david shawty
Creator:wafer
Version:jamesjan's insane
Source:
Tags:english electronic glitchcore glitch core rap hip-hop hip hop hyperpop hyper nitemare jamesjan3 apollo apo11o xenon- xehn xen ancelysia ancel goopert chills
BeatmapID:2742645
BeatmapSetID:1314466

[Difficulty]
HPDrainRate:4.8
CircleSize:4
OverallDifficulty:8
ApproachRate:9
SliderMultiplier:2
SliderTickRate:1

[Events]
//Background and Video events
0,0,"owl2.png",0,0
//Break Periods
//Storyboard Layer 0 (Background)
//Storyboard Layer 1 (Fail)
//Storyboard Layer 2 (Pass)
//Storyboard Layer 3 (Foreground)
//Storyboard Layer 4 (Overlay)
//Storyboard Sound Samples
Sample,76626,0,"wafer_goodnight.wav or something.wav",55

[TimingPoints]
40,314.13612565445,4,2,0,60,1,0
7579,-100,4,2,0,60,0,0
9778,-80,4,2,0,60,0,0
10092,-80,4,2,1,100,0,0
10170,-80,4,2,0,90,0,0
10563,-80,4,2,0,90,0,0
11034,-133.333333333333,4,2,0,90,0,0
11348,-80,4,2,0,90,0,0
12291,-100,4,2,0,90,0,0
12605,-80,4,2,0,90,0,0
13547,-133.333333333333,4,2,0,90,0,0
13861,-80,4,2,0,90,0,0
14804,-100,4,2,0,90,0,0
15118,-80,4,2,1,100,0,0
15197,-80,4,2,0,90,0,0
16060,-133.333333333333,4,2,0,90,0,0
16375,-80,4,2,0,90,0,0
17317,-133.333333333333,4,2,0,90,0,0
17631,-80,4,2,0,90,0,0
18574,-133.333333333333,4,2,0,90,0,0
18888,-80,4,2,0,90,0,0
19516,-160,4,2,0,90,0,0
19830,-80,4,2,0,90,0,0
20144,-66.6666666666667,4,2,0,90,0,0
21087,-133.333333333333,4,2,0,90,0,0
21401,-66.6666666666667,4,2,0,90,0,0
22343,-133.333333333333,4,2,0,90,0,0
22657,-66.6666666666667,4,2,0,90,0,0
23600,-133.333333333333,4,2,0,90,0,0
23914,-66.6666666666667,4,2,0,90,0,0
24856,-133.333333333333,4,2,0,90,0,0
25170,-66.6666666666667,4,2,1,100,0,0
25249,-66.6666666666667,4,2,0,90,0,0
26113,-133.333333333333,4,2,0,90,0,0
26427,-66.6666666666667,4,2,0,90,0,0
27369,-133.333333333333,4,2,0,90,0,0
27683,-66.6666666666667,4,2,0,90,0,0
28626,-133.333333333333,4,2,0,90,0,0
28940,-66.6666666666667,4,2,0,90,0,0
29882,-133.333333333333,4,2,0,90,0,0
30197,-200,4,2,0,70,0,0
39621,-80,4,2,0,70,0,0
40249,-80,4,2,1,100,0,0
40327,-80,4,2,0,90,0,0
42448,-133.333333333333,4,2,0,90,0,0
42762,-80,4,2,0,90,0,0
44961,-133.333333333333,4,2,0,90,0,0
45275,-80,4,2,0,90,0,0
50301,-100,4,2,0,90,0,0
60354,-66.6666666666667,4,2,0,90,0,0
60668,-200,4,2,0,90,0,0
61610,-66.6666666666667,4,2,0,90,0,0
61924,-200,4,2,0,90,0,0
62867,-66.6666666666667,4,2,0,90,0,0
63181,-200,4,2,0,90,0,0
63495,-66.6666666666667,4,2,0,90,0,0
63809,-200,4,2,0,90,0,0
64123,-66.6666666666667,4,2,0,90,0,0
65066,-133.333333333333,4,2,1,100,0,0
65144,-133.333333333333,4,2,0,90,0,0
65380,-133.333333333333,4,2,0,70,0,0
66636,-100,4,2,0,70,0,0
66950,-133.333333333333,4,2,0,70,0,0
67422,-80,4,2,0,70,0,0
67893,-133.333333333333,4,2,0,100,0,0
68521,-133.333333333333,4,2,0,90,0,0
68835,-66.6666666666667,4,2,0,90,0,0
69149,-100,4,2,0,90,0,0
70404,-66.6666666666667,4,2,1,100,0,0
70485,-66.6666666666667,4,2,0,90,0,0
71347,-133.333333333333,4,2,0,90,0,0
71661,-66.6666666666667,4,2,0,90,0,0
72603,-133.333333333333,4,2,0,90,0,0
72917,-66.6666666666667,4,2,0,90,0,0
73860,-133.333333333333,4,2,0,90,0,0
74174,-66.6666666666667,4,2,0,90,0,0
75116,-133.333333333333,4,2,0,90,0,0
75430,-66.6666666666667,4,2,0,90,0,0
76373,-133.333333333333,4,2,0,90,0,0
76687,-66.6666666666667,4,2,0,90,0,0
77629,-133.333333333333,4,2,0,90,0,0
77943,-66.6666666666667,4,2,0,90,0,0
78886,-133.333333333333,4,2,0,90,0,0
79200,-66.6666666666667,4,2,0,90,0,0
80142,-133.333333333333,4,2,0,90,0,0
80458,-80,4,2,0,90,0,0
80929,-80,4,2,0,90,0,0
81400,-133.333333333333,4,2,0,90,0,0
81714,-80,4,2,0,90,0,0
82657,-100,4,2,0,90,0,0
82971,-80,4,2,0,90,0,0
83913,-133.333333333333,4,2,0,90,0,0
84227,-80,4,2,0,90,0,0
85170,-100,4,2,0,90,0,0
85484,-80,4,2,0,90,0,0
86426,-133.333333333333,4,2,0,90,0,0
86741,-80,4,2,0,90,0,0
87683,-133.333333333333,4,2,0,90,0,0
87997,-80,4,2,0,90,0,0
88940,-133.333333333333,4,2,0,90,0,0
89254,-80,4,2,0,90,0,0
89882,-160,4,2,0,90,0,0
90196,-80,4,2,0,90,0,0
91453,-80,4,2,1,70,0,0
92396,-80,4,2,0,60,0,0
93652,-80,4,2,1,50,0,0
94280,-80,4,2,0,30,0,0
95498,-80,4,2,1,5,0,0

[Colours]
Combo1 : 45,198,255
Combo2 : 242,13,13
Combo3 : 236,106,19
Combo4 : 41,80,214

[HitObjects]
38,147,7580,6,0,B|106:114|106:210|171:179,1,150,2|0,0:3|0:0,0:0:0:0:
172,179,8208,6,0,B|109:136|192:88|133:47,1,150,8|0,0:1|0:0,0:0:0:0:
133,48,8836,6,0,B|127:123|44:75|38:147,1,150,2|0,0:0|0:0,0:0:0:0:
38,147,9465,6,0,B|44:75|127:123|133:48,1,150,8|0,0:1|0:0,0:0:0:0:
58,21,9779,6,0,B|21:108|141:102|106:186,1,187.5,2|0,0:3|0:0,0:0:0:0:
39,272,10093,6,0,B|24:231|24:231|96:167|202:231|184:304,1,250,4|0,1:2|1:0,0:0:0:0:
84,353,10564,2,0,B|10:357,1,62.5,4|0,1:3|0:0,0:0:0:0:
9,365,10721,2,0,L|158:385,1,125,8|0,1:0|0:0,0:0:0:0:
286,378,11035,6,0,B|301:380|301:380|273:278,1,112.500004291535,10|0,1:3|0:0,3:0:0:0:
318,221,11349,6,0,B|355:198|412:229|412:229|385:249,1,125,2|0,0:0|0:0,0:0:0:0:
201,261,11664,2,0,B|125:252|125:252|117:258|117:258|4:249,1,187.5,4|0,1:3|0:0,3:0:0:0:
16,250,11978,1,8,1:0:0:0:
79,33,12135,1,4,1:3:0:0:
85,117,12292,6,0,B|62:121|62:121|40:168|40:168|48:116|48:116|28:102,1,150
83,37,12606,6,2,B|110:34|110:34|114:37|114:37|134:45|134:45|137:50|137:50|160:67|160:67|158:73|158:73|165:95|165:95|169:114|169:114|165:118|165:118|170:148|170:148|175:150|175:150|196:173|196:173|202:172|202:172|219:181|219:181|244:178,1,250,4|0,1:3|0:0,3:2:0:0:
246,94,13077,2,0,L|254:23,1,62.5,4|0,1:3|0:0,0:0:0:0:
266,19,13234,2,0,P|299:60|313:135,1,125,8|0,1:0|0:0,0:0:0:0:
349,286,13548,6,0,B|364:306|364:306|388:211,1,112.500004291535,10|0,1:3|0:0,0:0:0:0:
401,146,13862,6,0,P|446:171|458:248,1,125,2|0,0:0|0:0,0:0:0:0:
236,384,14177,2,0,B|151:384|132:303|132:303|141:321|167:329,1,187.5,4|0,1:3|0:0,0:0:0:0:
165,328,14491,1,8,0:1:0:0:
376,240,14648,1,4,1:3:0:0:
297,262,14805,6,0,B|282:253|282:253|262:281|242:297|242:297|267:286|300:292|300:292|304:266,1,150
380,244,15119,6,0,B|403:217|400:179|400:179|396:182|396:182|381:140|399:96|399:96|406:99|406:99|424:51|395:11,1,250,6|2,1:2|3:0,0:0:0:0:
497,93,15590,2,0,L|487:168,1,62.5,4|0,1:3|0:0,0:0:0:0:
478,165,15747,2,0,P|416:166|355:119,1,125,8|0,1:0|0:0,0:0:0:0:
169,172,16061,2,0,B|154:152|154:152|244:166,1,112.500004291535,10|0,1:3|0:0,3:0:0:0:
275,91,16376,6,0,P|310:123|307:220,1,125,2|0,0:0|0:0,0:0:0:0:
222,348,16690,2,0,B|200:364|166:358|166:358|90:344|90:344|59:337|35:370,1,187.5,4|0,1:3|0:0,0:0:0:0:
43,359,17004,1,8,1:0:0:0:
4,158,17161,1,4,1:3:0:0:
67,215,17318,6,0,B|90:228|86:267|86:267|49:250|46:219,1,112.500004291535
7,161,17632,6,0,B|27:132|81:124|108:144|108:144|121:143|121:143|161:177|216:168|235:136,1,250,4|0,1:3|0:0,0:0:0:0:
330,6,18103,2,0,P|299:48|302:84,1,62.5,0|0,1:3|0:0,0:0:0:0:
267,72,18260,2,0,L|291:226,1,125,8|0,1:0|0:0,0:0:0:0:
381,368,18575,6,0,B|407:382|407:382|392:294,1,112.500004291535,10|0,1:3|0:0,0:0:0:0:
362,229,18889,6,0,B|309:243|309:243|295:278|315:310,1,125,2|0,0:0|0:0,0:0:0:0:
483,340,19203,2,0,B|500:315|500:315|483:182|483:182|506:144,1,187.5,4|0,1:3|0:0,0:0:0:0:
491,174,19517,6,0,P|504:155|485:168,1,62.5,2|0,0:0|0:0,0:0:0:0:
343,62,19831,6,0,P|330:80|348:67,1,62.5,2|0,0:0|0:0,0:0:0:0:
489,18,20145,6,0,B|452:12|452:12|451:75|451:75|307:261,1,300.000011444092,4|4,1:0|1:3,0:0:0:0:
166,337,20616,2,0,P|157:300|171:265,1,75.0000028610231,4|0,1:3|0:0,0:0:0:0:
188,257,20773,2,0,B|264:234|253:330|323:315,1,150.000005722046,8|0,1:0|0:0,0:0:0:0:
475,162,21088,6,0,B|501:125|403:178|460:236,1,112.500004291535,4|0,1:3|0:0,0:0:0:0:
453,228,21402,6,0,B|465:201|465:201|429:69,1,150.000005722046,6|0,1:3|0:0,0:0:0:0:
348,223,21716,2,0,L|258:100,1,150.000005722046,6|0,1:3|0:0,0:0:0:0:
314,316,22030,2,0,B|295:324|295:324|180:262,1,150.000005722046,8|8,1:0|1:3,0:0:0:0:
25,86,22344,6,0,B|36:115|26:140|26:140|36:115|62:98,1,112.500004291535,4|0,1:3|0:0,0:0:0:0:
67,16,22658,6,0,P|51:109|56:272,1,225.000008583069,4|0,1:3|0:0,0:0:0:0:
73,315,22972,2,0,B|107:333|107:333|168:328|181:259,1,150.000005722046,4|4,1:3|1:3,0:0:0:0:
298,156,23287,1,8,1:0:0:0:
136,131,23444,1,0,0:0:0:0:
298,156,23601,6,0,B|269:134|269:134|247:178|190:179,1,112.500004291535,4|0,1:3|0:0,0:0:0:0:
140,135,23915,6,0,P|192:215|169:275,1,150.000005722046,4|0,1:3|0:0,0:0:0:0:
356,83,24229,2,0,L|271:206,1,150.000005722046,4|0,1:3|0:0,0:0:0:0:
382,309,24543,2,0,P|316:281|250:312,1,150.000005722046,8|8,1:0|1:3,0:0:0:0:
127,239,24857,6,0,B|96:234|93:272|144:296|194:250,1,112.500004291535,4|0,1:3|0:0,0:0:0:0:
179,261,25171,6,0,P|116:186|154:77,1,150.000005722046,4|0,1:2|3:0,3:0:0:0:
89,63,25407,1,0,3:0:0:0:
112,57,25486,2,0,B|215:59|175:158|245:135,1,150.000005722046,4|4,1:3|1:3,0:0:0:0:
382,33,25800,2,0,B|363:10|363:10|312:49|333:123,1,150.000005722046,8|0,1:0|0:0,0:0:0:0:
407,284,26114,6,0,B|430:301|430:301|427:247|457:219,1,112.500004291535,4|0,1:3|0:0,0:0:0:0:
495,160,26428,6,0,B|465:133|408:148|408:148|390:186|352:195,1,150.000005722046,4|0,1:3|0:0,0:0:0:0:
293,327,26742,2,0,L|272:165,1,150.000005722046,6|0,1:3|0:0,0:0:0:0:
58,243,27056,2,0,B|73:205|131:195|131:195|164:222|202:214,1,150.000005722046,8|8,1:0|1:3,0:0:0:0:
376,304,27370,6,0,B|404:312|409:282|409:282|417:278|417:278|407:279|407:279|387:264|366:284,1,112.500004291535,4|0,1:3|0:0,0:0:0:0:
292,326,27684,6,0,B|239:304|239:304|234:226|285:197|285:197|290:202|290:202|342:154|325:74,1,300.000011444092,4|4,1:3|1:3,0:0:0:0:
166,42,28156,2,0,P|156:74|176:119,1,75.0000028610231,4|0,1:3|0:0,0:0:0:0:
181,126,28313,2,0,L|337:99,1,150.000005722046,8|0,1:0|0:0,0:0:0:0:
512,255,28627,6,0,B|461:267|480:188|420:210,1,112.500004291535,4|0,1:3|0:0,0:0:0:0:
421,210,28941,6,0,B|387:222|387:222|352:354,1,150.000005722046,6|0,1:3|0:0,0:0:0:0:
256,150,29255,2,0,L|256:311,1,150.000005722046,6|0,1:3|0:0,0:0:0:0:
90,210,29569,2,0,B|125:222|125:222|160:354,1,150.000005722046,8|4,1:3|1:3,0:0:0:0:
164,125,29883,6,0,B|126:98|125:50|166:-1|165:72,1,112.500004291535,8|0,1:3|0:0,0:0:0:0:
164,49,30198,6,0,P|167:121|158:256,1,200,2|8,0:0|0:1,1:0:0:0:
429,304,31140,2,0,P|445:318|425:320,1,50,2|0,3:1|0:0,3:0:0:0:
357,364,31454,6,0,P|348:300|352:246,1,100,2|0,0:0|0:0,0:0:0:0:
392,138,32082,2,0,P|401:74|397:20,1,100,8|2,0:1|0:0,0:0:0:0:
167,17,32711,6,0,P|160:42|158:86,1,50,0|0,3:0|3:0,0:0:0:0:
101,115,32946,1,0,3:0:0:0:
94,129,33025,2,0,P|97:164|105:183,1,50,2|0,0:0|0:0,0:0:0:0:
89,257,33339,1,8,0:1:0:0:
229,351,33653,2,0,P|256:349|312:361,1,75,2|0,0:3|0:0,0:0:0:0:
302,357,33967,6,0,P|307:310|296:240,1,100,2|0,0:0|3:0,0:0:0:0:
353,122,34595,2,0,P|348:72|354:22,1,100,8|2,3:1|3:2,0:0:0:0:
487,156,35224,6,0,P|477:214|477:371,1,200,2|8,0:0|0:1,0:0:0:0:
197,305,36166,2,0,P|153:317|137:326,1,50,2|2,0:0|0:0,0:0:0:0:
76,362,36480,6,0,P|64:326|64:258,1,100,2|0,0:0|0:0,0:0:0:0:
89,184,36951,1,0,0:0:0:0:
139,23,37109,2,0,P|144:72|139:122,1,100,8|0,0:1|0:0,0:0:0:0:
251,367,37737,6,0,P|249:267|262:168,1,200,2|8,0:0|0:1,0:0:0:0:
216,36,38679,2,0,P|222:75|231:96,1,50,2|0,0:0|0:0,0:0:0:0:
262,168,38993,2,0,P|260:239|250:285,1,100,2|0,0:0|0:0,0:0:0:0:
249,350,39465,1,0,0:0:0:0:
249,350,39622,6,0,B|260:272|183:288|175:161|244:110|244:110|291:152|313:239|233:200|241:296|275:315,1,437.5,4|0,1:3|0:0,1:0:0:0:
249,350,40250,6,0,B|223:357|223:357|98:337,1,125,4|0,1:2|0:0,0:0:0:0:
33,322,40564,1,4,1:3:0:0:
173,228,40721,1,4,1:3:0:0:
173,228,40878,2,0,B|147:221|147:221|22:241,1,125,8|0,1:0|0:0,0:0:0:0:
254,266,41192,2,0,B|280:273|280:273|405:253,1,125,4|0,1:3|0:0,0:0:0:0:
482,131,41506,6,0,B|485:113|485:113|455:36|455:36|468:2,1,125,4|0,1:3|0:0,0:0:0:0:
382,26,41821,2,0,B|373:49|373:49|403:126|403:126|400:144,1,125,4|0,1:3|0:0,0:0:0:0:
176,119,42135,2,0,B|202:81|202:81|303:88|303:88|322:131,1,187.5,8|0,1:0|0:0,0:0:0:0:
320,125,42449,6,0,L|310:214,1,75.0000028610231,4|0,1:3|0:0,0:0:0:0:
387,281,42763,6,0,B|346:271|346:271|194:353,1,187.5,6|0,1:3|0:0,0:0:0:0:
208,248,43077,2,0,B|249:252|249:252|366:379,1,187.5,4|0,1:3|0:0,0:0:0:0:
348,359,43391,1,8,1:0:0:0:
17,244,43705,1,4,1:3:0:0:
117,143,43862,1,0,0:0:0:0:
117,143,44020,6,0,B|97:239|97:239|117:278,1,125,4|0,1:3|0:0,0:0:0:0:
229,129,44334,2,0,B|155:63|155:63|112:61,1,125,6|0,1:3|0:0,0:0:0:0:
185,232,44648,2,0,B|278:201|278:201|301:164,1,125,8|8,1:0|1:3,0:0:0:0:
394,73,44962,6,0,B|407:64|407:64|395:23|395:23|375:61|375:61|391:78,1,112.500004291535,4|0,1:3|0:0,0:0:0:0:
375,152,45276,2,0,B|384:213,7,62.5,6|2|2|2|6|2|10|2,1:3|0:3|0:3|0:3|1:3|0:3|1:3|0:3,0:0:0:0:
443,274,45904,6,0,B|426:296|426:296|309:286,1,125,4|0,1:3|0:0,0:0:0:0:
181,216,46219,2,0,B|164:193|164:193|47:203,1,125,4|0,1:3|0:0,0:0:0:0:
67,281,46533,2,0,B|83:303|83:303|200:293,1,125,6|0,1:3|0:0,0:0:0:0:
315,212,46847,2,0,B|331:189|331:189|448:199,1,125,4|0,1:3|0:0,0:0:0:0:
367,61,47161,6,0,B|282:25|282:25|223:112,1,187.5,8|0,1:0|0:0,0:0:0:0:
232,121,47475,2,0,B|285:41|285:41|370:77,1,187.5,4|0,1:3|0:0,0:0:0:0:
380,104,47789,6,0,B|376:162|376:162|372:168|372:168|366:238,1,125,6|0,1:3|0:0,0:0:0:0:
232,121,48103,2,0,B|250:175|250:175|256:180|256:180|280:246,1,125,4|8,1:3|1:3,0:0:0:0:
345,371,48417,5,8,1:0:0:0:
117,320,48732,2,0,B|88:305|88:305|70:186|70:186|35:170,1,187.5,4|0,1:3|0:0,0:0:0:0:
38,172,49046,2,0,L|45:234,1,62.5,6|0,1:3|0:0,0:0:0:0:
309,185,49360,6,0,B|351:138|351:138|342:77,1,125,4|0,1:3|0:0,0:0:0:0:
194,38,49674,2,0,B|155:85|155:85|168:147,1,125,8|8,1:0|1:3,0:0:0:0:
251,92,49988,6,0,B|249:124|249:124|268:99,1,62.5,2|0,0:1|0:0,0:0:0:0:
512,36,50302,6,0,P|470:27|434:81,1,100,2|0,3:2|3:0,3:0:0:0:
388,136,50538,1,0,3:0:0:0:
378,155,50616,2,0,L|391:254,1,100,0|4,1:0|1:3,0:0:0:0:
406,340,50931,1,8,0:1:0:0:
493,335,51088,6,0,B|523:320|523:320|472:331,1,50,2|0,1:0|0:0,0:0:0:0:
406,340,51245,2,0,P|335:342|303:304,1,100,4|2,0:3|0:0,0:0:0:0:
209,236,51559,2,0,L|321:246,2,100,2|0|4,0:0|0:0|1:3,0:0:0:0:
137,296,52030,1,0,0:0:0:0:
33,85,52187,6,0,B|53:98|53:98|79:237,1,150,8|0,1:0|0:0,0:0:0:0:
76,221,52501,2,0,B|102:211|102:211|132:139,1,100,4|0,1:3|0:0,0:0:0:0:
262,54,52815,6,0,L|256:4,4,50,2|0|0|0|0,3:2|3:0|3:0|3:0|3:0,3:0:0:0:
214,130,53287,1,4,1:3:0:0:
352,51,53444,1,10,1:0:0:0:
351,214,53601,1,0,0:0:0:0:
303,129,53758,2,0,P|266:134|205:192,1,100,4|0,1:3|0:0,0:0:0:0:
107,226,54072,6,0,L|118:331,1,100,2|0,0:0|0:0,0:0:0:0:
202,369,54386,1,4,1:3:0:0:
202,369,54465,1,0,0:0:0:0:
469,279,54700,6,0,B|483:267|483:267|342:226,1,150,8|0,1:0|0:0,0:0:0:0:
356,230,55014,2,0,B|385:240|385:240|455:197,1,100,10|0,1:3|0:0,0:0:0:0:
410,32,55328,6,0,L|403:90,1,50,4|0,1:3|0:0,0:0:0:0:
396,35,55486,2,0,L|390:84,1,50
383,40,55643,2,0,L|371:157,1,100,2|4,3:2|0:3,0:0:0:0:
270,208,55957,2,0,P|231:185|239:121,2,100,8|0|4,1:0|0:0|1:3,0:0:0:0:
359,223,56428,1,2,0:0:0:0:
236,292,56585,6,0,P|187:336|170:373,1,100,2|0,0:0|0:0,0:0:0:0:
270,208,56899,2,0,P|245:164|206:134,1,100,4|0,1:3|0:0,0:0:0:0:
100,2,57213,6,0,B|77:27|77:27|93:163,1,150,8|0,1:0|0:0,0:0:0:0:
90,142,57527,2,0,B|108:160|108:160|97:261,1,100,2|0,1:3|0:0,0:0:0:0:
20,341,57842,6,0,P|74:313|136:343,1,100,0|0,3:0|0:0,0:0:0:0:
189,320,58077,1,0,0:0:0:0:
197,334,58156,2,0,P|238:365|277:318,1,100,2|4,0:0|1:3,0:0:0:0:
405,240,58470,1,8,0:1:0:0:
422,154,58627,6,0,B|427:123|427:123|428:144,1,50,2|0,1:0|0:0,0:0:0:0:
405,240,58784,2,0,L|285:249,1,100,4|0,0:3|0:0,0:0:0:0:
127,141,59098,2,0,P|214:143|240:221,1,150,2|0,0:0|0:0,0:0:0:0:
241,191,59412,1,4,1:3:0:0:
98,227,59569,1,0,0:0:0:0:
213,115,59726,2,0,B|211:73|211:73|123:147,1,150,8|0,1:0|0:0,0:0:0:0:
129,143,60040,2,0,L|142:245,1,100,2|0,0:0|0:0,0:0:0:0:
362,296,60355,6,0,B|386:331|327:427|264:253|190:326|190:371|224:378,1,225.000008583069,2|0,1:0|0:0,1:0:0:0:
212,372,60669,6,0,B|229:357|238:330|238:330|214:319|208:291,2,100
13,179,61611,6,0,B|-52:50|40:-45|57:37|23:49,1,225.000008583069,2|0,1:0|0:0,1:0:0:0:
23,48,61925,6,0,P|6:80|6:105,1,50
10,177,62239,2,0,B|40:194|64:187|64:187|89:140,1,100
346,104,62868,6,0,B|348:63|400:68|437:124|445:196|385:238,1,225.000008583069,2|0,1:0|0:0,1:0:0:0:
390,234,63182,2,0,L|329:223,1,50
156,176,63495,6,0,B|154:135|102:140|65:196|57:268|117:310,1,225.000008583069,2|0,1:0|0:0,1:0:0:0:
112,306,63809,2,0,L|173:295,1,50
329,127,64124,6,0,B|311:78|213:93|199:185|235:247,1,225.000008583069,2|0,1:0|0:0,1:0:0:0:
286,301,64438,2,0,B|335:309|371:217|299:159|236:159,1,225.000008583069,2|0,1:0|0:0,1:0:0:0:
156,176,64753,2,0,B|123:214|185:292|272:258|302:204,1,225.000008583069,2|0,1:0|0:0,1:0:0:0:
254,192,65067,6,0,B|252:219|252:219|273:210|273:210|246:183,1,75.0000028610231,4|0,3:2|0:0,0:0:0:0:
120,70,65380,5,2,1:0:0:0:
107,76,65459,1,2,0:0:0:0:
91,82,65537,1,2,0:0:0:0:
79,87,65616,1,2,0:0:0:0:
66,95,65695,2,0,L|53:145,1,37.5000014305115
156,176,65852,5,4,0:3:0:0:
175,185,65930,1,2,0:0:0:0:
199,194,66009,1,2,0:0:0:0:
218,201,66087,1,2,0:0:0:0:
237,213,66166,2,0,L|254:279,1,37.5000014305115,2|2,0:0|0:0,0:0:0:0:
110,365,66323,5,4,1:3:0:0:
100,358,66402,1,0,0:0:0:0:
96,348,66480,1,0,0:0:0:0:
99,337,66559,1,2,0:0:0:0:
106,329,66636,6,0,B|134:338|134:338|136:342|136:342|150:348|150:348|156:352|156:352|175:357|175:357|179:361|179:361|203:366|203:366|207:371|207:371|235:378|235:378|242:385,1,150,0|0,3:0|3:0,3:0:0:0:
265,373,66951,6,0,L|327:359,3,37.5000014305115,8|2|2|2,1:3|0:0|0:0|0:0,0:0:0:0:
312,284,67266,2,0,L|353:273,1,37.5000014305115,2|0,0:0|0:0,0:0:0:0:
499,230,67423,6,0,L|511:155,5,62.5,8|2|2|2|2|2,1:3|0:0|0:0|0:0|0:0|0:0,0:0:0:0:
440,306,67894,6,0,L|447:275,1,18.7500007152558,8|0,1:3|0:0,0:0:0:0:
440,306,67972,2,0,L|416:284,1,18.7500007152558,8|0,1:3|0:3,0:3:0:0:
440,306,68051,2,0,L|409:315,1,18.7500007152558,8|0,1:3|0:3,0:3:0:0:
440,306,68130,2,0,L|433:337,1,18.7500007152558,8|0,1:3|0:3,0:3:0:0:
440,306,68208,2,0,L|463:327,1,18.7500007152558,8|0,1:3|0:3,0:3:0:0:
440,306,68287,2,0,L|470:296,1,18.7500007152558,8|0,1:3|0:3,0:3:0:0:
440,306,68364,2,0,L|383:120,1,187.500007152558,8|0,1:3|0:0,0:3:0:0:
328,63,68836,6,0,P|231:103|236:170,1,150.000005722046,8|0,1:0|0:0,0:0:0:0:
35,177,69150,6,0,B|21:213|21:213|0:179|0:179|12:145|12:145|65:80|164:125|162:235|162:235|163:319|240:351|240:351|289:299|289:299|314:360|314:360|349:349|349:349|367:375|367:375|395:374|395:374|412:384,1,750,8|0,0:1|0:0,1:0:0:0:
408,382,70406,6,0,P|387:273|389:50,1,300.000011444092,4|8,1:2|1:3,0:0:0:0:
153,22,70877,2,0,P|144:59|158:94,1,75.0000028610231,4|0,1:3|0:0,0:0:0:0:
175,102,71034,2,0,B|251:125|240:29|310:44,1,150.000005722046,4|0,1:3|0:0,0:0:0:0:
483,201,71349,6,0,B|507:208|507:208|483:168|432:169,1,112.500004291535,10|0,1:3|0:0,0:0:0:0:
433,168,71663,6,0,B|413:234|413:234|457:327,1,150.000005722046,6|0,1:3|0:0,0:0:0:0:
280,168,71977,2,0,L|356:306,1,150.000005722046,6|0,1:3|0:0,0:0:0:0:
179,273,72291,2,0,B|255:300|255:300|287:361,1,150.000005722046,8|8,1:0|1:3,0:0:0:0:
26,297,72605,6,0,B|8:277|20:244|20:244|52:265|42:296,1,112.500004291535,8|0,1:3|0:0,0:0:0:0:
56,367,72919,6,0,B|36:338|36:338|44:139,1,225.000008583069,4|0,1:3|0:0,0:0:0:0:
10,74,73233,2,0,B|52:35|107:71|107:71|129:121,1,150.000005722046,8|4,1:3|1:3,0:0:0:0:
207,248,73548,1,8,1:0:0:0:
252,71,73705,1,0,0:0:0:0:
207,248,73861,6,0,B|160:254|203:188|254:227,1,93.7500035762788,10|0,1:3|0:0,0:0:0:0:
275,146,74176,6,0,P|321:228|298:284,1,150.000005722046,4|0,1:3|0:0,0:3:0:0:
391,185,74490,2,0,L|413:37,1,150.000005722046,4|0,1:3|0:0,0:0:0:0:
512,202,74804,2,0,P|435:256|432:317,1,150.000005722046,8|8,1:0|1:3,0:0:0:0:
242,344,75118,6,0,B|236:309|236:309|302:357,1,112.500004291535,4|0,1:3|0:0,0:0:0:0:
299,355,75432,6,0,P|199:371|149:342,1,150.000005722046,10|0,1:3|0:0,0:0:0:0:
86,301,75668,1,0,0:0:0:0:
74,289,75746,2,0,B|82:205|147:245|160:162,1,150.000005722046,8|4,1:3|1:3,0:0:0:0:
141,36,76061,2,0,B|111:40|111:40|62:82|83:156,1,150.000005722046,8|0,1:0|0:0,0:0:0:0:
352,270,76375,6,0,B|404:300|366:191|426:219,1,112.500004291535,4|0,1:3|0:0,0:0:0:0:
424,218,76689,6,0,P|386:277|365:367,1,150.000005722046,10|0,1:3|0:0,0:0:0:0:
297,198,77003,2,0,B|287:128|287:128|291:120|291:120|276:36,1,150.000005722046,10|0,1:3|0:0,0:0:0:0:
181,249,77317,2,0,P|232:297|275:378,1,150.000005722046,8|8,1:0|1:3,0:0:0:0:
301,118,77631,6,0,B|312:110|312:110|287:74|287:74|271:114|271:114|283:120,1,112.500004291535,4|0,1:3|0:0,0:0:0:0:
297,198,77945,6,0,B|335:154|320:101|244:83|141:126|187:270,1,300.000011444092,6|8,1:3|1:3,0:0:0:0:
21,316,78417,2,0,P|25:349|62:381,1,75.0000028610231,4|0,1:3|0:0,0:0:0:0:
71,368,78574,2,0,L|49:198,1,150.000005722046,8|0,1:0|0:0,0:0:0:0:
91,8,78888,6,0,B|122:59|101:127|73:101|78:65,1,112.500004291535,10|0,1:3|0:0,0:0:0:0:
79,86,79202,6,0,B|107:74|107:74|230:127,1,150.000005722046,4|0,1:3|0:0,0:0:0:0:
336,243,79516,2,0,B|265:219|268:305|199:268,1,150.000005722046,4|0,1:3|0:0,0:0:0:0:
304,119,79830,2,0,B|414:71|414:71|441:84,1,150.000005722046,8|4,1:0|1:3,0:0:0:0:
473,276,80144,6,0,B|435:249|434:201|475:150|474:223,1,112.500004291535,4|0,1:3|0:0,0:0:0:0:
470,195,80458,6,0,B|463:237|463:237|306:297|306:297|295:349,1,250,2|2,1:3|0:0,0:0:0:0:
21,356,80930,2,0,B|84:353,1,62.5,2|0,0:0|0:0,0:0:0:0:
99,342,81087,2,0,P|123:294|116:222,1,125,8|0,1:0|0:0,0:0:0:0:
26,24,81401,6,0,B|11:22|11:22|39:124,1,112.500004291535,6|0,1:3|0:0,0:0:0:0:
36,115,81715,6,0,P|97:141|149:101,1,125,2|0,1:3|0:0,0:0:0:0:
308,26,82030,2,0,B|261:8|210:70|210:70|227:108|214:146,1,187.5,10|0,1:3|0:0,3:0:0:0:
216,141,82344,1,8,1:0:0:0:
389,68,82501,1,8,1:3:0:0:
301,177,82658,6,0,B|335:173|358:218|358:218|345:173|373:149,1,150
307,101,82971,6,0,P|347:189|352:365,1,250,4|0,1:3|0:0,0:0:0:0:
151,384,83443,2,0,L|159:313,1,62.5,4|0,1:3|0:0,0:0:0:0:
174,305,83600,2,0,P|211:301|271:365,1,125,8|0,1:0|0:0,0:0:0:0:
34,374,83914,6,0,B|17:352|17:352|35:255,1,112.500004291535,6|0,1:3|0:0,0:0:0:0:
38,274,84228,6,0,P|93:268|122:205,1,125,2|0,1:3|0:0,0:0:0:0:
76,25,84543,2,0,B|55:171|55:171|64:153|88:140,1,187.5,4|0,1:3|0:0,0:0:0:0:
82,142,84857,1,8,1:0:0:0:
241,192,85014,1,4,1:3:0:0:
201,62,85171,6,0,B|192:50|192:50|220:31|230:6|230:6|221:34|233:65|233:65|210:65,1,150
180,136,85485,6,0,B|126:186|156:263|183:248|217:319|152:371,1,250,6|8,1:3|1:3,0:0:0:0:
352,308,85956,2,0,L|360:369,1,62.5,4|0,1:3|0:0,0:0:0:0:
350,382,86113,2,0,L|358:257,1,125,8|0,1:0|0:0,0:0:0:0:
341,94,86427,2,0,B|329:7|329:7|349:23,1,112.500004291535,2|0,1:0|0:0,1:0:0:0:
425,56,86742,6,0,P|393:91|296:84,1,125,2|0,1:3|0:0,0:0:0:0:
75,13,87056,2,0,B|118:13|127:50|127:50|138:102|138:102|152:140|195:137,1,187.5,6|0,1:3|0:0,0:0:0:0:
186,137,87370,1,8,1:0:0:0:
4,158,87527,1,4,1:3:0:0:
102,209,87684,6,0,B|122:247|122:247|113:262|100:253|100:253|101:203,1,112.500004291535
88,134,87998,6,0,B|131:350|131:350|155:316,1,250,4|0,1:3|0:0,0:0:0:0:
323,298,88469,2,0,P|273:314|255:345,1,62.5,4|0,1:3|0:0,0:0:0:0:
258,337,88626,2,0,L|381:317,1,125,8|0,1:0|0:0,0:0:0:0:
500,145,88941,6,0,B|418:131|418:131|432:157,1,112.500004291535,4|0,1:3|0:0,0:0:0:0:
432,157,89254,5,2,0:3:0:0:
323,298,89568,5,2,3:0:0:0:
146,308,89882,5,2,0:3:0:0:
25,184,90197,5,2,0:3:0:0:
39,97,90511,6,0,B|45:73|55:71|55:71|62:92|34:98,1,62.5,6|0,0:0|0:0,1:0:0:0:
256,192,90668,12,0,95498,0:0:0:0:
