osu file format v14

[General]
AudioFilename: audio.mp3
AudioLeadIn: 0
PreviewTime: 10053
Countdown: 0
SampleSet: Soft
StackLeniency: 0.7
Mode: 0
LetterboxInBreaks: 0
WidescreenStoryboard: 0

[Editor]
Bookmarks: 30197,40249,50301,60354,65380,70406,80458
DistanceSpacing: 1.6
BeatDivisor: 8
GridSize: 16
TimelineZoom: 2.6

[Metadata]
Title:dancing on the sidewalk lights flicker
TitleUnicode:dancing on the sidewalk lights flicker
Artist:david shawty
ArtistUnicode:david shawty
Creator:wafer
Version:candy
Source:
Tags:english electronic glitchcore glitch core rap hip-hop hip hop hyperpop hyper nitemare jamesjan3 apollo apo11o xenon- xehn xen ancelysia ancel goopert chills
BeatmapID:2724213
BeatmapSetID:1314466

[Difficulty]
HPDrainRate:5.2
CircleSize:4
OverallDifficulty:8
ApproachRate:9.5
SliderMultiplier:1.4
SliderTickRate:1

[Events]
//Background and Video events
0,0,"owl2.png",0,0
//Break Periods
//Storyboard Layer 0 (Background)
//Storyboard Layer 1 (Fail)
//Storyboard Layer 2 (Pass)
//Storyboard Layer 3 (Foreground)
//Storyboard Layer 4 (Overlay)
//Storyboard Sound Samples
Sample,76626,0,"wafer_goodnight.wav or something.wav",55

[TimingPoints]
40,314.13612565445,4,2,0,60,1,0
1296,-133.333333333333,4,2,0,60,0,0
4123,-153.846153846153,4,2,0,60,0,0
4437,-181.818181818181,4,2,0,60,0,0
4752,-222.222222222221,4,2,0,60,0,0
5066,-285.714285714284,4,2,0,60,0,0
6322,-133.333333333333,4,2,0,60,0,0
10092,-50,4,2,1,100,0,0
10170,-50,4,2,0,90,0,0
11034,-43.4782608695652,4,2,0,90,0,0
11663,-50,4,2,0,90,0,0
13861,-43.4782608695652,4,2,0,90,0,0
14176,-50,4,2,0,90,0,0
15118,-50,4,2,1,100,0,0
15197,-50,4,2,0,90,0,0
16060,-43.4782608695652,4,2,0,90,0,0
16689,-50,4,2,0,90,0,0
18888,-43.4782608695652,4,2,0,90,0,0
19202,-50,4,2,0,90,0,0
20144,-33.3333333333333,4,2,0,90,0,0
20458,-40,4,2,0,90,0,0
21715,-200,4,2,0,90,0,0
22029,-40,4,2,0,90,0,0
22657,-200,4,2,0,90,0,0
22971,-40,4,2,0,90,0,0
24228,-200,4,2,0,90,0,0
24542,-40,4,2,0,90,0,0
25170,-25,4,2,1,100,0,0
25249,-25,4,2,0,90,0,0
25485,-40,4,2,0,90,0,0
26741,-200,4,2,0,90,0,0
27055,-40,4,2,0,90,0,0
27683,-200,4,2,0,90,0,0
27998,-40,4,2,0,90,0,0
29254,-200,4,2,0,90,0,0
29568,-40,4,2,0,90,0,0
30197,-100,4,2,0,70,0,0
40249,-50,4,2,1,100,0,0
40327,-50,4,2,0,90,0,0
43390,-250,4,2,0,90,0,0
44019,-50,4,2,0,90,0,0
50615,-76.9230769230769,4,2,0,90,0,0
54699,-62.5,4,2,0,90,0,0
55013,-76.9230769230769,4,2,0,90,0,0
60354,-50,4,2,0,90,0,0
61610,-46.5116279069767,4,2,0,90,0,0
62867,-43.4782608695652,4,2,0,90,0,0
65066,-500,4,2,1,100,0,0
65144,-500,4,2,0,90,0,0
65380,-66.6666666666667,4,2,0,70,0,0
67893,-40,4,2,0,100,0,0
68521,-66.6666666666667,4,2,0,90,0,0
69149,-333.333333333333,4,2,0,90,0,0
70406,-33.3333333333333,4,2,1,100,0,0
70485,-33.3333333333333,4,2,0,90,0,0
70720,-36.3636363636364,4,2,0,90,0,0
71977,-200,4,2,0,90,0,0
72291,-36.3636363636364,4,2,0,90,0,0
72919,-200,4,2,0,90,0,0
73233,-36.3636363636364,4,2,0,90,0,0
74490,-200,4,2,0,90,0,0
74804,-36.3636363636364,4,2,0,90,0,0
75747,-36.3636363636364,4,2,0,90,0,0
77003,-200,4,2,0,90,0,0
77317,-36.3636363636364,4,2,0,90,0,0
77945,-200,4,2,0,90,0,0
78259,-36.3636363636364,4,2,0,90,0,0
79516,-200,4,2,0,90,0,0
79830,-36.3636363636364,4,2,0,90,0,0
80458,-50,4,2,0,90,0,0
81400,-43.4782608695652,4,2,0,90,0,0
82029,-50,4,2,0,90,0,0
84227,-43.4782608695652,4,2,0,90,0,0
84542,-50,4,2,0,90,0,0
86426,-43.4782608695652,4,2,0,90,0,0
87055,-50,4,2,0,90,0,0
89254,-43.4782608695652,4,2,0,90,0,0
89568,-100,4,2,0,90,0,0
90510,-250,4,2,0,90,0,0
91453,-80,4,2,1,70,0,0
92396,-80,4,2,0,60,0,0
93652,-80,4,2,1,50,0,0
94280,-80,4,2,0,30,0,0
95498,-250,4,2,1,5,0,0

[Colours]
Combo1 : 45,198,255
Combo2 : 242,13,13
Combo3 : 236,106,19
Combo4 : 41,80,214

[HitObjects]
111,91,40,6,0,P|100:149|98:164,1,70,6|0,0:0|0:0,0:0:0:0:
46,227,354,1,2,0:0:0:0:
46,227,668,2,0,P|55:278|57:291,1,35,8|0,0:1|0:0,0:0:0:0:
170,348,982,1,2,0:0:0:0:
148,279,1139,1,2,0:0:0:0:
224,173,1296,2,0,B|341:168|297:225|428:235,1,210,2|8,0:0|0:1,0:0:0:0:
490,186,2081,1,0,0:0:0:0:
439,112,2238,2,0,P|422:134|401:162,1,52.5000020027161
439,112,2553,2,0,P|422:134|401:162,1,52.5000020027161
486,259,2867,6,0,P|510:296|517:327,1,52.5000020027161,2|0,0:0|0:0,0:0:0:0:
428,370,3181,1,8,0:1:0:0:
428,370,3338,1,2,0:0:0:0:
341,310,3495,2,0,P|367:281|405:273,1,78.7500030040742,2|0,0:0|0:0,0:0:0:0:
486,259,3809,6,0,P|478:215|467:173,1,78.7500030040742,2|0,0:0|0:0,1:0:0:0:
388,199,4123,6,0,P|396:236|404:274,1,68.2499968757631,2|0,0:0|0:0,1:0:0:0:
324,286,4437,6,0,P|317:254|310:223,1,57.7500017623902,8|0,0:1|0:0,1:0:0:0:
232,248,4752,6,0,P|238:273|243:299,1,47.2499985580445,2|0,0:0|0:0,1:0:0:0:
162,315,5066,6,0,P|157:291|151:267,1,48.9999985046387,0|2,0:3|0:0,1:0:0:0:
95,214,5537,1,0,0:0:0:0:
95,214,5694,1,8,0:1:0:0:
95,214,5851,1,0,0:0:0:0:
159,157,6008,1,2,0:0:0:0:
181,88,6165,1,2,0:0:0:0:
54,126,6322,6,0,B|171:121|127:178|258:188,1,210,2|8,0:0|0:1,0:0:0:0:
352,133,7107,1,0,0:0:0:0:
301,59,7264,2,0,P|284:81|263:109,1,52.5000020027161
401,192,7579,6,0,P|425:160|418:117,1,78.7500030040742,2|0,0:3|0:0,0:0:0:0:
414,102,7893,6,0,P|407:58|414:27,1,52.5000020027161,2|0,3:2|0:0,0:0:0:0:
508,145,8207,6,0,P|508:187|482:221,1,78.7500030040742,8|0,0:1|0:0,0:0:0:0:
403,336,8521,2,0,P|429:307|467:299,1,78.7500030040742,2|0,0:0|0:0,0:0:0:0:
482,221,8835,6,0,P|444:200|428:160,1,78.7500030040742,2|0,0:0|0:0,0:0:0:0:
351,127,9149,2,0,P|337:157|343:180,1,52.5000020027161
280,222,9464,6,0,P|290:263|324:289,1,78.7500030040742,8|0,0:1|0:0,0:0:0:0:
316,286,9778,6,0,P|288:259|280:222,1,78.7500030040742,2|0,0:3|0:0,0:0:0:0:
303,135,10092,6,0,B|182:112|210:243|83:227,1,245,4|0,1:2|0:0,0:0:0:0:
0,129,10406,2,0,P|26:205|31:244,1,70,0|0,1:0|0:0,0:0:0:0:
0,338,10563,2,0,P|26:262|31:223,1,70,4|0,1:3|0:0,0:0:0:0:
183,39,10720,2,0,P|122:81|120:161,1,140,8|0,1:0|0:0,0:0:0:0:
435,151,11034,6,0,B|358:134|318:181|214:230|193:138|188:106,1,281.750005373955,10|0,1:3|0:0,3:0:0:0:
258,68,11348,2,0,B|328:150|217:236|302:332,1,241.500004606247,2|0,0:0|0:0,0:0:0:0:
347,256,11663,6,0,B|410:239|410:239|483:220,1,140,4|0,1:3|0:0,3:0:0:0:
258,68,11977,2,0,P|280:110|282:140,1,70,8|0,1:0|0:0,0:0:0:0:
191,177,12134,2,0,P|138:132|153:60,1,140,4|0,1:3|0:0,0:0:0:0:
353,83,12448,1,0,0:0:0:0:
217,287,12605,6,2,L|209:249,1,35,4|2,1:3|3:2,3:2:0:0:
391,200,12723,6,2,L|383:238,1,35,2|2,3:2|3:2,3:2:0:0:
419,294,12801,2,0,B|471:282|464:321|533:316,1,105,2|0,3:2|0:0,0:0:0:0:
304,336,13076,6,0,L|280:224,1,70,4|0,1:3|0:0,0:0:0:0:
351,131,13233,1,8,1:0:0:0:
351,131,13390,1,0,0:0:0:0:
194,164,13547,6,0,B|299:151|278:248|395:232,1,210,10|0,1:3|0:0,0:0:0:0:
297,66,13861,2,0,P|282:155|264:314,1,241.500004606247,2|0,0:0|0:0,0:0:0:0:
183,369,14176,6,0,P|132:309|156:240,1,140,4|0,1:3|0:0,0:0:0:0:
383,233,14490,6,0,P|375:277|366:357,1,70,8|0,0:1|0:0,0:0:0:0:
172,175,14647,2,0,B|248:157|230:209|313:209,1,140,4|0,1:3|0:0,0:0:0:0:
463,141,14961,1,0,0:0:0:0:
217,287,15118,6,0,L|209:249,1,35,6|0,1:2|0:0,0:0:0:0:
391,200,15275,6,0,L|383:238,1,35,2|0,3:0|0:0,0:0:0:0:
438,294,15354,2,0,L|446:332,1,35,2|0,3:0|0:0,0:0:0:0:
488,189,15432,6,0,P|498:222|512:255,1,70,2|0,3:0|0:0,0:0:0:0:
439,122,15589,2,0,P|449:89|463:56,1,70,4|0,1:3|0:0,0:0:0:0:
370,195,15746,2,0,P|330:250|263:259,1,140,8|0,1:0|0:0,0:0:0:0:
70,61,16060,6,0,B|152:51|188:82|297:100|283:174|283:174|274:205,1,281.750005373955,10|0,1:3|0:0,3:0:0:0:
136,227,16375,2,0,B|114:141|145:59|211:-14,1,241.500004606247,2|0,0:0|0:0,0:0:0:0:
70,61,16689,6,8,P|46:110|40:197,1,140,4|0,1:3|0:0,0:0:0:0:
184,287,17003,2,0,P|163:315|150:347,1,70,8|0,1:0|0:0,0:0:0:0:
278,258,17160,2,0,B|353:249|335:305|430:306,1,140,4|0,1:3|0:0,0:0:0:0:
483,260,17474,1,2,0:0:0:0:
323,101,17631,6,0,L|337:173,1,70,4|0,1:3|0:0,0:0:0:0:
408,220,17736,6,0,L|416:182,1,31.1111111111111
230,140,17827,6,0,B|290:134|265:92|329:101,1,105,2|0,1:2|0:0,0:0:0:0:
455,15,18102,2,0,L|478:126,1,70,0|0,1:3|0:0,0:0:0:0:
408,220,18259,1,8,1:0:0:0:
408,220,18416,1,0,0:0:0:0:
511,152,18574,6,0,B|406:139|427:236|310:220,1,210,10|0,1:3|0:0,0:0:0:0:
384,67,18888,2,0,B|469:193|343:164|455:322,1,241.500004606247,2|0,0:0|0:0,0:0:0:0:
294,317,19202,6,0,P|282:248|253:184,1,140,4|0,1:3|0:0,0:0:0:0:
355,39,19516,2,0,B|395:67|364:120|314:142|264:114|249:39|231:11|164:46,1,280,2|2,0:0|0:0,0:0:0:0:
129,381,20144,6,0,P|100:179|70:9,1,367.500014019013,4|0,1:0|0:0,0:0:0:0:
179,147,20458,6,0,P|189:212|198:277,1,131.25,4|0,1:3|0:0,0:0:0:0:
224,384,20615,2,0,P|214:318|204:254,1,131.25,4|0,1:3|0:0,0:0:0:0:
281,258,20772,6,0,B|124:228|171:378|16:348,1,262.5,8|0,1:0|0:0,0:0:0:0:
94,213,21087,6,0,B|189:172|187:285|187:296|191:307|217:428|312:348,1,306.25,4|0,1:3|0:0,0:0:0:0:
105,307,21401,6,0,B|200:348|198:234|198:223|202:212|228:91|323:172,1,306.25,6|0,1:3|0:0,0:0:0:0:
372,219,21715,6,0,L|383:279,1,61.25,6|0,1:3|0:0,0:0:0:0:
475,104,22029,6,0,L|392:226,1,131.25,8|0,1:0|0:0,0:0:0:0:
404,234,22186,2,0,L|477:125,1,131.25,8|0,1:3|0:0,0:0:0:0:
398,36,22343,6,0,B|228:2|275:149|91:107,1,306.25,4|0,1:3|0:0,0:0:0:0:
5,2,22657,6,0,L|19:62,1,61.25,4|0,1:3|0:0,0:0:0:0:
114,111,22971,6,0,P|103:175|94:240,1,131.25,4|0,1:3|0:0,0:0:0:0:
69,347,23128,2,0,P|78:281|88:217,1,131.25,4|0,1:3|0:0,0:0:0:0:
0,201,23285,6,0,B|35:180|35:180|172:298|172:298|224:271,1,262.5,8|0,1:0|0:0,0:0:0:0:
6,343,23600,6,0,B|53:348|53:348|138:160|138:160|204:163,1,306.25,4|0,1:3|0:0,0:0:0:0:
130,364,23914,6,0,B|82:354|82:354|60:149|60:149|-3:131,1,306.25,4|0,1:3|0:0,0:0:0:0:
105,29,24228,6,0,L|114:94,1,61.25,4|0,1:3|0:0,0:0:0:0:
169,172,24542,6,0,P|233:136|306:122,1,131.25,8|0,1:0|0:0,0:0:0:0:
418,189,24699,2,0,P|354:173|298:140,1,131.25,8|0,1:3|0:0,0:0:0:0:
292,22,24856,6,0,P|428:30|495:183,1,306.25,4|0,1:3|0:0,0:0:0:0:
273,257,25170,6,0,P|262:240|258:196,10,46.6666666666667,4|0|0|0|0|0|0|0|0|0|0,1:2|3:0|3:0|3:0|3:0|3:0|3:0|3:0|3:0|3:0|3:0,3:0:0:0:
447,255,25485,6,0,P|382:281|349:345,1,131.25,4|0,1:3|0:0,0:0:0:0:
294,384,25642,2,0,P|354:361|389:307,1,131.25,4|0,1:3|0:0,0:0:0:0:
322,160,25799,6,0,B|183:147|217:246|69:224,1,262.5,8|0,1:0|0:0,0:0:0:0:
145,39,26113,6,0,P|172:176|202:346,1,306.25,4|0,1:3|0:0,0:0:0:0:
274,322,26427,2,0,P|247:171|217:20,1,306.25,4|0,1:3|0:0,0:0:0:0:
310,99,26741,6,0,L|321:159,1,61.25,6|0,1:3|0:0,0:0:0:0:
457,187,27055,6,0,P|387:201|364:264,1,131.25,8|0,1:0|0:0,0:0:0:0:
374,270,27212,2,0,P|404:214|467:206,1,131.25,8|0,1:3|0:0,0:0:0:0:
504,60,27369,6,0,P|489:225|480:382,1,306.25,4|0,1:3|0:0,0:0:0:0:
369,331,27683,6,0,P|370:300|373:269,1,61.25,4|0,1:3|0:0,0:0:0:0:
318,197,27998,6,0,P|222:234|168:251,1,131.25,4|0,1:3|0:0,0:0:0:0:
119,286,28155,2,0,P|181:264|241:240,1,131.25,4|0,1:3|0:0,0:0:0:0:
154,152,28312,6,0,B|135:259|349:197|332:337,1,262.5,8|0,1:0|0:0,0:0:0:0:
182,355,28626,6,0,B|145:285|183:208|305:210|288:129|236:60,1,306.25,4|0,1:3|0:0,0:0:0:0:
252,313,28940,6,0,B|289:243|251:166|129:168|146:87|198:18,1,306.25,6|0,1:3|0:0,0:0:0:0:
339,21,29254,6,0,P|346:56|334:81,1,61.25,6|0,1:3|0:0,0:0:0:0:
379,209,29568,6,0,P|328:167|270:136,1,131.25,8|0,1:3|0:0,0:0:0:0:
168,104,29725,2,0,P|225:135|276:176,1,131.25,4|0,1:3|0:0,0:0:0:0:
428,335,29882,6,0,P|380:257|461:69,1,306.25,8|0,1:3|0:0,0:0:0:0:
511,122,30197,6,0,P|512:167|440:194,1,122.5,2|0,0:0|0:0,1:0:0:0:
435,192,30511,1,2,0:0:0:0:
353,140,30668,1,0,0:0:0:0:
264,190,30825,1,8,0:1:0:0:
260,195,30982,1,0,0:0:0:0:
263,99,31139,6,0,B|242:72|261:69|285:124,1,70,2|0,3:1|0:0,3:0:0:0:
201,229,31453,2,0,B|121:219|143:269|54:264,1,140,2|0,0:0|0:0,0:0:0:0:
69,264,31924,1,0,0:0:0:0:
154,177,32081,2,0,P|174:255|184:303,1,122.5,8|0,0:1|0:0,0:0:0:0:
278,278,32396,2,0,P|264:218|249:158,1,122.5,2|0,0:0|0:0,0:0:0:0:
340,134,32710,6,0,P|344:151|347:168,1,35,0|0,3:0|0:0,0:0:0:0:
404,250,32867,6,0,P|401:236|397:222,1,17.5,0|0,3:0|0:0,0:0:0:0:
347,168,32945,6,0,P|344:151|340:134,1,35,0|2,3:0|0:0,0:0:0:0:
401,58,33181,1,0,0:0:0:0:
482,109,33338,1,8,0:1:0:0:
482,109,33495,1,0,0:0:0:0:
489,220,33652,6,0,B|468:264|486:269|511:212,1,70,2|0,0:3|0:0,0:0:0:0:
409,313,33966,2,0,B|329:323|351:273|262:278,1,140,2|0,0:0|3:0,0:0:0:0:
202,349,34437,1,0,3:0:0:0:
129,299,34594,2,0,P|149:221|159:173,1,122.5,8|0,3:1|0:0,0:0:0:0:
117,116,34909,2,0,P|39:137|-7:153,1,105,2|0,3:2|0:0,0:0:0:0:
70,207,35223,5,2,0:0:0:0:
142,160,35380,2,0,L|217:172,1,70
307,57,35694,5,0,0:0:0:0:
281,144,35851,1,8,0:1:0:0:
294,95,36008,1,0,0:0:0:0:
267,152,36165,2,0,L|258:83,1,70,2|2,0:0|0:0,0:0:0:0:
422,77,36479,6,0,L|404:215,1,140,2|0,0:0|0:0,0:0:0:0:
437,167,36950,1,0,0:0:0:0:
357,248,37108,2,0,B|416:242|400:285|465:280,1,105,8|0,0:1|0:0,0:0:0:0:
466,299,37422,2,0,P|446:233|439:208,1,70
506,107,37736,5,2,0:0:0:0:
434,154,37893,2,0,L|359:142,1,70
269,257,38207,5,0,0:0:0:0:
295,170,38364,1,8,0:1:0:0:
282,219,38521,1,0,0:0:0:0:
308,161,38678,2,0,L|317:230,1,70,2|0,0:0|0:0,0:0:0:0:
181,246,38992,1,2,0:0:0:0:
192,225,39149,1,0,0:0:0:0:
151,184,39307,1,0,0:0:0:0:
144,114,39463,1,0,0:0:0:0:
21,37,39621,6,0,B|-3:47|-24:46|-24:46|114:84|114:84|60:88|48:106,1,262.5,4|0,1:3|0:0,1:0:0:0:
0,197,40249,6,0,B|73:162|95:257|100:245|98:269|143:321|204:291,1,245,4|0,1:2|0:0,0:0:0:0:
271,134,40563,6,0,L|256:238,1,105,4|0,1:3|0:0,0:0:0:0:
256,238,40720,2,0,L|270:133,1,105,4|0,1:3|0:0,0:0:0:0:
335,68,40877,6,0,B|425:97|469:189|459:269,1,245,8|0,1:0|0:0,0:0:0:0:
383,346,41191,2,0,B|324:271|339:170|385:118,1,245,4|0,1:3|0:0,0:0:0:0:
507,257,41505,6,0,B|455:227|421:269|391:366|389:381|294:344,1,245,4|0,1:3|0:0,0:0:0:0:
492,349,41820,2,0,B|434:364|412:315|408:213|410:198|308:209,1,245,4|0,1:3|0:0,0:0:0:0:
458,139,42134,6,0,P|446:190|436:248,1,105,8|0,1:0|0:0,0:0:0:0:
436,241,42291,2,0,P|445:189|457:138,1,105,8|0,1:3|0:0,0:0:0:0:
375,79,42448,6,0,P|225:119|205:219,1,245,4|0,1:3|0:0,0:0:0:0:
175,280,42762,6,0,B|174:316|236:302|217:254|172:161|121:85|77:124,1,245,6|0,1:3|0:0,0:0:0:0:
69,0,43076,6,0,P|32:35|9:104,1,105,4|0,1:3|0:0,0:0:0:0:
11,84,43233,2,0,P|31:35|68:0,1,105,4|0,1:3|0:0,0:0:0:0:
92,147,43390,6,0,P|77:164|50:175,1,49,8|0,1:0|0:0,0:0:0:0:
38,284,43704,2,0,P|22:266|0:257,1,49,4|0,1:3|0:0,0:0:0:0:
118,238,44019,6,0,B|248:218|199:324|326:310,1,210,4|0,1:3|0:0,0:0:0:0:
372,223,44333,2,0,P|265:243|146:326,1,245,6|0,1:3|0:0,0:0:0:0:
313,362,44647,6,0,P|300:319|268:241,1,105,8|0,1:0|0:0,0:0:0:0:
277,263,44804,2,0,P|296:311|312:362,1,105,8|0,1:3|0:0,0:0:0:0:
372,223,44961,6,0,P|309:165|399:140,1,210,4|0,1:3|0:0,0:0:0:0:
479,201,45275,5,6,1:3:0:0:
477,191,45354,1,2,0:3:0:0:
505,103,45432,5,2,0:3:0:0:
501,120,45511,1,2,0:3:0:0:
400,194,45589,5,6,1:3:0:0:
398,185,45668,1,2,0:3:0:0:
426,96,45746,5,10,1:3:0:0:
422,113,45825,1,2,0:3:0:0:
346,127,45903,6,0,B|206:116|250:177|104:180,1,245,4|0,1:3|0:0,0:0:0:0:
147,104,46218,2,0,B|234:112|219:159|331:199,1,210,4|0,1:3|0:0,0:0:0:0:
252,23,46532,6,0,P|235:118|216:288,1,245,6|0,1:3|0:0,0:0:0:0:
140,384,46846,2,0,P|129:279|111:176,1,210,4|0,1:3|0:0,0:0:0:0:
330,198,47160,6,0,P|319:260|312:322,1,105,8|0,1:0|0:0,0:0:0:0:
314,301,47317,2,0,P|320:249|330:198,1,105,8|0,1:3|0:0,0:0:0:0:
377,356,47474,6,0,P|435:308|395:139,1,245,4|0,1:3|0:0,0:0:0:0:
344,116,47788,6,0,B|255:108|233:4|271:-54|358:-12|334:52,1,245,6|0,1:3|0:0,0:0:0:0:
290,184,48102,6,0,P|239:190|192:213,1,105,4|0,1:3|0:0,0:0:0:0:
192,213,48259,2,0,P|239:190|291:184,1,105,8|0,1:3|0:0,0:0:0:0:
351,244,48416,6,0,P|307:293|150:284,1,210,8|0,1:0|0:0,0:0:0:0:
36,177,48731,2,0,B|5:180|-47:143|4:97|96:152|85:294,1,245,4|0,1:3|0:0,0:0:0:0:
119,352,49045,6,0,P|131:228|149:118,1,210,6|0,1:3|0:0,0:0:0:0:
249,86,49359,2,0,B|202:132|157:139|130:62|112:18|41:48|28:82,1,245,4|0,1:3|0:0,0:0:0:0:
144,143,49673,6,0,P|165:54|183:11,1,105,8|0,1:0|0:0,0:0:0:0:
169,40,49830,2,0,P|147:107|133:176,1,140,8|2,1:3|0:1,0:0:0:0:
139,187,50026,5,2,0:3:0:0:
354,128,50301,6,0,P|337:117|293:113,7,35,2|0|0|0|0|0|0|0,3:2|3:0|3:0|3:0|3:0|3:0|3:0|3:0,3:0:0:0:
300,125,50615,6,0,P|293:146|296:168,1,45.4999979171754,0|0,1:0|0:0,0:0:0:0:
416,211,50772,2,0,P|363:227|335:285,1,90.9999958343508,4|8,1:3|0:1,0:0:0:0:
221,351,51087,6,0,B|249:369|231:350|205:319|199:264,1,90.9999958343508,2|4,1:0|0:3,0:0:0:0:
296,168,51401,1,2,0:0:0:0:
166,133,51558,1,2,0:0:0:0:
215,199,51715,6,0,B|219:180|223:150|213:149,1,45.4999979171754
119,109,51872,2,0,B|115:90|111:60|150:20,1,90.9999958343508,4|0,1:3|0:0,0:0:0:0:
354,43,52186,6,0,P|333:87|291:104,1,90.9999958343508,8|4,1:0|0:3,0:0:0:0:
381,179,52500,2,0,P|429:187|465:224,1,90.9999958343508,4|0,1:3|0:0,0:0:0:0:
254,219,52814,6,0,P|283:191|305:189,5,45.4999979171754,2|0|0|0|0|0,3:2|3:0|3:0|3:0|3:0|3:0,3:0:0:0:
266,293,53286,1,4,1:3:0:0:
386,256,53443,6,0,B|373:238|417:234|399:253|373:284|367:339,1,90.9999958343508,10|0,1:0|0:0,0:0:0:0:
184,282,53757,2,0,P|217:349|229:391,1,90.9999958343508,4|0,1:3|0:0,0:0:0:0:
119,275,54071,1,2,0:0:0:0:
113,267,54228,1,0,0:0:0:0:
240,191,54385,2,0,B|222:182|194:171|146:199,1,90.9999958343508,4|0,1:3|0:0,0:0:0:0:
17,371,54699,6,0,B|65:354|46:321|56:294|96:290,1,112,8|0,1:0|0:0,0:0:0:0:
249,322,55013,2,0,B|201:319|166:274,1,90.9999958343508,10|0,1:3|0:0,0:0:0:0:
210,48,55327,5,4,1:3:0:0:
295,128,55467,5,2,3:2:0:0:
283,124,55502,1,2,3:2:0:0:
390,42,55607,5,2,3:2:0:0:
403,55,55642,2,0,P|399:106|358:153,1,90.9999958343508,2|4,3:2|0:3,0:0:0:0:
465,260,55956,1,8,1:0:0:0:
445,187,56113,1,0,0:0:0:0:
458,331,56270,5,4,1:3:0:0:
458,168,56427,1,2,0:0:0:0:
465,260,56584,5,2,0:0:0:0:
470,242,56741,1,0,0:0:0:0:
406,195,56898,5,4,1:3:0:0:
447,309,57055,1,0,0:0:0:0:
374,171,57212,6,0,P|366:219|356:272,1,90.9999958343508,8|4,1:0|0:3,0:0:0:0:
194,373,57526,2,0,P|226:331|322:344,1,136.499993751526,2|0,1:3|0:0,0:0:0:0:
402,384,57841,5,0,3:0:0:0:
401,384,57880,2,0,P|379:371|373:356,1,22.7499989585877,0|0,3:0|3:0,3:0:0:0:
304,329,57998,6,0,P|305:305|315:294,1,22.7499989585877,0|0,3:0|3:0,3:0:0:0:
387,160,58155,5,2,0:0:0:0:
257,241,58312,2,0,P|265:187|264:130,1,90.9999958343508,4|8,1:3|0:1,0:0:0:0:
471,73,58626,6,0,B|461:73|461:106|478:110|521:73|517:156,1,90.9999958343508,2|4,1:0|0:3,0:0:0:0:
468,273,58940,5,0,0:0:0:0:
407,133,59097,2,0,P|419:196|430:280,1,136.499993751526,2|0,0:0|0:0,0:0:0:0:
482,339,59411,5,4,1:3:0:0:
341,212,59568,1,0,0:0:0:0:
482,339,59725,2,0,B|425:335|438:360|386:362,1,90.9999958343508,8|0,1:0|0:0,0:0:0:0:
237,214,60039,2,0,P|285:300|293:363,1,159.249992710114,2|0,0:0|0:0,0:0:0:0:
289,381,60354,6,0,P|302:163|311:84,1,280,2|0,1:0|0:0,1:0:0:0:
289,381,61610,6,0,P|274:145|265:60,1,301.000004592896,2|0,1:0|0:0,1:0:0:0:
289,381,62867,6,0,B|291:299|226:241|109:236|51:315|113:371|157:345,1,322.000006141663,2|0,1:0|0:0,1:0:0:0:
289,381,63495,6,0,B|286:299|351:241|468:236|526:315|464:371|420:345,1,322.000006141663,2|0,1:0|0:0,1:0:0:0:
289,381,64123,6,0,P|257:179|243:99,1,281.750005373955,2|0,1:0|0:0,1:0:0:0:
163,100,64437,6,0,P|186:238|208:378,1,281.750005373955,2|0,1:0|0:0,1:0:0:0:
340,192,64752,6,0,B|179:171|242:301|59:297,1,281.750005373955,2|0,1:0|0:0,1:0:0:0:
376,103,65066,6,0,P|382:127|382:129,1,26.25,4|0,3:2|0:0,0:0:0:0:
399,253,65380,6,2,B|406:311|325:313|276:270|275:221|359:147|456:138|467:201,1,315.000012016297,2|4,1:0|0:3,0:3:0:0:
486,208,65930,5,2,0:0:0:0:
486,208,66008,1,2,0:0:0:0:
486,208,66087,1,2,0:0:0:0:
486,208,66165,1,2,0:0:0:0:
486,208,66244,1,2,0:0:0:0:
486,208,66322,2,0,P|477:278|441:338,1,105.000004005432,4|0,1:3|0:0,0:0:0:0:
212,208,66558,5,2,0:0:0:0:
212,208,66636,6,0,B|214:207|212:207|203:183,7,26.2500010013581,0|0|0|0|0|0|0|0,3:0|3:0|3:0|3:0|3:0|3:0|3:0|3:0,3:0:0:0:
285,229,66950,6,0,P|265:281|256:290,1,52.5000020027161,8|2,1:3|0:0,0:0:0:0:
307,347,67108,2,0,P|253:361|240:359,1,52.5000020027161,2|2,0:0|0:0,0:0:0:0:
109,370,67265,2,0,P|123:344|224:307,1,105.000004005432,2|8,0:0|1:3,0:0:0:0:
125,240,67500,5,2,0:0:0:0:
125,240,67578,1,2,0:0:0:0:
125,240,67657,1,2,0:0:0:0:
125,240,67735,1,2,0:0:0:0:
125,240,67814,1,2,0:0:0:0:
54,195,67893,6,0,P|47:146|51:125,1,43.75,8|0,1:3|0:0,0:0:0:0:
119,156,67971,6,0,P|146:114|163:101,1,43.75,8|0,1:3|0:3,0:3:0:0:
190,189,68050,6,0,P|237:176|259:178,1,43.75,8|0,1:3|0:3,0:3:0:0:
235,249,68128,6,0,P|278:272|293:287,1,43.75,8|0,1:3|0:3,0:3:0:0:
190,309,68207,6,0,P|199:357|196:379,1,43.75,8|0,1:3|0:3,0:3:0:0:
116,334,68286,6,0,P|91:376|74:389,1,43.75,8|0,1:3|0:3,0:3:0:0:
41,322,68364,6,0,P|-2:314|-21:253,1,87.5,8|0,1:3|0:3,0:3:0:0:
231,176,68521,6,0,B|313:188|290:103|368:115,1,157.500006008148,8|0,1:0|0:0,0:0:0:0:
353,287,68835,6,0,B|322:209|260:272|231:198,1,157.500006008148,8|0,1:0|0:0,0:0:0:0:
437,153,69149,6,0,P|461:209|426:260,1,125.999996154785,8|0,0:1|0:0,1:0:0:0:
75,107,70406,6,0,B|88:171|127:188|216:152|216:152|304:116|357:128|369:214,1,367.500014019013,4|0,1:2|0:0,0:0:0:0:
187,233,70720,6,0,L|217:81,1,144.375001376867,8|0,1:3|0:0,0:0:0:0:
245,9,70877,2,0,L|217:150,1,144.375001376867,4|0,1:3|0:0,0:0:0:0:
390,219,71034,6,0,B|335:192|248:241|281:309|216:359|141:323,1,288.750002753735,4|0,1:3|0:0,0:0:0:0:
263,50,71348,6,0,P|284:208|302:397,1,336.87500321269,10|0,1:3|0:0,0:0:0:0:
125,206,71663,6,0,B|191:173|295:232|255:314|333:374|423:330,1,336.87500321269,6|0,1:3|0:0,0:0:0:0:
464,279,71977,6,0,P|469:249|458:220,1,61.25,6|0,1:3|0:0,0:0:0:0:
307,133,72291,6,0,P|338:207|397:265,1,144.375001376867,8|0,1:0|0:0,0:0:0:0:
459,221,72448,2,0,P|411:167|384:100,1,144.375001376867,8|0,1:3|0:0,0:0:0:0:
497,0,72605,6,0,B|474:-4|601:75|538:129|406:83|442:-11|351:-14|260:70,1,336.87500321269,8|0,1:3|0:0,0:0:0:0:
236,165,72919,6,0,P|287:153|292:145,1,61.25,4|0,1:3|0:0,0:0:0:0:
108,52,73233,6,0,P|70:112|66:184,1,144.375001376867,8|0,1:3|0:0,0:0:0:0:
89,295,73390,2,0,P|85:223|47:162,1,144.375001376867,4|0,1:3|0:0,0:0:0:0:
2,368,73547,6,0,B|49:319|142:268|215:268|270:313|256:335,1,288.750002753735,8|0,1:0|0:0,0:0:0:0:
412,384,73861,6,0,B|312:321|270:176|275:113|324:100|333:218,1,336.87500321269,10|0,1:3|0:0,0:0:0:0:
460,65,74176,6,0,B|492:178|426:313|380:356|334:333|407:240,1,336.87500321269,4|0,1:3|0:3,0:3:0:0:
253,89,74490,6,0,P|284:69|308:71,1,61.25,4|0,1:3|0:0,0:0:0:0:
305,175,74804,6,0,L|161:167,1,144.375001376867,8|0,1:0|0:0,0:0:0:0:
161,250,74961,2,0,L|306:260,1,144.375001376867,8|0,1:3|0:0,0:0:0:0:
373,114,75118,6,0,P|273:125|54:267,1,336.87500321269,4|0,1:3|0:0,0:0:0:0:
116,341,75432,6,0,B|152:298|152:298|60:77|60:77|81:32,1,336.87500321269,10|2,1:3|0:3,0:0:0:0:
386,24,75746,6,0,L|234:54,1,144.375001376867,8|0,1:3|0:0,0:0:0:0:
162,82,75903,2,0,L|303:54,1,144.375001376867,4|0,1:3|0:0,0:0:0:0:
462,133,76060,6,0,B|289:100|341:265|170:232,1,288.750002753735,8|0,1:0|0:0,0:0:0:0:
256,83,76375,6,0,B|360:37|358:162|358:174|362:186|391:319|495:231,1,336.87500321269,4|0,1:3|0:0,0:0:0:0:
453,38,76689,6,0,B|498:142|372:140|360:140|348:144|215:173|304:277,1,336.87500321269,10|0,1:3|0:0,0:0:0:0:
395,375,77003,6,0,L|406:315,1,61.25,10|0,1:3|0:0,0:0:0:0:
144,301,77317,6,0,L|278:210,1,144.375001376867,8|0,1:0|0:0,0:0:0:0:
313,288,77474,2,0,L|193:368,1,144.375001376867,8|0,1:3|0:0,0:0:0:0:
73,356,77631,6,0,B|39:186|186:233|148:30,1,336.87500321269,4|0,1:3|0:0,0:0:0:0:
52,1,77945,6,0,P|37:31|51:57,1,61.25,6|0,1:3|0:0,0:0:0:0:
78,232,78259,6,0,P|147:259|183:328,1,144.375001376867,8|0,1:3|0:0,0:0:0:0:
242,370,78416,2,0,P|177:345|139:287,1,96.2500009179115,4|0,1:3|0:0,0:0:0:0:
218,133,78573,6,0,B|357:120|331:227|498:197,1,288.750002753735,8|0,1:0|0:0,0:0:0:0:
404,0,78888,6,0,P|372:161|336:362,1,336.87500321269,10|0,1:3|0:0,0:0:0:0:
251,333,79202,2,0,P|282:154|318:-23,1,336.87500321269,4|0,1:3|0:0,0:0:0:0:
472,57,79516,6,0,L|461:117,1,61.25,4|0,1:3|0:0,0:0:0:0:
436,337,79830,6,0,P|375:316|331:242,1,144.375001376867,8|0,1:0|0:0,0:0:0:0:
491,257,79987,2,0,P|425:232|393:162,1,144.375001376867,4|0,1:3|0:0,0:0:0:0:
512,177,80144,6,0,P|356:237|234:375,1,336.87500321269,4|0,1:3|0:0,0:0:0:0:
349,384,80458,6,0,B|372:263|241:291|257:164,1,245,2|2,1:3|0:3,0:0:0:0:
147,77,80772,2,0,P|223:103|262:108,1,70,2|0,0:0|0:0,0:0:0:0:
356,77,80929,2,0,P|280:103|241:108,1,70,2|0,0:0|0:0,0:0:0:0:
60,248,81086,2,0,P|102:187|182:185,1,140,8|0,1:0|0:0,0:0:0:0:
295,384,81401,6,0,B|292:307|260:104|199:220|268:290,1,281.750005373955,6|0,1:3|0:0,0:0:0:0:
161,328,81714,2,0,B|258:281|312:411|427:353,1,241.500004606247,2|0,1:3|0:0,0:0:0:0:
512,298,82029,6,0,B|449:281|376:262,1,140,10|0,1:3|0:0,3:0:0:0:
309,153,82343,2,0,P|287:195|285:225,1,70,8|0,1:0|0:0,0:0:0:0:
376,262,82500,2,0,P|429:217|414:145,1,140,8|0,1:3|0:0,0:0:0:0:
220,154,82814,1,2,0:0:0:0:
356,61,82971,6,0,L|364:99,1,35,4|0,1:3|0:0,0:0:0:0:
219,153,83168,6,0,L|198:51,1,105,2|0,0:0|0:0,1:0:0:0:
348,26,83442,2,0,L|372:138,1,70,4|0,1:3|0:0,0:0:0:0:
232,238,83599,1,8,1:0:0:0:
232,238,83756,1,0,0:0:0:0:
389,205,83913,6,0,B|284:218|305:121|188:137,1,210,6|0,1:3|0:0,0:0:0:0:
286,303,84228,2,0,P|301:214|319:55,1,241.500004606247,2|0,1:3|0:0,0:0:0:0:
400,0,84542,6,0,P|451:60|427:129,1,140,4|0,1:3|0:0,0:0:0:0:
200,136,84856,6,0,P|208:92|217:12,1,70,8|0,1:0|0:0,0:0:0:0:
411,194,85013,2,0,B|335:212|353:160|270:160,1,140,4|0,1:3|0:0,0:0:0:0:
120,228,85327,1,2,0:0:0:0:
289,243,85485,6,0,B|327:167|368:104|504:139,1,245,6|2,1:3|0:3,0:0:0:0:
481,269,85799,6,0,P|491:236|505:203,1,70,8|0,1:3|0:0,0:0:0:0:
414,316,85956,2,0,P|424:349|438:382,1,70,4|0,1:3|0:0,0:0:0:0:
352,258,86113,2,0,P|312:203|245:194,1,140,8|0,1:0|0:0,0:0:0:0:
135,358,86427,6,0,B|188:280|346:301|257:230|303:305|170:231|182:331,1,281.750005373955,2|0,1:0|0:0,1:0:0:0:
244,194,86742,2,0,B|158:212|84:239|42:314,1,241.500004606247,2|0,1:3|0:0,0:0:0:0:
34,201,87056,6,0,P|19:133|29:65,1,140,6|0,1:3|0:0,0:0:0:0:
150,223,87370,2,0,P|129:251|116:283,1,70,8|0,1:0|0:0,0:0:0:0:
244,194,87527,2,0,B|319:185|301:241|396:242,1,140,4|0,1:3|0:0,0:0:0:0:
475,183,87841,1,2,0:0:0:0:
230,125,87998,6,0,L|244:197,1,70,4|0,1:3|0:0,0:0:0:0:
315,244,88103,6,0,L|323:206,1,31.1111111111111,0|0,3:0|0:0,0:0:0:0:
137,164,88194,6,0,B|197:158|172:116|236:125,1,105,0|0,3:0|0:0,0:0:0:0:
362,39,88469,2,0,L|385:150,1,70,4|0,1:3|0:0,0:0:0:0:
315,244,88626,1,8,1:0:0:0:
315,244,88783,1,0,0:0:0:0:
418,176,88941,6,0,B|313:163|334:260|217:244,1,210,4|0,1:3|0:0,0:0:0:0:
291,91,89255,2,0,B|376:217|250:188|362:346,1,241.500004606247,2|0,0:3|0:0,0:0:0:0:
201,341,89568,6,0,B|203:339|216:333|238:312|331:391,1,140,2|2,3:0|0:3,0:0:0:0:
324,384,90197,1,2,0:3:0:0:
491,285,90511,6,0,B|507:232|520:177|479:71|382:28|314:182|363:340|303:358|303:346|290:349|232:358|93:278|129:130|193:102|272:150|280:301|280:301|286:325|286:325|283:326|283:326|281:334|281:334|289:330|289:330|289:335|289:335|287:338|287:338|293:340|293:340|287:345|287:345|287:361|287:361|295:361|294:365,1,889,6|0,0:0|0:0,1:0:0:0:
