osu file format v14

[General]
AudioFilename: audio.mp3
AudioLeadIn: 0
PreviewTime: 10053
Countdown: 0
SampleSet: Soft
StackLeniency: 0.7
Mode: 0
LetterboxInBreaks: 0
WidescreenStoryboard: 0

[Editor]
Bookmarks: 30197,40249,50301,60354,65380,70406,80458
DistanceSpacing: 1.6
BeatDivisor: 8
GridSize: 16
TimelineZoom: 2.6

[Metadata]
Title:dancing on the sidewalk lights flicker
TitleUnicode:dancing on the sidewalk lights flicker
Artist:david shawty
ArtistUnicode:david shawty
Creator:wafer
Version:apollo's hard
Source:
Tags:english electronic glitchcore glitch core rap hip-hop hip hop hyperpop hyper nitemare jamesjan3 apollo apo11o xenon- xehn xen ancelysia ancel goopert chills
BeatmapID:2726744
BeatmapSetID:1314466

[Difficulty]
HPDrainRate:4.5
CircleSize:3.2
OverallDifficulty:7
ApproachRate:8
SliderMultiplier:1.2
SliderTickRate:1

[Events]
//Background and Video events
0,0,"owl2.png",0,0
//Break Periods
2,30396,34473
//Storyboard Layer 0 (Background)
//Storyboard Layer 1 (Fail)
//Storyboard Layer 2 (Pass)
//Storyboard Layer 3 (Foreground)
//Storyboard Layer 4 (Overlay)
//Storyboard Sound Samples
Sample,76626,0,"wafer_goodnight.wav or something.wav",55

[TimingPoints]
40,314.13612565445,4,2,0,60,1,0
10092,-100,4,2,1,100,0,0
10170,-100,4,2,0,90,0,0
15118,-100,4,2,1,100,0,0
15197,-100,4,2,0,90,0,0
25170,-100,4,2,1,100,0,0
25249,-100,4,2,0,90,0,0
30197,-100,4,2,0,70,0,0
40249,-100,4,2,1,100,0,0
40327,-100,4,2,0,90,0,0
65066,-100,4,2,1,100,0,0
65144,-100,4,2,0,90,0,0
65380,-100,4,2,0,70,0,0
67893,-100,4,2,0,100,0,0
68521,-100,4,2,0,90,0,0
70406,-100,4,2,1,100,0,0
70485,-100,4,2,0,90,0,0
90511,-333.333333333333,4,2,0,90,0,0
91453,-80,4,2,1,70,0,0
92396,-80,4,2,0,60,0,0
93652,-80,4,2,1,50,0,0
94280,-80,4,2,0,30,0,0
95458,-333.333333333333,4,2,1,30,0,0

[Colours]
Combo1 : 45,198,255
Combo2 : 242,13,13
Combo3 : 236,106,19
Combo4 : 41,80,214

[HitObjects]
482,226,10092,6,0,P|450:217|412:216,1,60,4|0,1:2|0:0,0:0:0:0:
387,239,10327,1,0,0:0:0:0:
387,239,10406,2,0,P|358:247|328:249,1,60,0|4,1:0|1:3,0:0:0:0:
249,205,10720,2,0,L|241:131,2,60,8|0|10,1:0|0:0|1:3,0:0:0:0:
211,286,11191,1,0,0:0:0:0:
180,370,11348,6,0,B|165:357|165:357|264:333,1,120,2|4,0:0|1:3,0:0:0:0:
435,276,11977,2,0,B|449:288|449:288|350:312,1,120,8|0,1:0|0:0,0:0:0:0:
260,156,12605,6,2,B|259:148|259:148|260:151|260:151|259:142|259:142|260:145|260:145|259:137|259:137|260:140|260:140|258:130|258:130|260:134|260:134|238:100|254:60,1,120,4|0,1:3|0:0,3:2:0:0:
337,92,13076,1,4,1:3:0:0:
405,33,13233,2,0,P|420:58|429:91,1,60,8|0,1:0|0:0,0:0:0:0:
499,143,13547,2,0,P|496:172|484:204,1,60,10|0,1:3|0:0,0:0:0:0:
502,289,13861,6,0,P|453:275|380:299,1,120,2|4,0:0|1:3,0:0:0:0:
224,217,14490,2,0,P|281:231|337:212,1,120,8|0,0:1|0:0,0:0:0:0:
360,34,15118,6,0,P|328:25|290:24,1,60,6|2,1:2|3:0,0:0:0:0:
265,47,15353,1,2,3:0:0:0:
265,47,15432,2,0,P|236:55|206:57,1,60,2|4,3:0|1:3,0:0:0:0:
123,92,15746,2,0,L|136:151,2,60,8|0|10,1:0|0:0|1:3,0:0:0:0:
57,29,16218,1,0,0:0:0:0:
26,113,16375,6,0,B|14:143|14:143|43:236,1,120,2|4,0:0|1:3,0:0:0:0:
172,348,17003,2,0,B|184:318|184:318|157:234,1,120,8|0,1:0|0:0,0:0:0:0:
32,362,17631,6,0,L|152:351,1,120,4|0,1:3|0:0,0:0:0:0:
239,369,18102,1,0,1:3:0:0:
280,289,18259,2,0,P|271:254|254:228,1,60,8|0,1:0|0:0,0:0:0:0:
311,160,18574,2,0,P|283:136|254:125,1,60,10|0,1:3|0:0,0:0:0:0:
200,61,18888,6,0,P|216:118|197:175,1,120,2|4,0:0|1:3,0:0:0:0:
19,189,19516,2,0,P|2:245|20:302,1,120,2|2,0:0|0:0,0:0:0:0:
184,376,20144,6,0,P|193:347|191:316,1,60,4|0,1:0|0:0,0:0:0:0:
271,277,20458,2,0,P|269:306|278:335,1,60,4|4,1:3|1:3,0:0:0:0:
354,287,20772,2,0,P|362:258|361:228,1,60,8|0,1:0|0:0,0:0:0:0:
439,182,21087,2,0,P|437:211|446:240,1,60,4|0,1:3|0:0,0:0:0:0:
354,287,21401,6,0,L|285:278,1,60,6|0,1:3|0:0,0:0:0:0:
267,193,21715,2,0,L|326:200,1,60,6|0,1:3|0:0,0:0:0:0:
363,118,22029,2,0,L|303:110,1,60,8|8,1:0|1:3,0:0:0:0:
275,24,22343,2,0,L|411:45,1,120,4|4,1:3|1:3,0:0:0:0:
493,191,22971,6,0,P|505:221|502:263,1,60,4|4,1:3|1:3,0:0:0:0:
416,231,23286,2,0,P|408:262|380:294,1,60,8|0,1:0|0:0,0:0:0:0:
327,221,23600,2,0,P|302:241|261:251,1,60,4|0,1:3|0:0,0:0:0:0:
256,162,23914,6,0,L|247:242,1,60,4|0,1:3|0:0,0:0:0:0:
159,226,24228,2,0,L|198:296,1,60,4|0,1:3|0:0,0:0:0:0:
121,338,24542,2,0,L|237:385,1,120,8|4,1:0|1:3,0:0:0:0:
159,226,25170,6,0,P|167:197|162:168,1,60,4|0,1:2|3:0,3:0:0:0:
144,133,25406,1,0,3:0:0:0:
144,133,25485,2,0,P|135:104|140:75,1,60,4|4,1:3|1:3,0:0:0:0:
227,51,25799,2,0,P|232:80|223:108,1,60,8|0,1:0|0:0,0:0:0:0:
140,75,26113,2,0,P|131:46|136:17,1,60,4|0,1:3|0:0,0:0:0:0:
48,32,26427,6,0,L|53:112,1,60,4|0,1:3|0:0,0:0:0:0:
7,170,26741,2,0,L|12:250,1,60,6|0,1:3|0:0,0:0:0:0:
67,299,27055,2,0,L|72:379,1,60,8|8,1:0|1:3,0:0:0:0:
157,383,27369,2,0,L|148:240,1,120,4|4,1:3|1:3,0:0:0:0:
184,85,27998,6,0,P|213:83|242:92,1,60,4|4,1:3|1:3,0:0:0:0:
278,10,28312,2,0,P|303:25|320:49,1,60,8|0,1:0|0:0,0:0:0:0:
401,10,28626,2,0,P|412:37|412:67,1,60,4|0,1:3|0:0,0:0:0:0:
493,106,28940,6,0,L|480:164,1,60,6|0,1:3|0:0,0:0:0:0:
391,174,29254,2,0,L|415:228,1,60,6|0,1:3|0:0,0:0:0:0:
349,289,29568,2,0,L|400:318,1,60,8|4,1:3|1:3,0:0:0:0:
479,363,29882,2,0,L|359:377,1,120,8|2,1:3|0:0,0:0:0:0:
2,126,35223,6,0,B|56:156|113:118|103:94|165:50|231:97,3,240,2|8|2|8,0:0|0:1|0:0|0:1,0:0:0:0:
194,270,37422,1,0,0:0:0:0:
22,216,37736,2,0,B|20:157|112:142|138:203|109:280|79:312,3,240,2|8|2|4,0:0|0:1|0:0|1:3,0:0:0:0:
75,157,40249,6,0,P|73:187|82:216,1,60,4|0,1:2|0:0,0:0:0:0:
159,170,40563,2,0,L|217:158,1,60,4|4,1:3|1:3,0:0:0:0:
307,167,40877,2,0,P|308:137|299:108,1,60,8|0,1:0|0:0,0:0:0:0:
217,158,41191,2,0,P|215:187|224:216,1,60,4|0,1:3|0:0,0:0:0:0:
304,257,41505,2,0,L|431:233,1,120,4|4,1:3|1:3,0:0:0:0:
498,71,42134,1,8,1:0:0:0:
409,57,42291,1,8,1:3:0:0:
320,43,42448,1,4,1:3:0:0:
390,208,42762,6,0,P|403:251|393:285,1,60,6|0,1:3|0:0,0:0:0:0:
489,283,43076,2,0,P|474:325|446:347,1,60,4|4,1:3|1:3,0:0:0:0:
375,347,43390,2,0,L|246:325,1,120,8|4,1:0|1:3,0:0:0:0:
81,370,44019,6,0,P|70:327|78:291,1,60,4|0,1:3|0:0,0:0:0:0:
8,248,44333,2,0,P|17:219|17:189,1,60,6|0,1:3|0:0,0:0:0:0:
50,106,44647,1,8,1:0:0:0:
137,85,44804,1,8,1:3:0:0:
224,64,44961,1,4,1:3:0:0:
370,168,45275,6,0,L|330:160,3,30,6|2|2|2,1:3|0:3|0:3|0:3,0:0:0:0:
299,180,45589,2,0,L|259:188,3,30,6|2|10|2,1:3|0:3|1:3|0:3,0:0:0:0:
225,176,45903,6,0,L|104:166,1,120,4|4,1:3|1:3,0:0:0:0:
5,15,46532,2,0,P|32:27|53:51,1,60,6|0,1:3|0:0,0:0:0:0:
141,51,46846,2,0,P|137:80|121:107,1,60,4|0,1:3|0:0,0:0:0:0:
63,174,47160,1,8,1:0:0:0:
33,258,47317,1,8,1:3:0:0:
65,341,47474,1,4,1:3:0:0:
221,252,47788,6,0,B|255:242|255:242|302:252|302:252|347:239,1,120,6|4,1:3|1:3,0:0:0:0:
427,242,48259,1,8,1:3:0:0:
492,180,48416,2,0,L|465:121,1,60,8|0,1:0|0:0,0:0:0:0:
482,36,48731,2,0,L|417:43,1,60,4|0,1:3|0:0,0:0:0:0:
342,1,49045,6,0,P|332:50|368:116,1,120,6|4,1:3|1:3,0:0:0:0:
463,259,49673,1,8,1:0:0:0:
373,259,49830,1,8,1:3:0:0:
294,215,49987,1,2,0:1:0:0:
201,61,50301,6,0,B|191:63|191:63|194:61|194:61|184:65|184:65|187:62|187:62|176:67|176:67|179:64|179:64|167:69|167:69|136:79|94:68,1,120,2|0,3:2|1:0,3:0:0:0:
26,29,50772,1,4,1:3:0:0:
31,119,50930,2,0,L|6:182,2,60,8|2|4,0:1|1:0|0:3,0:0:0:0:
105,70,51401,1,2,0:0:0:0:
158,142,51558,2,0,P|166:184|162:204,1,60,2|0,0:0|0:0,0:0:0:0:
248,227,51872,2,0,P|245:197|253:168,1,60,4|0,1:3|0:0,0:0:0:0:
339,145,52186,2,0,L|458:129,1,120,8|4,1:0|1:3,0:0:0:0:
498,304,52814,5,2,3:2:0:0:
480,307,52893,1,0,3:0:0:0:
462,310,52971,1,0,3:0:0:0:
444,313,53051,1,0,3:0:0:0:
426,316,53129,2,0,L|409:387,2,60,0|4|10,3:0|1:3|1:0,0:0:0:0:
446,228,53600,1,0,0:0:0:0:
416,143,53757,2,0,L|387:73,1,60,4|0,1:3|0:0,0:0:0:0:
322,143,54071,6,0,P|279:152|255:146,1,60,2|0,0:0|0:0,0:0:0:0:
219,70,54385,2,0,P|247:61|277:63,1,60,4|0,1:3|0:0,0:0:0:0:
322,143,54699,2,0,P|332:189|299:251,1,120,8|10,1:0|1:3,0:0:0:0:
449,350,55327,6,0,B|433:348|433:348|423:356|423:356|416:346|416:346|374:341|374:341|366:330|366:330|355:339|355:339|262:330,1,180,4|4,1:3|0:3,0:0:0:0:
215,276,55956,2,0,P|210:246|197:219,2,60,8|0|4,1:0|0:0|1:3,0:0:0:0:
200,364,56427,1,2,0:0:0:0:
129,307,56584,6,0,L|56:301,1,60,2|0,0:0|0:0,0:0:0:0:
36,218,56898,2,0,L|95:222,1,60,4|0,1:3|0:0,0:0:0:0:
136,142,57212,2,0,L|11:132,1,120,8|2,1:0|1:3,0:0:0:0:
34,51,57683,1,0,0:0:0:0:
34,51,57762,1,0,0:0:0:0:
34,51,57841,6,0,B|59:39|59:39|91:42,1,60,0|0,3:0|0:0,0:0:0:0:
159,100,58155,2,0,L|168:167,2,60,2|4|8,0:0|1:3|0:1,0:0:0:0:
230,43,58626,1,2,1:0:0:0:
230,43,58704,1,0,0:0:0:0:
230,43,58783,2,0,P|264:33|302:37,1,60,4|0,0:3|0:0,0:0:0:0:
357,91,59097,6,0,P|377:120|384:157,1,60,2|0,0:0|0:0,0:0:0:0:
358,230,59411,2,0,P|336:258|303:277,1,60,4|0,1:3|0:0,0:0:0:0:
226,276,59725,2,0,P|192:264|164:238,1,60,8|0,1:0|0:0,0:0:0:0:
151,161,60039,2,0,P|151:125|167:90,1,60,2|0,0:0|0:0,0:0:0:0:
230,43,60354,1,2,1:0:0:0:
256,192,60511,12,2,61610,1:0:0:0:
256,192,61767,12,2,62866,1:0:0:0:
310,277,63495,5,2,1:0:0:0:
174,88,64123,5,2,1:0:0:0:
211,264,64437,1,2,1:0:0:0:
386,223,64752,1,2,1:0:0:0:
349,47,65066,1,4,3:2:0:0:
507,4,65380,6,2,P|451:30|467:93,1,120,2|0,1:0|0:0,0:3:0:0:
496,160,65851,1,4,0:3:0:0:
407,178,66008,2,0,P|454:196|447:271,1,120,2|4,0:0|1:3,0:0:0:0:
279,280,66636,2,0,B|271:272|271:272|262:275|262:275|254:268|254:268|243:271|243:271|236:264|236:264|228:266|228:266|219:259|219:259|211:261|211:261|202:254|202:254|192:256|192:256|182:249|182:249|173:252,1,120,0|8,3:0|1:3,3:0:0:0:
94,290,67108,1,2,0:0:0:0:
23,345,67265,2,0,P|75:323|119:360,1,120,2|2,0:0|0:0,0:0:0:0:
279,280,67893,5,8,1:3:0:0:
282,262,67972,1,8,1:3:0:0:
285,244,68050,1,8,1:3:0:0:
288,226,68130,1,8,1:3:0:0:
291,208,68208,2,0,L|279:142,1,60,8|8,1:3|1:3,0:3:0:0:
359,107,68521,2,0,P|313:109|269:44,1,120,8|8,1:0|1:0,0:0:0:0:
448,71,69149,1,8,0:1:0:0:
256,192,69307,12,4,70406,1:2:0:0:
178,4,70720,6,0,P|147:30|135:52,1,60,8|4,1:3|1:3,0:0:0:0:
50,68,71034,2,0,P|65:105|82:123,1,60,4|0,1:3|0:0,0:0:0:0:
69,209,71348,2,0,P|109:206|132:195,1,60,10|0,1:3|0:0,0:0:0:0:
179,124,71663,6,0,P|219:126|242:137,1,60,6|0,1:3|0:0,0:0:0:0:
320,101,71977,2,0,P|329:140|326:165,1,60,6|0,1:3|0:0,0:0:0:0:
389,224,72291,2,0,P|354:245|330:250,1,60,8|8,1:0|1:3,0:0:0:0:
290,327,72605,2,0,P|259:300|255:213,1,120,8|4,1:3|1:3,0:0:0:0:
355,80,73233,6,0,L|375:149,1,60,8|4,1:3|1:3,0:0:0:0:
444,190,73547,2,0,L|419:257,1,60,8|0,1:0|0:0,0:0:0:0:
448,332,73861,2,0,L|388:372,1,60,10|0,1:3|0:0,0:0:0:0:
317,324,74176,6,0,L|246:312,1,60,4|0,1:3|0:0,0:3:0:0:
185,367,74490,2,0,L|114:379,1,60,4|0,1:3|0:0,0:0:0:0:
49,329,74804,2,0,L|34:199,1,120,8|4,1:0|1:3,0:0:0:0:
172,93,75432,5,10,1:3:0:0:
116,165,75589,1,0,0:0:0:0:
116,165,75668,1,0,0:0:0:0:
116,165,75746,2,0,P|142:183|183:187,1,60,8|4,1:3|1:3,0:0:0:0:
230,254,76060,2,0,P|261:253|297:232,1,60,8|0,1:0|0:0,0:0:0:0:
375,258,76375,2,0,P|400:238|416:201,1,60,4|0,1:3|0:0,0:0:0:0:
455,134,76689,6,0,L|373:120,1,60,10|0,1:3|0:0,0:0:0:0:
307,140,77003,2,0,L|225:154,1,60,10|0,1:3|0:0,0:0:0:0:
158,137,77317,2,0,L|76:123,1,60,8|8,1:0|1:3,0:0:0:0:
31,67,77631,2,0,P|7:120|31:188,1,120,4|6,1:3|1:3,0:0:0:0:
104,337,78259,6,0,P|98:307|106:277,1,60,8|4,1:3|1:3,0:0:0:0:
190,248,78574,2,0,P|196:277|191:306,1,60,8|0,1:0|0:0,0:0:0:0:
279,289,78888,2,0,P|273:259|280:230,1,60,10|0,1:3|0:0,0:0:0:0:
363,197,79202,6,0,P|368:226|361:255,1,60,4|0,1:3|0:0,0:0:0:0:
278,223,79516,2,0,P|271:193|276:164,1,60,4|0,1:3|0:0,0:0:0:0:
194,128,79830,2,0,P|189:187|166:242,1,120,8|4,1:0|1:3,0:0:0:0:
4,319,80458,6,0,L|71:324,1,60,2|0,1:3|0:0,0:0:0:0:
107,349,80694,1,0,0:0:0:0:
107,349,80772,2,0,L|174:346,1,60,2|2,0:0|0:0,0:0:0:0:
247,305,81087,2,0,L|257:232,2,60,8|0|6,1:0|0:0|1:3,0:0:0:0:
306,372,81558,1,0,0:0:0:0:
387,332,81715,6,0,P|444:316|499:336,1,120,2|10,1:3|1:3,0:0:0:0:
374,208,82343,2,0,P|318:228|261:215,1,120,8|0,1:0|0:0,0:0:0:0:
274,35,82971,6,0,L|316:158,1,120,4|0,1:3|0:0,0:0:0:0:
400,124,83443,1,4,1:3:0:0:
468,182,83600,2,0,P|488:148|489:119,1,60,8|0,1:0|0:0,0:0:0:0:
490,38,83914,2,0,L|419:42,1,60,6|0,1:3|0:0,0:0:0:0:
348,3,84228,5,2,1:3:0:0:
168,19,84542,1,4,1:3:0:0:
270,167,84856,1,8,1:0:0:0:
90,183,85170,1,0,0:0:0:0:
167,18,85485,6,0,P|177:47|172:79,1,60,6|0,1:3|0:0,0:0:0:0:
146,113,85720,1,0,0:0:0:0:
146,113,85799,2,0,P|136:141|141:170,1,60,8|4,1:3|1:3,0:0:0:0:
212,225,86113,2,0,L|294:216,2,60,8|0|2,1:0|0:0|1:0,0:0:0:0:
167,303,86584,1,0,0:0:0:0:
95,358,86741,6,0,B|71:375|71:375|55:273,1,120,2|6,1:3|1:3,0:0:0:0:
99,110,87369,2,0,B|123:93|123:93|139:195,1,120,8|0,1:0|0:0,0:0:0:0:
7,57,87998,6,0,P|39:25|121:4,1,120,4|0,1:3|0:0,0:0:0:0:
189,43,88469,1,4,1:3:0:0:
272,10,88626,2,0,P|280:48|275:73,1,60,8|0,1:0|0:0,0:0:0:0:
326,143,88940,2,0,P|310:178|291:195,1,60,4|0,1:3|0:0,0:0:0:0:
215,235,89254,5,2,0:3:0:0:
390,196,89568,1,2,3:0:0:0:
337,368,89882,1,2,0:3:0:0:
512,329,90196,1,2,0:3:0:0:
390,196,90511,2,0,B|421:171|463:186|481:233|456:268|427:278|401:269|401:269|380:260|375:243|375:243|347:263|304:253|304:253|164:315|161:212|33:273,1,566.999982696534,6|0,0:0|0:0,1:0:0:0:
