osu file format v14

[General]
AudioFilename: audio.mp3
AudioLeadIn: 0
PreviewTime: -1
Countdown: 1
SampleSet: Soft
StackLeniency: 0.7
Mode: 0
LetterboxInBreaks: 0
WidescreenStoryboard: 0

[Editor]
Bookmarks: 24000,34687,35250,36000,83250,83437,88500,89250,96000,97125,99000,100125,102000,103125,103500,104250
DistanceSpacing: 1.6
BeatDivisor: 6
GridSize: 4
TimelineZoom: 0.9

[Metadata]
Title:pursuit of happiness
TitleUnicode:pursuit of happiness
Artist:dark cat
ArtistUnicode:dark cat
Creator:dinnozap
Version:happiness
Source:
Tags:
BeatmapID:1131729
BeatmapSetID:534272

[Difficulty]
HPDrainRate:5
CircleSize:5
OverallDifficulty:7
ApproachRate:9.2
SliderMultiplier:1.4
SliderTickRate:1

[Events]
//Background and Video events
0,0,"I3kfdii.jpg",0,0
//Break Periods
2,59986,71404
//Storyboard Layer 0 (Background)
//Storyboard Layer 1 (Fail)
//Storyboard Layer 2 (Pass)
//Storyboard Layer 3 (Foreground)
//Storyboard Sound Samples

[TimingPoints]
-26,375,4,2,0,100,1,0
36000,-100,4,2,0,100,0,1
60000,-100,4,2,0,100,0,0
156000,-100,4,2,0,100,0,1
179982,-100,4,2,0,100,0,0

[HitObjects]
56,184,11786,5,0,0:0:0:0:
116,148,11974,1,0,0:0:0:0:
352,204,12724,5,0,0:0:0:0:
336,236,13474,1,0,0:0:0:0:
320,272,14224,1,0,0:0:0:0:
144,216,14974,5,0,0:0:0:0:
172,248,15724,1,0,0:0:0:0:
204,280,16474,1,0,0:0:0:0:
232,312,17224,1,0,0:0:0:0:
152,304,17786,1,0,0:0:0:0:
208,240,17974,5,0,0:0:0:0:
388,220,18724,1,0,0:0:0:0:
424,188,19474,1,0,0:0:0:0:
456,156,20224,1,0,0:0:0:0:
284,32,20974,5,0,0:0:0:0:
264,72,21724,1,0,0:0:0:0:
248,108,22474,1,0,0:0:0:0:
240,212,23224,2,0,B|248:280|292:284|332:332,1,140
448,256,23974,5,0,0:0:0:0:
240,264,24536,2,0,L|272:220,1,35
280,204,24724,1,0,0:0:0:0:
148,164,25099,5,0,0:0:0:0:
48,68,25474,1,0,0:0:0:0:
116,52,25661,2,0,L|164:72,1,35
184,76,25849,5,0,0:0:0:0:
80,280,26224,5,0,0:0:0:0:
204,344,26599,1,0,0:0:0:0:
208,288,26786,1,0,0:0:0:0:
236,264,26880,1,0,0:0:0:0:
268,280,26974,1,0,0:0:0:0:
392,280,27349,5,0,0:0:0:0:
436,224,27536,2,0,L|460:188,1,35
476,164,27724,1,0,0:0:0:0:
84,56,28099,5,0,0:0:0:0:
148,180,28474,1,0,0:0:0:0:
204,136,28661,1,0,0:0:0:0:
204,208,28849,1,0,0:0:0:0:
416,72,29224,5,0,0:0:0:0:
352,196,29599,1,0,0:0:0:0:
284,216,29786,1,0,0:0:0:0:
260,240,29880,1,0,0:0:0:0:
280,268,29974,1,0,0:0:0:0:
64,80,30349,5,0,0:0:0:0:
132,96,30536,1,0,0:0:0:0:
168,156,30724,1,0,0:0:0:0:
416,100,31099,5,0,0:0:0:0:
460,232,31474,1,0,0:0:0:0:
392,244,31661,1,0,0:0:0:0:
348,188,31849,1,0,0:0:0:0:
208,180,32224,1,0,0:0:0:0:
124,356,32599,2,0,L|180:356,4,35
268,304,33161,5,0,0:0:0:0:
308,244,33349,1,0,0:0:0:0:
324,176,33536,1,0,0:0:0:0:
388,204,33724,1,0,0:0:0:0:
388,136,33911,1,0,0:0:0:0:
348,80,34099,1,0,0:0:0:0:
280,76,34286,1,0,0:0:0:0:
212,96,34474,5,0,0:0:0:0:
156,140,34661,1,0,0:0:0:0:
178,166,34754,1,0,0:0:0:0:
209,182,34848,1,0,0:0:0:0:
244,184,34942,1,0,0:0:0:0:
277,174,35036,1,0,0:0:0:0:
307,155,35129,1,0,0:0:0:0:
440,320,35411,5,0,0:0:0:0:
328,304,35599,1,0,0:0:0:0:
400,220,35786,1,0,0:0:0:0:
92,56,35974,5,0,0:0:0:0:
204,72,36161,1,0,0:0:0:0:
136,160,36348,1,0,0:0:0:0:
196,64,36536,1,0,0:0:0:0:
296,112,36723,1,0,0:0:0:0:
212,188,36911,1,0,0:0:0:0:
392,64,37099,5,0,0:0:0:0:
384,176,37286,1,0,0:0:0:0:
296,104,37474,1,0,0:0:0:0:
232,196,37661,1,0,0:0:0:0:
128,244,37849,1,0,0:0:0:0:
228,296,38036,1,0,0:0:0:0:
300,212,38224,1,0,0:0:0:0:
192,180,38411,1,0,0:0:0:0:
276,256,38599,1,0,0:0:0:0:
116,52,38786,5,0,0:0:0:0:
228,48,38974,1,0,0:0:0:0:
188,152,39161,1,0,0:0:0:0:
292,112,39349,1,0,0:0:0:0:
312,220,39536,1,0,0:0:0:0:
348,116,39724,1,0,0:0:0:0:
448,64,39911,1,0,0:0:0:0:
336,124,40099,1,0,0:0:0:0:
484,84,40286,1,0,0:0:0:0:
200,40,40474,5,0,0:0:0:0:
112,196,40661,1,0,0:0:0:0:
260,160,40849,1,0,0:0:0:0:
100,328,41036,1,0,0:0:0:0:
204,340,41224,1,0,0:0:0:0:
44,232,41411,1,0,0:0:0:0:
200,140,41599,1,0,0:0:0:0:
64,64,41786,1,0,0:0:0:0:
336,56,41974,1,0,0:0:0:0:
284,220,42161,1,0,0:0:0:0:
412,124,42349,5,0,0:0:0:0:
384,332,42536,1,0,0:0:0:0:
248,128,42724,1,0,0:0:0:0:
424,192,42911,1,0,0:0:0:0:
168,264,43099,1,0,0:0:0:0:
352,60,43286,1,0,0:0:0:0:
180,112,43474,1,0,0:0:0:0:
320,200,43661,1,0,0:0:0:0:
244,40,43849,1,0,0:0:0:0:
128,268,44036,1,0,0:0:0:0:
288,184,44224,5,0,0:0:0:0:
104,124,44411,1,0,0:0:0:0:
340,40,44599,1,0,0:0:0:0:
224,160,44786,1,0,0:0:0:0:
384,124,44974,1,0,0:0:0:0:
156,208,45161,5,0,0:0:0:0:
344,80,45349,1,0,0:0:0:0:
136,104,45536,1,0,0:0:0:0:
316,188,45724,1,0,0:0:0:0:
240,36,45911,1,0,0:0:0:0:
168,224,46099,1,0,0:0:0:0:
352,92,46286,1,0,0:0:0:0:
120,88,46474,1,0,0:0:0:0:
252,136,46661,1,0,0:0:0:0:
216,36,46849,1,0,0:0:0:0:
136,236,47036,1,0,0:0:0:0:
256,192,47224,5,8,0:0:0:0:
440,320,47974,5,0,0:0:0:0:
248,284,48162,1,0,0:0:0:0:
360,232,48349,1,0,0:0:0:0:
92,56,48537,5,0,0:0:0:0:
244,80,48724,1,0,0:0:0:0:
104,184,48911,1,0,0:0:0:0:
224,20,49099,1,0,0:0:0:0:
400,160,49286,1,0,0:0:0:0:
152,224,49474,1,0,0:0:0:0:
392,64,49662,5,0,0:0:0:0:
368,280,49849,1,0,0:0:0:0:
300,104,50037,1,0,0:0:0:0:
280,316,50224,1,0,0:0:0:0:
340,172,50412,1,0,0:0:0:0:
280,316,50599,1,0,0:0:0:0:
400,112,50787,1,0,0:0:0:0:
128,172,50974,1,0,0:0:0:0:
248,204,51162,1,0,0:0:0:0:
116,52,51349,5,0,0:0:0:0:
312,64,51537,1,0,0:0:0:0:
164,220,51724,1,0,0:0:0:0:
340,316,51912,1,0,0:0:0:0:
440,128,52099,1,0,0:0:0:0:
372,36,52287,1,0,0:0:0:0:
472,24,52474,1,0,0:0:0:0:
336,124,52662,1,0,0:0:0:0:
484,84,52849,1,0,0:0:0:0:
200,40,53037,5,0,0:0:0:0:
112,196,53224,1,0,0:0:0:0:
260,160,53412,1,0,0:0:0:0:
100,328,53599,1,0,0:0:0:0:
204,340,53787,1,0,0:0:0:0:
44,232,53974,1,0,0:0:0:0:
200,140,54162,1,0,0:0:0:0:
64,64,54349,1,0,0:0:0:0:
336,56,54537,1,0,0:0:0:0:
284,220,54724,1,0,0:0:0:0:
412,124,54912,5,0,0:0:0:0:
384,332,55099,1,0,0:0:0:0:
248,128,55287,1,0,0:0:0:0:
424,192,55474,1,0,0:0:0:0:
168,264,55662,1,0,0:0:0:0:
352,60,55849,1,0,0:0:0:0:
180,112,56037,1,0,0:0:0:0:
320,200,56224,1,0,0:0:0:0:
244,40,56412,1,0,0:0:0:0:
128,268,56599,1,0,0:0:0:0:
288,184,56787,5,0,0:0:0:0:
104,124,56974,1,0,0:0:0:0:
340,40,57162,1,0,0:0:0:0:
224,156,57349,1,0,0:0:0:0:
388,100,57536,1,0,0:0:0:0:
200,64,57724,1,0,0:0:0:0:
296,304,57911,1,0,0:0:0:0:
140,208,58099,5,0,0:0:0:0:
224,144,58286,1,0,0:0:0:0:
184,352,58474,1,0,0:0:0:0:
372,68,58661,1,0,0:0:0:0:
344,248,58849,1,0,0:0:0:0:
224,64,59036,1,0,0:0:0:0:
424,152,59224,1,0,0:0:0:0:
128,288,59411,5,0,0:0:0:0:
168,124,59599,1,0,0:0:0:0:
236,336,59786,1,0,0:0:0:0:
400,68,71974,5,0,0:0:0:0:
420,104,72724,1,0,0:0:0:0:
448,56,73474,1,0,0:0:0:0:
400,80,74224,1,0,0:0:0:0:
440,80,74974,1,0,0:0:0:0:
404,92,75724,1,0,0:0:0:0:
388,48,76474,1,0,0:0:0:0:
344,124,77224,6,0,L|320:152,1,35
272,160,77411,1,0,0:0:0:0:
304,184,77505,1,0,0:0:0:0:
288,168,77598,1,0,0:0:0:0:
184,212,77786,5,0,0:0:0:0:
292,320,77974,1,0,0:0:0:0:
400,32,78161,1,0,0:0:0:0:
112,268,78724,5,0,0:0:0:0:
148,248,79474,1,0,0:0:0:0:
132,296,80224,1,0,0:0:0:0:
84,300,80974,1,0,0:0:0:0:
112,264,81724,1,0,0:0:0:0:
76,296,82474,1,0,0:0:0:0:
208,224,83224,6,0,B|232:184|232:184|264:176,1,70
344,252,83599,1,0,0:0:0:0:
100,308,83786,1,0,0:0:0:0:
400,32,83974,1,0,0:0:0:0:
116,80,84536,5,0,0:0:0:0:
212,48,84724,1,0,0:0:0:0:
296,116,85099,1,0,0:0:0:0:
296,192,85474,2,0,P|304:236|288:248,1,70
148,204,86224,1,0,0:0:0:0:
232,296,86599,5,0,0:0:0:0:
324,272,86786,1,0,0:0:0:0:
360,272,86880,1,0,0:0:0:0:
384,240,86974,1,0,0:0:0:0:
352,156,87161,1,0,0:0:0:0:
352,156,87536,5,0,0:0:0:0:
128,60,87724,1,0,0:0:0:0:
416,36,87911,1,0,0:0:0:0:
212,112,88099,1,0,0:0:0:0:
372,200,88286,1,0,0:0:0:0:
304,268,88474,1,0,0:0:0:0:
272,282,88567,1,0,0:0:0:0:
237,288,88661,1,0,0:0:0:0:
202,287,88755,1,0,0:0:0:0:
169,277,88849,1,0,0:0:0:0:
138,260,88942,1,0,0:0:0:0:
112,237,89036,1,0,0:0:0:0:
92,208,89130,1,0,0:0:0:0:
79,176,89224,1,0,0:0:0:0:
356,92,89974,5,0,0:0:0:0:
96,264,91099,1,0,0:0:0:0:
432,332,91849,1,0,0:0:0:0:
92,96,92974,1,0,0:0:0:0:
372,44,93536,1,0,0:0:0:0:
296,240,93724,1,0,0:0:0:0:
460,88,94099,1,0,0:0:0:0:
92,120,94849,1,0,0:0:0:0:
40,260,95224,1,0,0:0:0:0:
140,216,95599,1,0,0:0:0:0:
400,296,95974,6,0,B|344:264|344:192|344:192|212:180|192:80|192:80|128:60|80:88,1,420
52,72,98974,2,0,B|100:60|144:96|144:96|168:232|368:104|368:104|400:48,1,420
380,60,100849,5,0,0:0:0:0:
104,108,101224,1,0,0:0:0:0:
336,320,101599,1,0,0:0:0:0:
440,280,101974,2,0,B|400:296|336:236|336:236|204:216|144:296|144:296|104:240|84:192,1,420
52,64,103474,2,0,B|116:56|128:92|128:92|160:172|296:80,1,280
