osu file format v14

[General]
AudioFilename: audio.mp3
AudioLeadIn: 0
PreviewTime: 35156
Countdown: 0
SampleSet: Soft
StackLeniency: 0.7
Mode: 2
LetterboxInBreaks: 0
WidescreenStoryboard: 1

[Editor]
Bookmarks: 12000,36000,60000,72000,84000,90000,114000,120000,144000,156000,180000,192000
DistanceSpacing: 1.4
BeatDivisor: 4
GridSize: 4
TimelineZoom: 1

[Metadata]
Title:pursuit of happiness
TitleUnicode:pursuit of happiness
Artist:dark cat
ArtistUnicode:dark cat
Creator:Ascendance
Version:hyperion's rain
Source:osu!
Tags:jbh jbhyperion benita bennybananas benny- wonjae paranoid grapes catstep mapper's mappers' guild mapper mappers featured artist mg electronic instrumental Finite EP
BeatmapID:2242389
BeatmapSetID:1071294

[Difficulty]
HPDrainRate:6
CircleSize:3.5
OverallDifficulty:8.5
ApproachRate:8.5
SliderMultiplier:1.8
SliderTickRate:2

[Events]
//Background and Video events
0,0,"water-1245677_1920.jpg",0,0
//Break Periods
//Storyboard Layer 0 (Background)
//Storyboard Layer 1 (Fail)
//Storyboard Layer 2 (Pass)
//Storyboard Layer 3 (Foreground)
//Storyboard Layer 4 (Overlay)
//Storyboard Sound Samples

[TimingPoints]
0,375,4,2,1,40,1,0
8812,-100,4,2,1,10,0,0
9000,-100,4,2,1,15,0,0
9375,-100,4,2,1,20,0,0
9750,-100,4,2,1,25,0,0
10125,-100,4,2,1,30,0,0
10500,-100,4,2,1,35,0,0
10875,-100,4,2,1,40,0,0
11250,-100,4,2,1,45,0,0
11625,-100,4,2,1,5,0,0
11812,-100,4,2,1,70,0,0
12000,-100,4,2,1,50,0,0
23906,-100,4,2,1,5,0,0
24000,-100,4,2,2,70,0,0
27187,-100,4,2,1,70,0,0
27468,-100,4,2,2,70,0,0
28312,-100,4,2,1,70,0,0
28593,-100,4,2,2,70,0,0
30375,-100,4,2,1,70,0,0
30562,-100,4,2,2,70,0,0
31500,-100,4,2,1,70,0,0
31687,-100,4,2,2,70,0,0
31875,-100,4,2,1,70,0,0
32062,-100,4,2,2,70,0,0
35437,-100,4,2,2,60,0,0
35625,-100,4,2,2,50,0,0
35812,-100,4,2,2,40,0,0
36000,-100,4,2,3,80,0,1
47250,-100,4,2,3,80,0,0
47437,-100,4,2,3,65,0,0
47625,-100,4,2,3,50,0,0
47812,-100,4,2,3,35,0,0
48000,-100,4,2,3,80,0,1
58875,-100,4,2,3,70,0,1
59250,-100,4,2,3,60,0,1
59437,-100,4,2,3,50,0,1
59625,-100,4,2,3,40,0,1
59812,-100,4,2,3,30,0,1
60000,-100,4,2,2,70,0,0
63000,-100,4,2,1,70,0,0
63281,-100,4,2,2,70,0,0
64500,-100,4,2,1,70,0,0
64781,-100,4,2,2,70,0,0
65437,-100,4,2,2,55,0,0
65625,-100,4,2,2,40,0,0
65812,-100,4,2,3,25,0,0
66000,-100,4,2,3,70,0,0
66750,-100,4,2,2,70,0,0
71437,-100,4,2,2,60,0,0
71625,-100,4,2,2,50,0,0
71812,-100,4,2,2,40,0,0
72000,-100,4,2,1,70,0,0
78187,-100,4,2,77,80,0,0
78375,-100,4,2,1,70,0,0
83437,-100,4,2,2,60,0,0
83625,-100,4,2,2,50,0,0
83812,-100,4,2,2,40,0,0
84000,-100,4,2,2,70,0,0
84187,-100,4,2,1,70,0,0
84562,-100,4,2,2,70,0,0
89437,-100,4,2,2,60,0,0
89625,-100,4,2,2,50,0,0
89812,-100,4,2,2,40,0,0
90000,-133.333333333333,4,2,2,70,0,0
91125,-133.333333333333,4,2,1,70,0,0
92250,-133.333333333333,4,2,2,70,0,0
93000,-133.333333333333,4,2,1,70,0,0
93375,-133.333333333333,4,2,2,70,0,0
94125,-133.333333333333,4,2,1,70,0,0
95250,-133.333333333333,4,2,2,70,0,0
97125,-133.333333333333,4,2,1,70,0,0
98250,-133.333333333333,4,2,2,70,0,0
99000,-133.333333333333,4,2,1,70,0,0
99375,-133.333333333333,4,2,2,70,0,0
100125,-133.333333333333,4,2,1,70,0,0
101250,-133.333333333333,4,2,2,70,0,0
102000,-114.942528735632,4,2,1,100,0,0
103125,-114.942528735632,4,2,1,70,0,0
104250,-114.942528735632,4,2,2,70,0,0
105000,-114.942528735632,4,2,1,70,0,0
105375,-114.942528735632,4,2,2,70,0,0
106125,-114.942528735632,4,2,1,70,0,0
107250,-114.942528735632,4,2,2,70,0,0
109125,-114.942528735632,4,2,1,70,0,0
110250,-114.942528735632,4,2,2,70,0,0
111000,-114.942528735632,4,2,1,70,0,0
111375,-114.942528735632,4,2,2,70,0,0
112125,-114.942528735632,4,2,1,70,0,0
113437,-114.942528735632,4,2,2,60,0,0
113625,-114.942528735632,4,2,2,50,0,0
113812,-114.942528735632,4,2,2,40,0,0
114000,-80,4,2,3,70,0,0
114375,-100,4,2,3,60,0,0
114562,-100,4,2,2,70,0,0
119437,-100,4,2,2,60,0,0
119625,-100,4,2,2,50,0,0
119812,-100,4,2,2,40,0,0
120000,-100,4,2,1,60,0,0
125437,-100,4,2,1,50,0,0
125625,-100,4,2,1,40,0,0
125812,-100,4,2,1,30,0,0
126000,-100,4,2,1,60,0,0
131437,-100,4,2,1,50,0,0
131625,-100,4,2,1,40,0,0
131812,-100,4,2,1,30,0,0
132000,-100,4,2,1,65,0,0
132750,-100,4,2,2,65,0,0
132937,-100,4,2,1,65,0,0
134250,-100,4,2,2,65,0,0
134437,-100,4,2,1,65,0,0
135750,-100,4,2,2,65,0,0
135937,-100,4,2,1,65,0,0
137250,-100,4,2,2,65,0,0
137437,-100,4,2,1,55,0,0
137625,-100,4,2,1,45,0,0
137812,-100,4,2,1,35,0,0
138000,-100,4,2,1,65,0,0
138750,-100,4,2,2,65,0,0
138937,-100,4,2,1,65,0,0
140250,-100,4,2,2,65,0,0
140437,-100,4,2,1,65,0,0
141750,-100,4,2,2,65,0,0
141937,-100,4,2,1,65,0,0
143250,-100,4,2,2,65,0,0
143437,-100,4,2,1,55,0,0
143625,-100,4,2,1,45,0,0
143812,-100,4,2,1,35,0,0
144000,-100,4,2,2,70,0,0
155437,-100,4,2,2,60,0,0
155625,-100,4,2,2,50,0,0
155812,-100,4,2,2,40,0,0
156000,-100,4,2,3,80,0,1
167250,-100,4,2,3,80,0,0
167437,-100,4,2,3,65,0,0
167625,-100,4,2,3,50,0,0
167812,-100,4,2,3,35,0,0
168000,-100,4,2,3,80,0,1
178875,-100,4,2,3,70,0,1
179250,-100,4,2,3,60,0,1
179437,-100,4,2,3,50,0,1
179625,-100,4,2,3,40,0,1
179812,-100,4,2,3,30,0,1
180000,-100,4,2,2,70,0,0
181500,-100,4,2,1,70,0,0
181781,-100,4,2,2,70,0,0
183000,-100,4,2,1,70,0,0
183562,-100,4,2,2,70,0,0
184500,-100,4,2,1,70,0,0
184781,-100,4,2,2,70,0,0
185437,-100,4,2,2,55,0,0
185625,-100,4,2,2,40,0,0
185812,-100,4,2,3,25,0,0
186000,-100,4,2,3,70,0,0
186750,-100,4,2,2,70,0,0
191437,-100,4,2,2,55,0,0
191625,-100,4,2,2,40,0,0
191812,-100,4,2,2,25,0,0
192000,-100,4,2,1,60,0,0
192750,-100,4,2,1,50,0,0
193500,-100,4,2,1,40,0,0
194250,-100,4,2,1,30,0,0
194437,-100,4,2,1,20,0,0
195000,-100,4,2,1,25,0,0
195750,-100,4,2,1,30,0,0
196500,-100,4,2,1,25,0,0
196875,-100,4,2,1,20,0,0
197250,-100,4,2,1,15,0,0
197625,-100,4,2,1,10,0,0
198000,-100,4,2,1,5,0,0

[Colours]
Combo1 : 33,183,191
Combo2 : 145,73,31
Combo3 : 30,182,93

[HitObjects]
256,192,8812,12,0,11625,0:0:0:0:
328,192,11812,5,8,0:0:0:0:
132,192,12000,2,0,P|88:148|132:112,1,135,8|0,0:0|0:0,0:0:0:0:
280,112,12562,2,0,L|324:112,1,45
260,112,12750,2,0,L|212:112,2,45,2|2|0,0:0|0:0|0:0,0:0:0:0:
316,112,13031,1,2,0:0:0:0:
192,112,13312,2,0,L|148:112,1,45
100,112,13500,6,0,L|236:112,1,135,2|0,0:0|0:0,0:0:0:0:
340,112,14062,2,0,L|296:112,1,45
248,112,14250,1,2,0:0:0:0:
212,112,14343,1,2,0:0:0:0:
188,112,14437,1,0,0:0:0:0:
184,112,14531,1,2,0:0:0:0:
272,268,14812,2,0,L|324:268,1,45,2|0,0:0|0:0,0:0:0:0:
436,268,15000,5,2,0:0:0:0:
455,207,15093,1,0,0:0:0:0:
436,147,15187,1,0,0:0:0:0:
385,110,15281,1,0,0:0:0:0:
322,110,15375,1,2,0:0:0:0:
271,147,15468,1,2,0:0:0:0:
252,208,15562,1,2,0:0:0:0:
272,268,15656,1,0,0:0:0:0:
391,268,15750,2,0,L|435:268,2,45,2|2|0,0:0|0:0|0:0,0:0:0:0:
347,268,16031,1,2,0:0:0:0:
283,268,16218,1,0,0:0:0:0:
347,268,16312,2,0,L|351:212,1,45,2|2,0:0|0:0,0:0:0:0:
283,192,16500,5,2,0:0:0:0:
240,156,16593,1,0,0:0:0:0:
227,102,16687,1,0,0:0:0:0:
249,52,16781,1,0,0:0:0:0:
297,24,16875,1,2,0:0:0:0:
367,24,17062,2,0,L|375:88,1,45,2|0,0:0|0:0,0:0:0:0:
323,68,17250,1,2,0:0:0:0:
279,68,17343,1,2,0:0:0:0:
235,68,17437,1,0,0:0:0:0:
191,68,17531,1,2,0:0:0:0:
147,68,17625,1,0,0:0:0:0:
343,68,17812,1,8,0:0:0:0:
139,68,18000,5,8,0:0:0:0:
144,128,18093,1,0,0:0:0:0:
184,176,18187,1,0,0:0:0:0:
248,192,18281,1,2,0:0:0:0:
148,344,18562,2,0,L|196:344,1,45
240,344,18750,1,2,0:0:0:0:
296,304,18843,1,2,0:0:0:0:
300,236,18937,1,0,0:0:0:0:
248,192,19031,1,2,0:0:0:0:
140,192,19312,2,0,L|196:192,1,45
232,192,19500,5,2,0:0:0:0:
243,137,19593,1,0,0:0:0:0:
225,85,19687,1,2,0:0:0:0:
183,49,19781,1,2,0:0:0:0:
128,39,19875,2,0,L|176:40,1,45
220,40,20062,2,0,L|268:36,1,45
220,40,20250,1,2,0:0:0:0:
167,64,20343,1,2,0:0:0:0:
153,121,20437,1,0,0:0:0:0:
187,167,20531,1,2,0:0:0:0:
296,168,20812,2,0,L|248:168,1,45,2|0,0:0|0:0,0:0:0:0:
132,168,21000,5,2,0:0:0:0:
85,202,21093,1,2,0:0:0:0:
85,260,21187,1,2,0:0:0:0:
131,295,21281,1,0,0:0:0:0:
176,296,21375,2,0,L|224:296,1,45
176,296,21562,2,0,L|124:296,1,45
248,296,21750,1,2,0:0:0:0:
297,267,21843,1,2,0:0:0:0:
298,210,21937,1,0,0:0:0:0:
249,180,22031,1,2,0:0:0:0:
140,180,22312,1,2,0:0:0:0:
328,184,22500,6,0,L|332:84,1,90,2|0,0:0|0:0,0:0:0:0:
224,96,22875,2,0,L|324:96,1,90,2|0,0:0|0:0,0:0:0:0:
424,96,23250,1,2,0:0:0:0:
300,96,23437,1,2,0:0:0:0:
492,96,23625,2,0,B|492:188|492:188|448:192,1,135,10|0,0:0|0:0,0:0:0:0:
232,192,24000,6,0,B|140:192|140:192|140:280,1,180,6|0,0:0|0:0,0:0:0:0:
248,280,24562,1,2,3:2:0:0:
56,280,24750,2,0,L|52:188,1,90,8|0,0:0|0:0,0:0:0:0:
240,192,25125,2,0,P|296:144|240:72,1,180,0|0,3:0|0:0,0:0:0:0:
140,72,25687,5,2,3:2:0:0:
236,72,25875,2,0,L|240:168,1,90,0|0,3:0|0:0,0:0:0:0:
56,160,26250,2,0,L|148:160,1,90,8|0,0:0|0:0,0:0:0:0:
268,72,26625,1,2,3:2:0:0:
196,72,26812,1,2,3:2:0:0:
296,72,26906,1,2,3:2:0:0:
396,72,27000,5,0,3:0:0:0:
430,119,27093,1,0,0:0:0:0:
419,176,27187,1,2,0:0:0:0:
369,207,27281,1,2,0:0:0:0:
332,208,27375,1,2,0:0:0:0:
380,208,27468,1,0,0:0:0:0:
440,208,27562,1,2,3:2:0:0:
256,208,27750,2,0,L|252:320,1,90,8|0,0:0|0:0,0:0:0:0:
436,296,28125,2,0,B|484:296|484:296|432:296,1,90,0|2,3:0|0:0,0:0:0:0:
388,296,28406,1,2,0:0:0:0:
316,296,28500,5,2,0:0:0:0:
275,254,28593,1,0,0:0:0:0:
286,198,28687,1,2,3:2:0:0:
339,175,28781,1,0,0:0:0:0:
396,176,28875,2,0,L|496:176,1,90,0|0,3:0|0:0,0:0:0:0:
300,176,29250,2,0,L|208:176,1,90,8|0,0:0|0:0,0:0:0:0:
392,176,29625,1,0,3:0:0:0:
316,176,29812,1,2,0:0:0:0:
244,176,29906,1,0,3:0:0:0:
84,176,30000,5,2,0:0:0:0:
82,116,30093,1,0,0:0:0:0:
115,68,30187,1,0,0:0:0:0:
171,48,30281,1,0,0:0:0:0:
244,48,30375,1,2,0:0:0:0:
136,48,30562,1,2,3:2:0:0:
320,48,30750,2,0,L|412:48,1,90,8|0,0:0|0:0,0:0:0:0:
284,132,31125,6,0,P|224:192|280:248,1,180,0|2,3:0|0:0,0:0:0:0:
388,248,31687,2,0,L|460:192,2,90,0|2|0,3:0|0:0|0:0,0:0:0:0:
200,248,32250,2,0,L|196:352,1,90,10|0,3:2|0:0,0:0:0:0:
380,336,32625,1,0,3:2:0:0:
292,336,32812,1,0,3:0:0:0:
392,336,32906,1,0,3:0:0:0:
492,332,33000,6,0,L|496:236,1,90,2|0,3:2|0:0,0:0:0:0:
324,192,33375,2,0,L|320:92,1,90,0|0,3:0|0:0,0:0:0:0:
148,100,33750,1,8,3:2:0:0:
256,100,33937,1,0,0:0:0:0:
92,100,34125,1,0,3:0:0:0:
264,100,34312,1,0,0:0:0:0:
80,100,34500,5,8,3:2:0:0:
77,159,34593,1,0,3:2:0:0:
108,208,34687,1,2,3:2:0:0:
163,231,34781,1,0,3:2:0:0:
236,232,34875,2,0,L|284:232,1,45,8|0,3:2|3:2,3:3:0:0:
220,308,35062,2,0,L|172:308,1,45,2|0,3:2|3:2,3:3:0:0:
352,308,35250,1,8,3:2:0:0:
248,308,35437,1,2,0:0:0:0:
144,308,35625,1,2,0:0:0:0:
40,308,35812,1,2,0:0:0:0:
336,192,36000,6,0,L|428:192,2,90,6|0|0,0:0|0:0|0:0,0:0:0:0:
172,192,36562,1,2,0:0:0:0:
424,192,36750,2,0,L|428:88,1,90,8|0,0:0|0:0,0:0:0:0:
328,104,37125,1,0,0:0:0:0:
148,104,37312,1,2,0:0:0:0:
256,104,37500,5,0,0:0:0:0:
92,104,37687,1,2,0:0:0:0:
264,104,37875,2,0,L|268:208,1,90,2|0,0:0|0:0,0:0:0:0:
16,192,38250,2,0,L|116:192,1,90,8|0,0:0|0:0,0:0:0:0:
216,192,38625,2,0,L|120:192,1,90
380,192,39000,5,2,0:0:0:0:
488,192,39187,1,0,0:0:0:0:
380,192,39375,1,0,0:0:0:0:
200,192,39562,1,2,0:0:0:0:
456,192,39750,1,8,0:0:0:0:
348,192,39937,1,0,0:0:0:0:
240,192,40125,1,0,0:0:0:0:
412,192,40312,1,2,0:0:0:0:
140,192,40500,5,0,0:0:0:0:
304,192,40687,1,2,0:0:0:0:
128,192,40875,2,0,L|124:292,1,90,2|0,0:0|0:0,0:0:0:0:
400,284,41250,2,0,L|404:192,1,90,8|0,0:0|0:0,0:0:0:0:
224,192,41625,2,0,L|128:192,1,90
404,88,42000,6,0,L|312:88,2,90,2|0|0,0:0|0:0|0:0,0:0:0:0:
240,88,42562,1,2,0:0:0:0:
492,88,42750,2,0,L|496:192,1,90,8|0,0:0|0:0,0:0:0:0:
396,176,43125,1,0,0:0:0:0:
216,176,43312,1,2,0:0:0:0:
324,176,43500,5,0,0:0:0:0:
160,176,43687,1,2,0:0:0:0:
332,176,43875,2,0,L|424:176,1,90,2|0,0:0|0:0,0:0:0:0:
168,88,44250,2,0,L|268:88,1,90,8|0,0:0|0:0,0:0:0:0:
428,88,44625,2,0,L|432:180,1,90
176,88,45000,5,2,0:0:0:0:
68,88,45187,1,0,0:0:0:0:
176,88,45375,1,0,0:0:0:0:
356,88,45562,1,2,0:0:0:0:
100,88,45750,1,8,0:0:0:0:
280,88,45937,1,0,0:0:0:0:
24,88,46125,1,0,0:0:0:0:
188,88,46312,1,2,0:0:0:0:
448,88,46500,5,2,0:0:0:0:
284,88,46687,1,2,0:0:0:0:
460,88,46875,2,0,L|464:188,1,90,2|0,0:0|0:0,0:0:0:0:
280,192,47250,1,8,0:0:0:0:
380,192,47437,1,2,0:0:0:0:
463,177,47625,1,2,0:0:0:0:
380,192,47812,1,2,0:0:0:0:
100,192,48000,5,6,0:0:0:0:
12,160,48187,1,0,0:0:0:0:
12,68,48375,1,0,0:0:0:0:
96,24,48562,1,2,0:0:0:0:
348,24,48750,2,0,L|352:124,1,90,8|0,0:0|0:0,0:0:0:0:
174,68,49125,2,0,L|82:68,2,90,0|2|0,0:0|0:0|0:0,0:0:0:0:
272,68,49687,5,2,0:0:0:0:
84,68,49875,2,0,L|80:172,1,90,2|0,0:0|0:0,0:0:0:0:
332,192,50250,2,0,L|416:156,1,90,8|0,0:0|0:0,0:0:0:0:
228,156,50625,2,0,L|224:64,1,90
492,68,51000,5,2,0:0:0:0:
384,68,51187,1,0,0:0:0:0:
276,68,51375,1,0,0:0:0:0:
460,68,51562,1,2,0:0:0:0:
188,68,51750,1,8,0:0:0:0:
208,192,51937,1,0,0:0:0:0:
284,284,52125,1,0,0:0:0:0:
400,284,52312,1,2,0:0:0:0:
208,192,52500,6,0,L|304:192,1,90,0|2,0:0|0:0,0:0:0:0:
496,192,52875,2,0,L|404:192,1,90,2|0,0:0|0:0,0:0:0:0:
152,192,53250,2,0,L|132:92,1,90,8|0,0:0|0:0,0:0:0:0:
324,104,53625,2,0,L|224:104,1,90
488,104,54000,5,2,0:0:0:0:
493,206,54187,1,0,0:0:0:0:
431,288,54375,1,0,0:0:0:0:
331,311,54562,1,2,0:0:0:0:
80,312,54750,2,0,L|76:208,1,90,8|0,0:0|0:0,0:0:0:0:
268,192,55125,6,0,L|360:192,2,90,0|2|0,0:0|0:0|0:0,0:0:0:0:
376,192,55687,1,2,0:0:0:0:
192,192,55875,2,0,L|184:92,1,90,2|0,0:0|0:0,0:0:0:0:
448,100,56250,2,0,L|340:100,1,90,8|0,0:0|0:0,0:0:0:0:
184,102,56625,1,0,0:0:0:0:
368,100,56812,1,0,0:0:0:0:
96,100,57000,6,0,L|92:224,1,90,2|0,0:0|0:0,0:0:0:0:
348,192,57375,1,0,0:0:0:0:
168,192,57562,1,2,0:0:0:0:
440,296,57750,1,8,0:0:0:0:
272,296,57937,1,0,0:0:0:0:
104,296,58125,1,0,0:0:0:0:
272,296,58312,1,0,0:0:0:0:
20,296,58500,6,0,L|16:192,1,90,10|0,0:0|0:0,0:0:0:0:
208,192,58875,2,0,L|300:192,1,90,8|0,0:0|0:0,0:0:0:0:
488,192,59250,1,2,0:0:0:0:
380,192,59437,1,2,0:0:0:0:
272,192,59625,1,2,0:0:0:0:
164,192,59812,1,2,0:0:0:0:
436,192,60000,5,6,0:0:0:0:
312,192,60375,2,0,L|308:96,1,90,0|0,0:0|3:0,0:0:0:0:
488,100,60750,2,0,B|488:8|488:8|400:8,1,180,8|0,0:0|3:0,0:0:0:0:
220,8,61312,1,0,0:0:0:0:
352,8,61875,6,0,L|248:8,1,90,0|0,3:0|3:0,0:0:0:0:
80,8,62250,1,8,0:0:0:0:
180,8,62437,1,0,3:0:0:0:
280,8,62625,1,0,3:0:0:0:
100,8,62812,1,0,3:0:0:0:
192,8,63000,5,2,0:0:0:0:
233,48,63093,1,2,0:0:0:0:
235,107,63187,1,2,0:0:0:0:
195,150,63281,1,0,0:0:0:0:
140,152,63375,2,0,L|44:152,1,90,0|0,3:0|0:0,0:0:0:0:
232,152,63750,2,0,L|328:152,1,90,8|0,0:0|0:0,0:0:0:0:
212,152,64125,1,0,3:0:0:0:
392,152,64312,1,0,0:0:0:0:
300,152,64500,5,2,0:0:0:0:
294,211,64593,1,2,0:0:0:0:
309,269,64687,1,2,0:0:0:0:
342,318,64781,1,0,0:0:0:0:
396,320,64875,2,0,L|300:320,1,90,0|0,3:0|0:0,0:0:0:0:
124,320,65250,1,8,0:0:0:0:
212,320,65437,1,2,0:0:0:0:
304,320,65625,1,2,0:0:0:0:
392,320,65812,1,2,0:0:0:0:
124,320,66000,6,0,L|260:320,1,135,4|0,0:0|0:0,0:0:0:0:
312,320,66375,2,0,L|220:320,1,90,8|0,0:0|0:0,0:0:0:0:
404,320,66750,2,0,L|408:224,1,90,8|0,0:0|0:0,0:0:0:0:
300,232,67125,1,0,3:0:0:0:
400,232,67312,1,0,0:0:0:0:
292,232,67500,5,2,3:2:0:0:
192,232,67687,1,0,3:0:0:0:
192,132,67875,1,0,3:0:0:0:
292,132,68062,1,0,0:0:0:0:
104,132,68250,2,0,L|100:32,1,90,8|0,0:0|3:0,0:0:0:0:
208,40,68625,1,0,3:0:0:0:
316,40,68812,1,2,3:2:0:0:
224,40,68906,1,2,3:2:0:0:
132,40,69000,6,0,L|40:40,2,90,2|0|0,3:2|0:0|3:0,0:0:0:0:
240,40,69562,1,0,3:0:0:0:
60,40,69750,2,0,L|56:140,1,90,8|0,0:0|0:0,0:0:0:0:
164,128,70125,2,0,L|264:128,1,90,2|0,3:2|3:0,0:0:0:0:
440,128,70500,6,0,L|444:176,1,45,8|0,3:2|3:2,3:3:0:0:
360,176,70687,2,0,L|356:236,1,45,2|0,3:2|3:2,3:3:0:0:
244,220,70875,2,0,L|240:276,1,45,8|0,3:2|3:2,3:3:0:0:
324,264,71062,2,0,L|328:328,1,45,2|0,3:2|3:2,3:3:0:0:
144,308,71250,1,8,3:2:0:0:
36,308,71437,1,2,0:0:0:0:
36,308,71625,1,2,0:0:0:0:
144,308,71812,1,2,0:0:0:0:
416,308,72000,6,0,L|420:128,1,180,8|0,0:0|0:0,0:0:0:0:
320,132,72562,1,0,0:0:0:0:
220,132,72750,2,0,L|312:132,2,90,2|0|0,0:0|0:0|0:0,0:0:0:0:
120,132,73312,2,0,L|116:40,1,90
244,44,73687,5,2,0:0:0:0:
300,128,73875,1,0,0:0:0:0:
224,192,74062,1,0,0:0:0:0:
124,192,74250,2,0,L|28:193,2,90,2|0|0,0:0|0:0|0:0,0:0:0:0:
232,192,74812,1,0,0:0:0:0:
412,192,75000,6,0,L|508:192,1,90,0|2,0:0|0:0,0:0:0:0:
502,192,75375,1,0,0:0:0:0:
320,192,75750,1,2,0:0:0:0:
220,192,75937,1,0,0:0:0:0:
300,192,76125,1,0,0:0:0:0:
400,192,76312,1,0,0:0:0:0:
208,92,76500,6,0,L|388:92,1,180
192,92,77250,1,2,0:0:0:0:
316,92,77437,1,0,3:0:0:0:
252,92,77531,1,0,3:0:0:0:
192,92,77625,1,0,3:0:0:0:
372,92,77812,1,8,0:0:0:0:
192,92,78000,5,8,0:0:0:0:
460,92,78187,2,0,P|480:160|468:268,1,180,4|0,0:0|0:0,0:0:0:0:
360,268,78750,2,0,L|356:176,1,90,2|0,0:0|0:0,0:0:0:0:
464,176,79125,2,0,L|372:176,1,90
264,176,79500,5,0,0:0:0:0:
374,176,79687,2,0,L|282:176,2,90,2|0|0,0:0|0:0|0:0,0:0:0:0:
264,176,80250,1,2,0:0:0:0:
176,176,80437,1,0,0:0:0:0:
84,176,80625,1,0,0:0:0:0:
192,176,80812,1,0,0:0:0:0:
12,172,81000,6,0,L|8:276,1,90,0|2,0:0|0:0,0:0:0:0:
116,260,81375,2,0,L|220:260,1,90
96,260,81750,1,2,0:0:0:0:
24,224,81937,1,0,0:0:0:0:
24,148,82125,1,0,0:0:0:0:
94,116,82312,1,0,0:0:0:0:
220,116,82500,5,0,0:0:0:0:
124,116,82687,1,2,0:0:0:0:
220,116,82875,1,0,0:0:0:0:
316,116,83062,1,0,0:0:0:0:
188,116,83250,1,8,0:0:0:0:
372,116,83437,2,0,L|376:20,1,90,2|2,3:2|3:2,0:0:0:0:
188,28,83812,1,2,3:2:0:0:
440,24,84000,5,6,0:0:0:0:
491,73,84093,1,0,0:0:0:0:
480,145,84187,1,2,0:0:0:0:
415,176,84281,1,2,0:0:0:0:
244,176,84375,1,2,0:0:0:0:
120,176,84562,1,0,3:0:0:0:
304,176,84750,2,0,L|308:368,1,180,2|0,3:2|3:0,0:0:0:0:
128,356,85500,6,0,L|224:356,1,90,2|0,3:2|3:0,0:0:0:0:
328,356,85875,2,0,L|332:264,1,90,0|0,0:0|3:0,0:0:0:0:
224,268,86250,1,2,3:2:0:0:
360,268,86625,1,0,3:0:0:0:
260,268,86812,1,0,3:0:0:0:
168,268,86906,1,0,3:0:0:0:
76,268,87000,6,0,L|168:268,2,90,2|0|0,3:2|3:0|0:0,0:0:0:0:
76,268,87562,1,0,3:0:0:0:
260,268,87750,2,0,L|264:176,1,90,2|0,3:2|3:0,0:0:0:0:
164,180,88125,1,0,3:0:0:0:
64,180,88312,1,0,3:0:0:0:
252,88,88500,6,0,L|300:88,1,45,8|0,3:2|3:2,3:3:0:0:
352,88,88687,2,0,L|300:88,1,45,2|0,3:2|3:2,3:3:0:0:
236,88,88875,2,0,L|288:88,1,45,8|0,3:2|3:2,3:3:0:0:
368,88,89062,2,0,L|304:88,1,45,2|0,3:2|3:2,3:3:0:0:
136,88,89250,1,8,3:2:0:0:
29,125,89437,1,2,0:0:0:0:
29,238,89625,1,2,0:0:0:0:
135,276,89812,1,2,0:0:0:0:
424,272,90000,6,0,P|432:200|416:120,1,135.000005149842,2|0,0:0|0:0,0:0:0:0:
116,140,90750,1,8,0:0:0:0:
304,140,91125,6,0,L|152:140,1,135.000005149842,2|0,0:0|0:0,0:0:0:0:
332,140,91875,1,2,0:0:0:0:
28,140,92250,2,0,L|24:40,1,67.5000025749208,8|0,0:0|0:0,0:0:0:0:
120,140,92625,2,0,L|116:40,1,67.5000025749208
320,72,93000,6,0,P|352:124|320:188,1,135.000005149842,2|0,0:0|0:0,0:0:0:0:
228,188,93562,1,0,0:0:0:0:
432,188,93750,1,8,0:0:0:0:
268,188,94125,6,0,L|264:28,1,135.000005149842,2|0,0:0|0:0,0:0:0:0:
400,56,94875,1,2,0:0:0:0:
80,56,95250,1,8,0:0:0:0:
148,56,95625,1,2,0:0:0:0:
472,56,96000,6,0,L|324:56,1,135.000005149842,2|0,0:0|0:0,0:0:0:0:
256,56,96562,1,0,0:0:0:0:
460,56,96750,1,8,0:0:0:0:
300,56,97125,6,0,L|152:56,1,135.000005149842,2|0,0:0|0:0,0:0:0:0:
328,56,97875,1,2,0:0:0:0:
24,56,98250,2,0,L|20:212,1,135.000005149842,8|0,0:0|0:0,0:0:0:0:
328,192,99000,6,0,L|464:192,1,135.000005149842,2|0,0:0|0:0,0:0:0:0:
380,192,99562,1,0,0:0:0:0:
176,192,99750,1,8,0:0:0:0:
336,192,100125,6,0,L|340:36,1,135.000005149842,2|0,0:0|0:0,0:0:0:0:
192,56,100875,1,2,0:0:0:0:
496,56,101250,1,8,0:0:0:0:
496,56,101625,1,2,0:0:0:0:
16,56,102000,6,0,P|12:128|28:216,1,156.60000131424,2|0,0:0|0:0,0:0:0:0:
364,212,102750,1,8,0:0:0:0:
208,212,103125,6,0,L|368:212,1,156.60000131424,2|0,0:0|0:0,0:0:0:0:
160,212,103875,1,2,0:0:0:0:
488,212,104250,2,0,L|484:372,1,156.60000131424,8|0,0:0|0:0,0:0:0:0:
132,368,105000,6,0,B|132:288|132:288|208:288,1,156.60000131424,2|0,0:0|0:0,0:0:0:0:
304,288,105562,1,0,0:0:0:0:
100,288,105750,1,8,0:0:0:0:
272,288,106125,6,0,B|272:212|272:212|192:192,1,156.60000131424,2|0,0:0|0:0,0:0:0:0:
100,192,106687,1,0,0:0:0:0:
4,192,106875,1,2,0:0:0:0:
316,192,107250,1,8,0:0:0:0:
28,192,107625,1,2,0:0:0:0:
496,192,108000,6,0,L|336:192,1,156.60000131424,2|0,0:0|0:0,0:0:0:0:
432,192,108562,1,0,0:0:0:0:
240,192,108750,1,8,0:0:0:0:
328,192,108937,1,0,0:0:0:0:
416,192,109125,6,0,L|420:32,1,156.60000131424,2|0,0:0|0:0,0:0:0:0:
232,36,109875,2,0,L|312:36,1,78.3000006571198,2|0,0:0|0:0,0:0:0:0:
104,36,110250,2,0,L|100:128,1,78.3000006571198,8|0,0:0|0:0,0:0:0:0:
196,112,110625,1,0,0:0:0:0:
88,112,110812,1,0,0:0:0:0:
292,112,111000,6,0,B|368:112|368:112|368:192,1,156.60000131424,2|0,0:0|0:0,0:0:0:0:
276,192,111562,1,0,0:0:0:0:
480,192,111750,2,0,L|380:192,1,78.3000006571198,8|0,0:0|0:0,0:0:0:0:
308,192,112125,2,0,L|388:192,1,78.3000006571198,2|0,0:0|0:0,0:0:0:0:
293,192,112500,5,0,0:0:0:0:
496,192,112687,1,0,0:0:0:0:
400,192,112875,2,0,L|316:192,2,78.3000006571198,2|0|0,0:0|0:0|0:0,0:0:0:0:
196,192,113437,1,2,0:0:0:0:
100,192,113625,1,2,0:0:0:0:
100,284,113812,1,2,0:0:0:0:
400,284,114000,6,0,P|452:260|400:192,1,168.75,12|0,0:0|0:0,0:0:0:0:
286,192,114375,2,0,L|178:192,1,90,8|0,0:0|0:0,0:0:0:0:
468,192,114750,2,0,B|468:100|468:100|376:100,1,180,8|2,0:0|3:2,0:0:0:0:
272,100,115312,1,0,0:0:0:0:
452,100,115500,6,0,L|456:8,1,90,0|0,3:0|3:0,0:0:0:0:
348,8,115875,2,0,L|256:8,1,90,0|2,3:0|3:2,0:0:0:0:
76,8,116250,2,0,L|168:8,2,90,8|2|2,0:0|3:2|3:2,3:3:0:0:
184,8,116812,1,0,3:0:0:0:
284,8,116906,1,0,3:0:0:0:
384,8,117000,6,0,L|480:8,2,90,2|0|0,3:2|3:0|0:0,0:0:0:0:
492,8,117562,1,0,3:0:0:0:
308,8,117750,2,0,L|120:8,1,180,8|2,0:0|3:2,0:0:0:0:
228,8,118312,1,0,3:0:0:0:
44,8,118500,6,0,L|88:8,1,45,8|0,3:2|3:2,3:3:0:0:
144,8,118687,2,0,L|200:8,1,45,2|0,3:2|3:2,3:3:0:0:
76,96,118875,2,0,L|120:96,1,45,8|0,3:2|3:2,3:3:0:0:
176,96,119062,2,0,L|232:96,1,45,2|0,3:2|3:2,3:3:0:0:
392,96,119250,1,8,0:0:0:0:
292,96,119437,1,2,0:0:0:0:
192,96,119625,1,2,0:0:0:0:
92,96,119812,1,2,0:0:0:0:
364,96,120000,5,8,0:0:0:0:
375,154,120093,1,0,0:0:0:0:
374,214,120187,1,0,0:0:0:0:
359,272,120281,1,0,0:0:0:0:
252,276,120562,2,0,L|256:228,1,45,2|0,0:0|0:0,0:0:0:0:
368,216,120750,1,8,0:0:0:0:
360,157,120843,1,0,0:0:0:0:
323,110,120937,1,2,0:0:0:0:
268,88,121031,1,2,0:0:0:0:
376,88,121312,2,0,L|380:28,1,45
268,44,121500,6,0,L|216:44,2,45,8|0|2,0:0|0:0|0:0,0:0:0:0:
312,44,121781,1,2,0:0:0:0:
421,88,122062,2,0,L|377:88,1,45,2|0,0:0|0:0,0:0:0:0:
264,88,122250,1,10,0:0:0:0:
212,111,122343,1,2,0:0:0:0:
212,168,122437,1,2,0:0:0:0:
263,192,122531,1,0,0:0:0:0:
308,192,122625,2,0,L|312:100,1,90,2|0,0:0|0:0,0:0:0:0:
132,100,123000,6,0,L|80:100,1,45,10|0,0:0|0:0,0:0:0:0:
87,100,123187,2,0,L|136:100,1,45,2|2,0:0|0:0,0:0:0:0:
204,100,123468,1,0,0:0:0:0:
160,100,123562,2,0,L|156:160,1,45,2|0,0:0|0:0,0:0:0:0:
268,144,123750,1,10,0:0:0:0:
315,176,123843,1,2,0:0:0:0:
315,234,123937,1,2,0:0:0:0:
268,267,124031,1,0,0:0:0:0:
216,268,124125,2,0,L|172:268,1,45
224,268,124312,2,0,L|272:268,1,45,2|2,0:0|0:0,0:0:0:0:
380,268,124500,6,0,L|424:268,2,45,10|2|2,0:0|0:0|0:0,0:0:0:0:
255,350,125062,2,0,L|211:350,1,45,2|2,0:0|0:0,0:0:0:0:
163,350,125250,1,8,0:0:0:0:
274,352,125437,2,0,L|364:352,2,90,8|8|8,0:0|0:0|0:0,0:0:0:0:
19,350,126000,5,8,0:0:0:0:
17,305,126093,1,2,0:0:0:0:
16,260,126187,1,2,0:0:0:0:
195,258,126562,2,0,L|199:214,1,45,2|2,0:0|0:0,0:0:0:0:
79,194,126750,1,10,0:0:0:0:
124,194,126843,1,0,0:0:0:0:
169,194,126937,1,0,0:0:0:0:
279,194,127125,1,2,0:0:0:0:
191,194,127312,2,0,L|143:194,1,45,2|2,0:0|0:0,0:0:0:0:
263,110,127500,5,10,0:0:0:0:
307,110,127593,1,0,0:0:0:0:
351,110,127687,2,0,L|355:18,1,90,2|0,0:0|0:0,0:0:0:0:
247,22,128062,2,0,L|295:22,1,45,2|0,0:0|0:0,0:0:0:0:
411,22,128250,2,0,L|415:70,1,45,10|2,0:0|0:0,0:0:0:0:
359,110,128437,2,0,L|311:110,2,45,2|0|2,0:0|0:0|0:0,0:0:0:0:
464,110,128812,2,0,L|416:110,1,45,2|2,0:0|0:0,0:0:0:0:
299,110,129000,6,0,L|239:110,1,45,10|0,0:0|0:0,0:0:0:0:
254,110,129187,2,0,L|303:110,1,45,2|2,0:0|0:0,0:0:0:0:
407,194,129468,1,0,0:0:0:0:
355,194,129562,2,0,L|311:194,1,45,2|0,0:0|0:0,0:0:0:0:
191,194,129750,2,0,L|147:194,2,45,10|2|2,0:0|0:0|0:0,0:0:0:0:
247,194,130031,1,0,0:0:0:0:
303,194,130125,2,0,L|399:194,1,90,2|2,0:0|0:0,0:0:0:0:
339,194,130406,1,2,0:0:0:0:
223,194,130500,5,10,0:0:0:0:
180,232,130593,1,2,0:0:0:0:
191,288,130687,1,2,0:0:0:0:
246,306,130781,1,0,0:0:0:0:
379,306,131062,2,0,L|383:358,1,45,0|2,0:0|0:0,0:0:0:0:
268,305,131250,1,10,0:0:0:0:
171,306,131437,1,8,0:0:0:0:
268,305,131625,1,8,0:0:0:0:
80,304,131812,1,8,0:0:0:0:
343,306,132000,6,0,L|399:306,2,45,8|2|2,0:0|0:0|0:0,0:0:0:0:
243,306,132375,2,0,L|239:258,1,45,2|0,0:0|0:0,0:0:0:0:
315,234,132562,2,0,L|319:174,1,45,2|0,0:0|0:0,0:0:0:0:
195,190,132750,2,0,L|95:190,2,90,8|0|2,0:0|0:0|0:0,0:0:0:0:
295,190,133312,2,0,L|239:190,1,45
131,98,133500,6,0,L|79:98,1,45,8|2,0:0|0:0,0:0:0:0:
86,98,133687,2,0,L|139:98,1,45,2|0,0:0|0:0,0:0:0:0:
187,98,133875,2,0,L|235:98,1,45
232,98,134062,2,0,L|183:98,1,45,2|0,0:0|0:0,0:0:0:0:
307,98,134250,2,0,L|399:98,2,90,8|2|2,0:0|0:0|0:0,0:0:0:0:
255,98,134718,1,0,0:0:0:0:
211,98,134812,1,2,0:0:0:0:
255,98,134906,1,2,0:0:0:0:
427,98,135000,5,10,0:0:0:0:
467,146,135093,1,0,0:0:0:0:
455,206,135187,1,2,0:0:0:0:
407,238,135281,1,0,0:0:0:0:
351,238,135375,2,0,L|403:238,1,45
443,238,135562,2,0,L|487:238,1,45,2|2,0:0|0:0,0:0:0:0:
367,314,135750,1,8,0:0:0:0:
309,302,135843,1,0,0:0:0:0:
276,254,135937,1,2,0:0:0:0:
286,196,136031,1,2,0:0:0:0:
423,198,136312,2,0,L|375:198,1,45,2|2,0:0|0:0,0:0:0:0:
255,198,136500,6,0,L|195:198,1,45,8|0,0:0|0:0,0:0:0:0:
163,198,136687,1,2,0:0:0:0:
210,198,136781,1,0,0:0:0:0:
255,198,136875,2,0,L|347:198,1,90,2|2,0:0|0:0,0:0:0:0:
291,198,137156,1,0,0:0:0:0:
171,198,137250,2,0,L|75:198,1,90,8|8,0:0|0:0,0:0:0:0:
271,198,137625,2,0,L|275:102,1,90,8|8,0:0|0:0,0:0:0:0:
23,106,138000,5,8,0:0:0:0:
22,161,138093,1,0,0:0:0:0:
46,212,138187,1,2,0:0:0:0:
89,247,138281,1,2,0:0:0:0:
143,262,138375,1,2,0:0:0:0:
251,262,138562,2,0,L|207:262,1,45,2|0,0:0|0:0,0:0:0:0:
83,250,138750,1,8,0:0:0:0:
59,287,138843,1,0,0:0:0:0:
56,331,138937,1,2,0:0:0:0:
76,371,139031,1,2,0:0:0:0:
211,370,139312,2,0,L|255:370,1,45
379,370,139500,6,0,L|427:370,1,45,8|0,0:0|0:0,0:0:0:0:
479,334,139687,2,0,L|483:274,1,45,2|0,0:0|0:0,0:0:0:0:
423,250,139875,2,0,L|375:250,1,45,2|2,0:0|0:0,0:0:0:0:
323,206,140062,2,0,L|319:146,1,45,2|0,0:0|0:0,0:0:0:0:
443,162,140250,2,0,L|487:162,2,45,8|0|2,0:0|0:0|0:0,0:0:0:0:
387,162,140531,1,2,0:0:0:0:
251,162,140812,1,2,0:0:0:0:
307,162,140906,1,0,0:0:0:0:
135,162,141000,6,0,L|71:162,2,45,8|2|2,0:0|0:0|0:0,0:0:0:0:
191,162,141281,2,0,L|287:162,1,90
236,162,141562,2,0,L|191:162,1,45,2|0,0:0|0:0,0:0:0:0:
315,162,141750,1,8,0:0:0:0:
364,131,141843,1,0,0:0:0:0:
365,74,141937,1,2,0:0:0:0:
317,42,142031,1,2,0:0:0:0:
172,40,142312,1,8,0:0:0:0:
380,40,142500,6,0,L|332:40,1,45,8|0,0:0|0:0,0:0:0:0:
334,40,142687,2,0,L|384:40,1,45,2|2,0:0|0:0,0:0:0:0:
436,40,142875,1,2,0:0:0:0:
481,76,142968,1,0,0:0:0:0:
481,134,143062,1,0,0:0:0:0:
437,171,143156,1,0,0:0:0:0:
272,172,143250,1,8,0:0:0:0:
236,172,143437,1,8,0:0:0:0:
312,172,143625,1,8,0:0:0:0:
424,172,143812,1,8,0:0:0:0:
132,172,144000,6,0,B|132:264|132:264|220:264,1,180,6|0,0:0|3:0,0:0:0:0:
310,264,144562,1,0,3:0:0:0:
496,264,144750,2,0,L|500:172,1,90,8|0,0:0|0:0,0:0:0:0:
312,176,145125,2,0,P|256:128|312:56,1,180,2|0,3:2|0:0,0:0:0:0:
412,56,145687,5,0,3:0:0:0:
316,56,145875,2,0,L|224:56,1,90,0|0,3:0|0:0,0:0:0:0:
40,56,146250,2,0,L|44:152,1,90,8|0,0:0|0:0,0:0:0:0:
172,136,146625,1,2,3:2:0:0:
100,136,146812,1,0,3:0:0:0:
200,136,146906,1,0,3:0:0:0:
301,137,147000,5,0,3:0:0:0:
335,184,147093,1,0,0:0:0:0:
324,241,147187,1,0,0:0:0:0:
274,272,147281,1,0,0:0:0:0:
209,273,147375,1,0,3:0:0:0:
329,273,147562,1,0,3:0:0:0:
145,273,147750,2,0,L|141:161,1,90,8|0,0:0|0:0,0:0:0:0:
325,185,148125,2,0,B|369:185|369:185|369:137,1,90,2|0,3:2|0:0,0:0:0:0:
313,141,148406,1,0,0:0:0:0:
257,141,148500,6,0,L|253:85,1,45
313,141,148687,2,0,L|317:93,1,45,0|0,3:0|0:0,0:0:0:0:
253,96,148875,2,0,L|153:96,1,90,0|0,3:0|0:0,0:0:0:0:
349,96,149250,2,0,L|353:1,1,90,8|0,0:0|0:0,0:0:0:0:
245,5,149625,1,0,3:0:0:0:
425,5,149812,1,2,3:2:0:0:
325,5,149906,1,0,3:0:0:0:
153,9,150000,5,2,3:2:0:0:
97,29,150093,1,0,0:0:0:0:
96,85,150187,1,0,0:0:0:0:
152,105,150281,1,0,0:0:0:0:
273,105,150375,1,0,0:0:0:0:
173,105,150562,1,0,3:0:0:0:
357,105,150750,2,0,L|448:104,1,90,8|0,0:0|0:0,0:0:0:0:
316,192,151125,2,0,L|200:192,1,90,2|0,3:2|0:0,0:0:0:0:
172,192,151406,1,0,0:0:0:0:
172,192,151500,5,0,3:0:0:0:
280,192,151687,2,0,L|352:136,2,90,0|0|0,3:0|0:0|3:0,0:0:0:0:
92,192,152250,2,0,L|88:296,1,90,8|0,0:0|0:0,0:0:0:0:
272,280,152625,1,2,3:2:0:0:
184,280,152812,1,0,3:0:0:0:
284,280,152906,1,0,3:0:0:0:
384,280,153000,6,0,L|292:280,1,90,2|0,3:2|3:2,0:0:0:0:
464,192,153375,2,0,L|372:192,1,90,2|0,3:2|3:2,0:0:0:0:
192,280,153750,1,8,3:2:0:0:
356,280,153937,1,0,3:2:0:0:
176,280,154125,1,2,3:2:0:0:
372,280,154312,1,0,3:2:0:0:
120,280,154500,6,0,L|72:280,1,45,8|0,3:2|3:2,3:3:0:0:
136,192,154687,2,0,L|184:192,1,45,2|0,3:2|3:2,3:3:0:0:
304,192,154875,2,0,L|256:192,1,45,8|0,3:2|3:2,3:3:0:0:
196,104,155062,2,0,L|244:104,1,45,2|0,3:2|3:2,3:3:0:0:
404,104,155250,1,8,3:2:0:0:
300,104,155437,1,2,0:0:0:0:
300,104,155625,1,2,0:0:0:0:
404,104,155812,1,2,0:0:0:0:
120,104,156000,5,6,0:0:0:0:
32,136,156187,1,0,0:0:0:0:
32,228,156375,1,0,0:0:0:0:
116,272,156562,1,2,0:0:0:0:
368,272,156750,2,0,L|272:272,1,90,8|0,0:0|0:0,0:0:0:0:
96,228,157125,2,0,L|188:228,2,90,2|2|0,0:0|0:0|0:0,0:0:0:0:
212,228,157687,5,2,0:0:0:0:
24,228,157875,2,0,L|20:124,1,90,2|0,0:0|0:0,0:0:0:0:
215,138,158250,2,0,L|211:227,1,90,8|0,0:0|0:0,0:0:0:0:
24,228,158625,2,0,L|106:263,1,90,2|0,0:0|0:0,0:0:0:0:
368,264,159000,5,2,0:0:0:0:
260,264,159187,1,0,0:0:0:0:
388,264,159375,1,2,0:0:0:0:
208,264,159562,1,2,0:0:0:0:
476,264,159750,2,0,L|480:160,1,90,8|0,0:0|0:0,0:0:0:0:
372,176,160125,1,2,0:0:0:0:
264,176,160312,1,2,0:0:0:0:
84,176,160500,6,0,L|180:176,1,90,0|2,0:0|0:0,0:0:0:0:
372,176,160875,2,0,L|374:86,1,90,2|0,0:0|0:0,0:0:0:0:
84,176,161250,2,0,L|76:280,1,90,8|0,0:0|0:0,0:0:0:0:
264,264,161625,2,0,L|368:264,1,90,2|2,0:0|0:0,0:0:0:0:
77,265,162000,5,2,0:0:0:0:
72,163,162187,1,0,0:0:0:0:
134,81,162375,1,2,0:0:0:0:
234,58,162562,1,2,0:0:0:0:
485,57,162750,2,0,L|392:56,1,90,8|0,0:0|0:0,0:0:0:0:
212,60,163125,1,2,0:0:0:0:
318,58,163312,1,2,0:0:0:0:
136,60,163500,6,0,L|132:160,1,90,0|2,0:0|0:0,0:0:0:0:
316,148,163875,2,0,L|224:148,1,90,2|0,0:0|0:0,0:0:0:0:
480,240,164250,2,0,L|487:139,1,90,8|0,0:0|0:0,0:0:0:0:
376,148,164625,2,0,L|468:148,1,90,2|0,0:0|0:0,0:0:0:0:
196,148,165000,6,0,L|192:272,1,90,2|0,0:0|0:0,0:0:0:0:
374,240,165375,1,2,0:0:0:0:
182,240,165562,1,2,0:0:0:0:
436,240,165750,1,8,0:0:0:0:
264,240,165937,1,0,0:0:0:0:
92,240,166125,1,2,0:0:0:0:
280,240,166312,1,2,0:0:0:0:
20,240,166500,5,0,0:0:0:0:
40,132,166687,1,2,0:0:0:0:
132,72,166875,1,2,0:0:0:0:
256,72,167062,1,0,0:0:0:0:
68,72,167250,1,8,0:0:0:0:
176,72,167437,1,2,0:0:0:0:
176,72,167625,1,2,0:0:0:0:
68,72,167812,1,2,0:0:0:0:
362,72,168000,6,0,L|454:72,2,90,6|0|2,0:0|0:0|0:0,0:0:0:0:
176,72,168562,1,2,0:0:0:0:
438,72,168750,2,0,L|348:72,1,90,8|0,0:0|0:0,0:0:0:0:
458,72,169125,1,2,0:0:0:0:
276,72,169312,1,2,0:0:0:0:
384,72,169500,5,0,0:0:0:0:
208,72,169687,1,2,0:0:0:0:
32,72,169875,2,0,L|28:176,1,90,2|2,0:0|0:0,0:0:0:0:
280,160,170250,2,0,L|180:160,1,90,8|0,0:0|0:0,0:0:0:0:
360,160,170625,2,0,L|456:160,1,90,2|0,0:0|0:0,0:0:0:0:
180,160,171000,5,2,0:0:0:0:
72,160,171187,1,0,0:0:0:0:
180,160,171375,1,2,0:0:0:0:
360,160,171562,1,2,0:0:0:0:
104,160,171750,1,8,0:0:0:0:
212,160,171937,1,0,0:0:0:0:
320,160,172125,1,2,0:0:0:0:
140,160,172312,1,2,0:0:0:0:
412,160,172500,5,0,0:0:0:0:
232,160,172687,1,2,0:0:0:0:
418,160,172875,2,0,L|422:60,1,90,2|0,0:0|0:0,0:0:0:0:
144,72,173250,2,0,L|44:72,1,90,8|0,0:0|0:0,0:0:0:0:
244,160,173625,1,2,0:0:0:0:
64,160,173812,1,2,0:0:0:0:
344,160,174000,6,0,L|436:160,2,90,2|0|2,0:0|0:0|0:0,0:0:0:0:
164,160,174562,1,2,0:0:0:0:
416,244,174750,2,0,L|320:244,2,90,8|0|2,0:0|0:0|0:0,0:0:0:0:
236,244,175312,1,2,0:0:0:0:
128,244,175500,5,0,0:0:0:0:
304,244,175687,1,2,0:0:0:0:
120,244,175875,2,0,L|28:244,1,90,2|2,0:0|0:0,0:0:0:0:
284,156,176250,2,0,L|184:156,1,90,8|0,0:0|0:0,0:0:0:0:
368,156,176625,2,0,L|460:156,1,90,2|0,0:0|0:0,0:0:0:0:
168,156,177000,6,0,L|72:156,1,90,2|0,0:0|0:0,0:0:0:0:
332,156,177375,1,2,0:0:0:0:
152,156,177562,1,2,0:0:0:0:
404,156,177750,1,8,0:0:0:0:
504,156,177937,1,0,0:0:0:0:
504,256,178125,1,2,0:0:0:0:
404,256,178312,1,2,0:0:0:0:
132,256,178500,6,0,L|28:256,1,90,8|0,0:0|0:0,0:0:0:0:
228,256,178875,2,0,L|328:256,1,90,8|0,0:0|0:0,0:0:0:0:
132,256,179250,1,8,0:0:0:0:
232,256,179437,1,2,0:0:0:0:
332,256,179625,1,2,0:0:0:0:
216,256,179812,1,2,0:0:0:0:
488,256,180000,5,2,0:0:0:0:
344,256,180375,1,0,3:0:0:0:
444,256,180562,1,0,3:0:0:0:
264,256,180750,2,0,B|168:256,1,90,8|0,0:0|0:0,0:0:0:0:
272,256,181125,1,0,3:0:0:0:
92,256,181312,1,0,3:0:0:0:
184,256,181500,5,2,0:0:0:0:
226,215,181593,1,2,0:0:0:0:
226,157,181687,1,2,0:0:0:0:
184,116,181781,1,0,0:0:0:0:
132,116,181875,2,0,L|236:116,1,90,0|0,3:0|3:0,0:0:0:0:
404,116,182250,1,8,0:0:0:0:
504,116,182437,1,0,3:0:0:0:
396,116,182625,1,0,3:0:0:0:
496,116,182812,1,0,3:0:0:0:
240,116,183000,6,0,L|236:72,1,45,2|0,0:0|0:0,0:0:0:0:
308,72,183187,2,0,L|312:120,1,45,2|2,0:0|0:0,0:0:0:0:
240,116,183375,2,2,L|144:116,1,90,2|0,0:0|3:0,0:0:0:0:
332,116,183750,2,0,L|428:116,1,90,8|0,0:0|0:0,0:0:0:0:
312,116,184125,1,0,3:0:0:0:
492,116,184312,1,0,3:0:0:0:
384,116,184500,5,2,0:0:0:0:
384,168,184593,1,2,0:0:0:0:
420,212,184687,1,2,0:0:0:0:
476,212,184781,1,0,0:0:0:0:
420,212,184875,2,0,L|324:212,1,90,0|0,3:0|3:0,3:0:0:0:
150,212,185250,1,8,0:0:0:0:
240,212,185437,1,2,0:0:0:0:
330,212,185625,1,2,0:0:0:0:
420,212,185812,1,2,0:0:0:0:
132,212,186000,6,0,P|144:268|200:320,1,135,4|0,0:0|0:0,0:0:0:0:
364,320,186375,2,0,L|456:320,1,90,8|0,0:0|0:0,0:0:0:0:
272,320,186750,2,0,L|176:320,1,90,8|0,0:0|0:0,0:0:0:0:
292,320,187125,1,0,0:0:0:0:
112,320,187312,1,0,0:0:0:0:
20,320,187500,5,8,3:2:0:0:
20,320,187687,1,0,3:0:0:0:
128,320,187875,1,0,3:0:0:0:
20,320,188062,1,0,0:0:0:0:
204,320,188250,2,0,L|208:220,1,90,8|0,0:0|0:0,0:0:0:0:
100,228,188625,1,2,3:2:0:0:
192,228,188812,1,0,3:0:0:0:
100,228,188906,1,0,3:0:0:0:
10,228,189000,6,0,L|100:228,2,90,2|0|0,3:2|3:0|0:0,0:0:0:0:
116,228,189562,1,0,3:0:0:0:
300,228,189750,2,0,L|304:128,1,90,8|0,0:0|0:0,0:0:0:0:
192,140,190125,2,0,L|188:48,1,90,2|0,3:2|3:0,0:0:0:0:
372,52,190500,6,0,L|316:52,1,45,8|0,3:2|3:2,3:3:0:0:
272,52,190687,2,0,L|316:52,1,45,2|0,3:2|3:2,3:3:0:0:
436,132,190875,2,0,L|480:132,1,45,8|0,3:2|3:2,3:3:0:0:
416,132,191062,2,0,L|371:132,1,45,2|0,3:2|3:2,3:3:0:0:
208,132,191250,1,8,3:2:0:0:
100,132,191437,1,2,0:0:0:0:
208,132,191625,1,2,0:0:0:0:
28,132,191812,1,2,0:0:0:0:
256,192,192000,12,0,198187,0:0:0:0:
