osu file format v14

[General]
AudioFilename: audio.mp3
AudioLeadIn: 0
PreviewTime: 35156
Countdown: 0
SampleSet: Soft
StackLeniency: 0.7
Mode: 2
LetterboxInBreaks: 0
WidescreenStoryboard: 1

[Editor]
Bookmarks: 12000,36000,60000,72000,84000,90000,114000,120000,144000,156000,180000,192000
DistanceSpacing: 1.4
BeatDivisor: 4
GridSize: 4
TimelineZoom: 1

[Metadata]
Title:pursuit of happiness
TitleUnicode:pursuit of happiness
Artist:dark cat
ArtistUnicode:dark cat
Creator:Ascendance
Version:hyperion & benita's platter
Source:osu!
Tags:jbh jbhyperion benita bennybananas benny- wonjae paranoid grapes catstep mapper's mappers' guild mapper mappers featured artist mg electronic instrumental Finite EP
BeatmapID:2242388
BeatmapSetID:1071294

[Difficulty]
HPDrainRate:5
CircleSize:3.2
OverallDifficulty:7.5
ApproachRate:7.5
SliderMultiplier:1.6
SliderTickRate:2

[Events]
//Background and Video events
0,0,"water-1245677_1920.jpg",0,0
//Break Periods
//Storyboard Layer 0 (Background)
//Storyboard Layer 1 (Fail)
//Storyboard Layer 2 (Pass)
//Storyboard Layer 3 (Foreground)
//Storyboard Layer 4 (Overlay)
//Storyboard Sound Samples

[TimingPoints]
0,375,4,2,1,40,1,0
8812,-100,4,2,1,10,0,0
9000,-100,4,2,1,15,0,0
9375,-100,4,2,1,20,0,0
9750,-100,4,2,1,25,0,0
10125,-100,4,2,1,30,0,0
10500,-100,4,2,1,35,0,0
10875,-100,4,2,1,40,0,0
11250,-100,4,2,1,45,0,0
11625,-100,4,2,1,5,0,0
11812,-100,4,2,1,70,0,0
12000,-100,4,2,1,50,0,0
21000,-100,4,2,1,10,0,0
21378,-100,4,2,1,15,0,0
21750,-100,4,2,1,20,0,0
22128,-100,4,2,1,25,0,0
22500,-100,4,2,1,30,0,0
22878,-100,4,2,1,35,0,0
23250,-100,4,2,1,40,0,0
23628,-100,4,2,1,45,0,0
24000,-100,4,2,2,70,0,0
27187,-100,4,2,1,70,0,0
27468,-100,4,2,2,70,0,0
28312,-100,4,2,1,70,0,0
28593,-100,4,2,2,70,0,0
30375,-100,4,2,1,70,0,0
30562,-100,4,2,2,70,0,0
31500,-100,4,2,1,70,0,0
31687,-100,4,2,2,70,0,0
31875,-100,4,2,1,70,0,0
32062,-100,4,2,2,70,0,0
35437,-100,4,2,2,60,0,0
35625,-100,4,2,2,50,0,0
35812,-100,4,2,2,40,0,0
36000,-100,4,2,3,80,0,1
47250,-100,4,2,3,80,0,0
47437,-100,4,2,3,65,0,0
47625,-100,4,2,3,50,0,0
47812,-100,4,2,3,35,0,0
48000,-100,4,2,3,80,0,1
58875,-100,4,2,3,70,0,1
59250,-100,4,2,3,60,0,1
59437,-100,4,2,3,50,0,1
59625,-100,4,2,3,40,0,1
59812,-100,4,2,3,30,0,1
60000,-100,4,2,2,70,0,0
63000,-100,4,2,1,70,0,0
63281,-100,4,2,2,70,0,0
64500,-100,4,2,1,70,0,0
64781,-100,4,2,2,70,0,0
65437,-100,4,2,2,55,0,0
65625,-100,4,2,2,40,0,0
65812,-100,4,2,3,25,0,0
66000,-100,4,2,3,70,0,0
66750,-100,4,2,2,70,0,0
71437,-100,4,2,2,60,0,0
71625,-100,4,2,2,50,0,0
71812,-100,4,2,2,40,0,0
72000,-100,4,2,1,70,0,0
78187,-100,4,2,77,80,0,0
78375,-100,4,2,1,70,0,0
83437,-100,4,2,2,60,0,0
83625,-100,4,2,2,50,0,0
83812,-100,4,2,2,40,0,0
84000,-100,4,2,2,70,0,0
84187,-100,4,2,1,70,0,0
84562,-100,4,2,2,70,0,0
89437,-100,4,2,2,60,0,0
89625,-100,4,2,2,50,0,0
89812,-100,4,2,2,40,0,0
90000,-133.333333333333,4,2,2,70,0,0
91125,-133.333333333333,4,2,1,70,0,0
92250,-133.333333333333,4,2,2,70,0,0
93000,-133.333333333333,4,2,1,70,0,0
93375,-133.333333333333,4,2,2,70,0,0
94125,-133.333333333333,4,2,1,70,0,0
95250,-133.333333333333,4,2,2,70,0,0
97125,-133.333333333333,4,2,1,70,0,0
98250,-133.333333333333,4,2,2,70,0,0
99000,-133.333333333333,4,2,1,70,0,0
99375,-133.333333333333,4,2,2,70,0,0
100125,-133.333333333333,4,2,1,70,0,0
101250,-133.333333333333,4,2,2,70,0,0
102000,-114.942528735632,4,2,2,70,0,0
103125,-114.942528735632,4,2,1,70,0,0
104250,-114.942528735632,4,2,2,70,0,0
105000,-114.942528735632,4,2,1,70,0,0
105375,-114.942528735632,4,2,2,70,0,0
106125,-114.942528735632,4,2,1,70,0,0
107250,-114.942528735632,4,2,2,70,0,0
109125,-114.942528735632,4,2,1,70,0,0
110250,-114.942528735632,4,2,2,70,0,0
111000,-114.942528735632,4,2,1,70,0,0
111375,-114.942528735632,4,2,2,70,0,0
112125,-114.942528735632,4,2,1,70,0,0
113437,-114.942528735632,4,2,2,60,0,0
113625,-114.942528735632,4,2,2,50,0,0
113812,-114.942528735632,4,2,2,40,0,0
114000,-114.942528735632,4,2,3,70,0,0
114375,-114.942528735632,4,2,3,60,0,0
114562,-114.942528735632,4,2,2,70,0,0
119437,-114.942528735632,4,2,2,60,0,0
119625,-114.942528735632,4,2,2,50,0,0
119812,-114.942528735632,4,2,2,40,0,0
120000,-114.942528735632,4,2,1,60,0,0
125437,-114.942528735632,4,2,1,50,0,0
125625,-114.942528735632,4,2,1,40,0,0
125812,-114.942528735632,4,2,1,30,0,0
126000,-114.942528735632,4,2,1,60,0,0
131437,-114.942528735632,4,2,1,50,0,0
131625,-114.942528735632,4,2,1,40,0,0
131812,-114.942528735632,4,2,1,30,0,0
132000,-114.942528735632,4,2,1,65,0,0
132750,-114.942528735632,4,2,2,65,0,0
132937,-114.942528735632,4,2,1,65,0,0
134250,-114.942528735632,4,2,2,65,0,0
134437,-114.942528735632,4,2,1,65,0,0
135750,-114.942528735632,4,2,2,65,0,0
135937,-114.942528735632,4,2,1,65,0,0
137250,-114.942528735632,4,2,2,65,0,0
137437,-114.942528735632,4,2,1,55,0,0
137625,-114.942528735632,4,2,1,45,0,0
137812,-114.942528735632,4,2,1,35,0,0
138000,-114.942528735632,4,2,1,65,0,0
138750,-114.942528735632,4,2,2,65,0,0
138937,-114.942528735632,4,2,1,65,0,0
140250,-114.942528735632,4,2,2,65,0,0
140437,-114.942528735632,4,2,1,65,0,0
141750,-114.942528735632,4,2,2,65,0,0
141937,-114.942528735632,4,2,1,65,0,0
143250,-100,4,2,2,65,0,0
143437,-100,4,2,1,55,0,0
143625,-100,4,2,1,45,0,0
143812,-100,4,2,1,35,0,0
144000,-100,4,2,2,70,0,0
155437,-100,4,2,2,60,0,0
155625,-100,4,2,2,50,0,0
155812,-100,4,2,2,40,0,0
156000,-100,4,2,3,80,0,1
167250,-100,4,2,3,80,0,0
167437,-100,4,2,3,65,0,0
167625,-100,4,2,3,50,0,0
167812,-100,4,2,3,35,0,0
168000,-100,4,2,3,80,0,1
178875,-100,4,2,3,70,0,1
179250,-100,4,2,3,60,0,1
179437,-100,4,2,3,50,0,1
179625,-100,4,2,3,40,0,1
179812,-100,4,2,3,30,0,1
180000,-100,4,2,2,70,0,0
181500,-100,4,2,1,70,0,0
181781,-100,4,2,2,70,0,0
183000,-100,4,2,1,70,0,0
183562,-100,4,2,2,70,0,0
184500,-100,4,2,1,70,0,0
184781,-100,4,2,2,70,0,0
185437,-100,4,2,2,55,0,0
185625,-100,4,2,2,40,0,0
185812,-100,4,2,3,25,0,0
186000,-100,4,2,3,70,0,0
186750,-100,4,2,2,70,0,0
191437,-100,4,2,2,55,0,0
191625,-100,4,2,2,40,0,0
191812,-100,4,2,2,25,0,0
192000,-100,4,2,1,60,0,0
192750,-100,4,2,1,50,0,0
193500,-100,4,2,1,40,0,0
194250,-100,4,2,1,30,0,0
194437,-100,4,2,1,20,0,0
195000,-100,4,2,1,25,0,0
195750,-100,4,2,1,30,0,0
196500,-100,4,2,1,25,0,0
196875,-100,4,2,1,20,0,0
197250,-100,4,2,1,15,0,0
197625,-100,4,2,1,10,0,0
198000,-100,4,2,1,5,0,0

[Colours]
Combo1 : 33,183,191
Combo2 : 145,73,31
Combo3 : 30,182,93

[HitObjects]
256,192,8812,12,0,11250,0:0:0:0:
256,192,11812,5,8,0:0:0:0:
368,192,12000,2,0,L|372:32,1,160,8|0,0:0|0:0,0:0:0:0:
212,72,12750,2,0,L|208:164,1,80,2|0,0:0|0:0,0:0:0:0:
368,192,13312,6,0,P|392:264|352:336,1,160,2|0,0:0|0:0,0:0:0:0:
288,336,13875,1,0,0:0:0:0:
160,336,14250,2,0,L|156:236,1,80,2|0,0:0|0:0,0:0:0:0:
308,192,14812,1,0,0:0:0:0:
228,192,15000,6,0,L|172:132,2,80,2|0|0,0:0|0:0|0:0,0:0:0:0:
388,192,15750,2,0,L|392:104,1,80,2|0,0:0|0:0,0:0:0:0:
236,192,16312,1,0,0:0:0:0:
316,192,16500,6,0,B|396:192|396:192|392:108,1,160,2|0,0:0|0:0,0:0:0:0:
232,112,17250,2,0,L|148:112,1,80,2|0,0:0|0:0,0:0:0:0:
296,192,17812,5,8,0:0:0:0:
184,192,18000,2,0,B|104:192|104:192|104:280,1,160,8|0,0:0|0:0,0:0:0:0:
264,272,18750,2,0,L|260:192,1,80,2|0,0:0|0:0,0:0:0:0:
125,192,19312,6,0,L|265:272,1,160,2|0,0:0|0:0,0:0:0:0:
192,268,19875,1,0,0:0:0:0:
48,268,20250,2,0,L|44:352,1,80,2|0,0:0|0:0,0:0:0:0:
256,192,21000,12,10,23625,0:0:0:0:
360,192,24000,6,0,P|404:136|356:72,1,160,6|0,0:0|0:0,0:0:0:0:
272,76,24562,1,2,3:2:0:0:
96,76,24750,2,0,L|260:76,1,160,8|0,0:0|3:0,0:0:0:0:
256,76,25500,6,0,L|186:36,1,80,0|2,0:0|3:2,0:0:0:0:
268,76,25875,2,0,L|198:36,1,80,0|0,3:0|0:0,0:0:0:0:
376,36,26250,2,0,B|376:116|376:116|292:116,1,160,8|2,0:0|3:2,0:0:0:0:
200,116,26812,1,2,3:2:0:0:
248,116,26906,1,2,3:2:0:0:
296,116,27000,6,0,P|348:172|296:216,1,160,0|2,3:0|0:0,0:0:0:0:
204,216,27562,1,2,3:2:0:0:
384,216,27750,2,0,L|224:192,1,160,8|0,0:0|3:0,0:0:0:0:
225,192,28500,6,0,L|308:192,2,80,2|2|0,0:0|3:2|3:0,0:0:0:0:
144,192,29062,1,0,0:0:0:0:
320,192,29250,2,0,B|320:272|320:272|240:272,1,160,8|0,0:0|3:0,0:0:0:0:
336,272,29812,1,2,0:0:0:0:
144,272,30000,6,0,L|140:184,1,80,2|0,0:0|0:0,0:0:0:0:
228,192,30375,1,2,0:0:0:0:
148,192,30562,1,2,3:2:0:0:
324,192,30750,2,0,L|328:16,1,160,8|0,0:0|3:0,0:0:0:0:
327,32,31500,5,2,0:0:0:0:
248,32,31687,1,0,3:0:0:0:
327,32,31875,1,2,0:0:0:0:
408,32,32062,1,0,0:0:0:0:
228,32,32250,2,0,P|184:88|228:152,1,160,10|0,3:2|3:2,0:0:0:0:
324,152,32812,1,0,3:0:0:0:
372,152,32906,1,0,3:0:0:0:
420,152,33000,6,0,L|424:252,1,80,2|0,3:2|0:0,0:0:0:0:
320,232,33375,2,0,L|316:312,1,80,0|0,3:0|0:0,0:0:0:0:
132,312,33750,2,0,L|128:224,1,80,8|0,3:2|0:0,0:0:0:0:
232,232,34125,2,0,L|140:232,1,80,0|0,3:0|0:0,0:0:0:0:
336,232,34500,6,0,L|344:176,2,40,8|0|2,3:2|3:2|3:2,0:0:0:0:
144,136,34875,1,8,3:2:0:0:
96,136,34968,1,0,3:2:0:0:
48,136,35062,1,2,3:2:0:0:
240,136,35250,1,8,3:2:0:0:
144,136,35437,1,2,0:0:0:0:
88,136,35625,1,2,0:0:0:0:
72,136,35812,1,2,0:0:0:0:
340,136,36000,6,0,L|444:136,2,80,6|0|0,0:0|0:0|0:0,0:0:0:0:
228,136,36562,1,2,0:0:0:0:
420,136,36750,2,0,B|496:112,2,80,8|0|0,0:0|0:0|0:0,0:0:0:0:
324,136,37312,1,2,0:0:0:0:
144,136,37500,6,0,L|140:52,1,80,0|2,0:0|0:0,0:0:0:0:
252,56,37875,2,0,L|256:136,1,80,2|0,0:0|0:0,0:0:0:0:
64,136,38250,2,0,L|152:136,1,80,8|0,0:0|0:0,0:0:0:0:
240,136,38625,1,0,0:0:0:0:
128,136,38812,1,0,0:0:0:0:
316,136,39000,6,0,L|320:52,1,80,2|0,0:0|0:0,0:0:0:0:
132,56,39375,2,0,L|136:144,1,80,0|2,0:0|0:0,0:0:0:0:
400,136,39750,1,8,0:0:0:0:
488,136,39937,1,0,0:0:0:0:
488,224,40125,1,0,0:0:0:0:
400,228,40312,1,2,0:0:0:0:
216,228,40500,6,0,L|144:192,1,80,0|2,0:0|0:0,0:0:0:0:
244,228,40875,2,0,L|316:192,1,80,2|0,0:0|0:0,0:0:0:0:
136,192,41250,2,0,L|216:192,1,80,8|0,0:0|0:0,0:0:0:0:
312,192,41625,1,0,0:0:0:0:
216,192,41812,1,0,0:0:0:0:
408,192,42000,5,2,0:0:0:0:
400,96,42187,1,0,0:0:0:0:
332,28,42375,1,0,0:0:0:0:
236,28,42562,1,2,0:0:0:0:
428,28,42750,2,0,L|432:120,1,80,8|0,0:0|0:0,0:0:0:0:
336,108,43125,1,0,0:0:0:0:
432,108,43312,1,2,0:0:0:0:
248,108,43500,6,0,L|168:108,1,80,0|2,0:0|0:0,0:0:0:0:
256,192,43875,2,0,L|176:192,1,80,2|0,0:0|0:0,0:0:0:0:
368,192,44250,2,0,L|372:288,1,80,8|0,0:0|0:0,0:0:0:0:
268,272,44625,2,0,L|352:272,1,80
160,272,45000,5,2,0:0:0:0:
168,168,45187,1,0,0:0:0:0:
272,168,45375,1,0,0:0:0:0:
160,168,45562,1,2,0:0:0:0:
424,168,45750,2,0,L|504:168,2,80,8|0|0,0:0|0:0|0:0,0:0:0:0:
248,168,46312,1,2,0:0:0:0:
428,84,46500,5,2,0:0:0:0:
348,84,46687,1,2,0:0:0:0:
436,84,46875,2,0,L|440:180,1,80,2|0,0:0|0:0,0:0:0:0:
248,168,47250,1,8,0:0:0:0:
248,168,47437,1,2,0:0:0:0:
344,168,47625,1,2,0:0:0:0:
440,168,47812,1,2,0:0:0:0:
176,168,48000,6,0,L|72:168,2,80,6|0|0,0:0|0:0|0:0,0:0:0:0:
288,168,48562,1,2,0:0:0:0:
96,168,48750,2,0,B|176:168,1,80,8|0,0:0|0:0,0:0:0:0:
280,168,49125,2,0,L|284:88,1,80,0|2,0:0|0:0,0:0:0:0:
188,88,49500,5,0,0:0:0:0:
292,88,49687,2,0,L|372:88,2,80,2|2|0,0:0|0:0|0:0,0:0:0:0:
476,168,50250,2,0,L|388:168,1,80,8|0,0:0|0:0,0:0:0:0:
296,168,50625,1,0,0:0:0:0:
408,168,50812,1,0,0:0:0:0:
200,168,51000,5,2,0:0:0:0:
208,272,51187,1,0,0:0:0:0:
312,272,51375,1,0,0:0:0:0:
200,272,51562,1,2,0:0:0:0:
464,272,51750,2,0,L|380:272,1,80,8|0,0:0|0:0,0:0:0:0:
200,272,52125,2,0,L|280:272,1,80,0|2,0:0|0:0,0:0:0:0:
376,272,52500,6,0,L|296:272,2,80,0|2|2,0:0|0:0|0:0,0:0:0:0:
280,272,53062,1,0,0:0:0:0:
472,268,53250,2,0,L|476:180,1,80,8|0,0:0|0:0,0:0:0:0:
380,188,53625,1,0,0:0:0:0:
488,188,53812,1,0,0:0:0:0:
300,188,54000,6,0,L|216:188,2,80,2|0|0,0:0|0:0|0:0,0:0:0:0:
396,188,54562,1,2,0:0:0:0:
208,188,54750,2,0,L|204:96,1,80,8|0,0:0|0:0,0:0:0:0:
304,108,55125,1,0,0:0:0:0:
404,108,55312,1,2,0:0:0:0:
223,108,55500,6,0,L|219:204,1,80,0|2,0:0|0:0,0:0:0:0:
320,192,55875,2,0,L|324:280,1,80,2|0,0:0|0:0,0:0:0:0:
136,272,56250,2,0,L|52:272,1,80,8|0,0:0|0:0,0:0:0:0:
160,272,56625,2,0,L|240:272,1,80
44,272,57000,6,0,L|40:164,1,80,2|0,0:0|0:0,0:0:0:0:
144,192,57375,1,0,0:0:0:0:
32,192,57562,1,2,0:0:0:0:
352,232,57750,1,8,0:0:0:0:
436,208,57937,1,0,0:0:0:0:
452,120,58125,1,0,0:0:0:0:
384,64,58312,1,0,0:0:0:0:
192,64,58500,6,0,L|104:64,1,80,10|0,0:0|0:0,0:0:0:0:
304,64,58875,2,0,L|308:160,1,80,8|0,0:0|0:0,0:0:0:0:
196,144,59250,1,2,0:0:0:0:
300,144,59437,1,2,0:0:0:0:
300,144,59625,1,2,0:0:0:0:
188,144,59812,1,2,0:0:0:0:
456,144,60000,5,6,0:0:0:0:
360,144,60375,2,0,L|356:60,1,80,0|0,0:0|3:0,0:0:0:0:
176,64,60750,1,8,0:0:0:0:
280,64,61125,1,0,3:0:0:0:
168,64,61312,6,0,P|124:128|168:184,1,160
264,184,61875,2,0,L|176:184,1,80,0|0,3:0|3:0,0:0:0:0:
368,184,62250,1,8,0:0:0:0:
272,184,62437,2,0,L|268:272,2,80,0|0|0,3:0|3:0|3:0,0:0:0:0:
456,184,63000,6,0,B|456:264|456:264|376:264,1,160,2|0,0:0|3:0,0:0:0:0:
280,264,63562,1,0,0:0:0:0:
472,264,63750,2,0,L|312:264,1,160,8|0,0:0|3:0,0:0:0:0:
216,264,64312,1,0,0:0:0:0:
360,348,64875,6,0,L|268:348,1,80,0|0,3:0|0:0,0:0:0:0:
92,348,65250,1,8,0:0:0:0:
188,348,65437,1,2,0:0:0:0:
284,348,65625,1,2,0:0:0:0:
380,348,65812,1,2,0:0:0:0:
116,252,66000,6,0,L|111:86,1,160,4|8,0:0|0:0,0:0:0:0:
199,91,66562,1,0,3:0:0:0:
384,92,66750,1,8,0:0:0:0:
192,172,67125,2,0,L|196:252,1,80,0|0,3:0|0:0,0:0:0:0:
292,252,67500,5,2,3:2:0:0:
368,192,67687,1,0,3:0:0:0:
292,132,67875,1,0,3:0:0:0:
196,132,68062,1,0,0:0:0:0:
380,132,68250,1,8,0:0:0:0:
284,132,68437,2,0,L|276:44,1,80,0|0,3:0|3:0,0:0:0:0:
372,52,68812,1,2,3:2:0:0:
420,52,68906,1,2,3:2:0:0:
468,52,69000,6,0,L|372:52,2,80,2|0|0,3:2|0:0|3:0,0:0:0:0:
372,52,69562,1,0,3:0:0:0:
188,52,69750,2,0,L|184:136,1,80,8|0,0:0|0:0,0:0:0:0:
280,132,70125,1,2,3:2:0:0:
376,132,70312,1,0,3:0:0:0:
192,132,70500,6,0,L|188:192,2,40,8|0|2,3:2|3:2|3:2,3:3:0:0:
392,132,70875,1,8,3:2:0:0:
388,191,70968,1,0,3:2:0:0:
384,251,71062,1,2,3:2:0:0:
120,252,71250,1,8,3:2:0:0:
120,252,71437,1,2,0:0:0:0:
232,252,71625,1,2,0:0:0:0:
344,252,71812,1,2,0:0:0:0:
80,252,72000,6,0,L|76:84,1,160,8|0,0:0|0:0,0:0:0:0:
224,324,72750,2,0,L|232:148,1,160,2|0,0:0|0:0,0:0:0:0:
416,164,73500,5,0,0:0:0:0:
331,187,73687,1,2,0:0:0:0:
295,266,73875,1,0,0:0:0:0:
332,345,74062,1,0,0:0:0:0:
416,367,74250,2,0,L|420:188,1,160,2|0,0:0|0:0,0:0:0:0:
308,208,74812,1,0,0:0:0:0:
196,204,75000,6,0,L|112:192,2,80,2|0|2,0:0|0:0|0:0,0:0:0:0:
356,204,75750,2,0,L|360:112,1,80,2|0,0:0|0:0,0:0:0:0:
296,60,76125,1,0,0:0:0:0:
200,60,76312,1,0,0:0:0:0:
312,60,76500,6,0,L|488:60,1,160,2|0,0:0|0:0,0:0:0:0:
280,60,77250,1,2,0:0:0:0:
376,60,77437,1,0,3:0:0:0:
424,60,77531,1,0,3:0:0:0:
376,60,77625,1,0,3:0:0:0:
196,60,77812,1,8,0:0:0:0:
388,60,78000,5,8,0:0:0:0:
388,60,78187,2,0,P|276:196|160:64,1,400,4|0,0:0|0:0,0:0:0:0:
160,63,79500,6,0,L|152:252,1,160
312,220,80250,2,0,L|320:380,1,160,2|0,0:0|0:0,0:0:0:0:
224,380,80812,1,0,0:0:0:0:
328,380,81000,6,0,L|416:380,2,80,0|2|0,0:0|0:0|0:0,0:0:0:0:
168,380,81750,2,0,L|164:280,1,80,2|0,0:0|0:0,0:0:0:0:
268,296,82125,2,0,L|272:200,1,80
160,216,82500,5,0,0:0:0:0:
256,216,82687,1,2,0:0:0:0:
256,120,82875,1,0,0:0:0:0:
160,120,83062,1,0,0:0:0:0:
344,120,83250,1,8,0:0:0:0:
440,120,83437,2,0,L|444:36,2,80,2|2|2,3:2|3:2|3:2,0:0:0:0:
172,120,84000,6,0,P|120:164|172:216,1,160,6|2,0:0|0:0,0:0:0:0:
268,216,84562,1,0,3:0:0:0:
172,216,84750,2,0,L|332:192,1,160,2|0,3:2|3:0,0:0:0:0:
168,192,85500,6,0,L|164:292,1,80,2|0,3:2|3:0,0:0:0:0:
332,272,86250,2,0,L|168:272,1,160,2|0,3:2|3:0,0:0:0:0:
268,272,86812,1,0,3:0:0:0:
220,272,86906,1,0,3:0:0:0:
172,272,87000,6,0,L|92:272,2,80,2|0|0,3:2|3:0|0:0,0:0:0:0:
268,272,87562,1,0,3:0:0:0:
156,272,87750,1,2,3:2:0:0:
60,272,87937,1,0,3:0:0:0:
60,176,88125,1,0,3:0:0:0:
156,176,88312,1,0,3:0:0:0:
344,176,88500,5,8,3:2:0:0:
392,176,88593,1,0,3:2:0:0:
344,176,88687,1,2,3:2:0:0:
296,176,88781,1,0,3:2:0:0:
352,176,88875,1,8,3:2:0:0:
408,176,88968,1,0,3:2:0:0:
344,176,89062,1,2,3:2:0:0:
80,176,89250,1,8,3:2:0:0:
92,176,89437,1,2,0:0:0:0:
172,176,89625,1,2,0:0:0:0:
296,176,89812,1,2,0:0:0:0:
104,176,90000,6,0,P|72:112|180:16,1,240.000009155274,2|8,0:0|0:0,0:0:0:0:
324,16,91125,2,0,L|84:16,1,240.000009155274,2|2,0:0|0:0,0:0:0:0:
372,16,92250,1,8,0:0:0:0:
180,24,93000,6,0,B|180:144|180:144|300:144,1,240.000009155274,2|8,0:0|0:0,0:0:0:0:
468,144,94125,2,0,P|480:224|456:380,1,240.000009155274,2|2,0:0|0:0,0:0:0:0:
172,380,95250,2,0,L|168:240,1,120.000004577637,8|2,0:0|0:0,0:0:0:0:
456,260,96000,6,0,L|224:192,1,240.000009155274,2|8,0:0|0:0,0:0:0:0:
392,192,97125,2,0,P|312:116|388:40,1,240.000009155274,2|2,0:0|0:0,0:0:0:0:
96,40,98250,1,8,0:0:0:0:
312,40,99000,6,0,P|324:100|312:156,1,120.000004577637,2|0,0:0|0:0,0:0:0:0:
228,156,99562,1,0,0:0:0:0:
60,156,99750,1,8,0:0:0:0:
196,272,100125,2,0,L|200:148,1,120.000004577637,2|0,0:0|0:0,0:0:0:0:
336,156,100875,1,2,0:0:0:0:
48,156,101250,1,8,0:0:0:0:
48,156,101625,1,2,0:0:0:0:
360,156,102000,6,0,L|80:156,1,278.400002336426,2|8,0:0|0:0,0:0:0:0:
276,156,103125,2,0,L|280:8,1,139.200001168213,2|0,0:0|0:0,0:0:0:0:
112,16,103875,1,2,0:0:0:0:
420,16,104250,1,8,0:0:0:0:
212,20,105000,6,0,P|196:88|212:156,1,139.200001168213,2|0,0:0|0:0,0:0:0:0:
304,156,105562,1,0,0:0:0:0:
472,156,105750,1,8,0:0:0:0:
320,156,106125,2,0,B|460:156|460:156|460:296,1,278.400002336426,2|2,0:0|0:0,0:0:0:0:
152,292,107250,2,0,L|148:152,1,139.200001168213,8|2,0:0|0:0,0:0:0:0:
460,152,108000,6,0,P|472:240|460:288,1,139.200001168213,2|0,0:0|0:0,0:0:0:0:
152,288,108750,1,8,0:0:0:0:
304,288,109125,2,0,L|308:144,1,139.200001168213,2|0,0:0|0:0,0:0:0:0:
156,148,109875,1,2,0:0:0:0:
464,148,110250,1,8,0:0:0:0:
465,78,110437,1,0,0:0:0:0:
467,8,110625,1,0,0:0:0:0:
160,12,111000,6,0,L|304:12,1,139.200001168213,2|0,0:0|0:0,0:0:0:0:
384,12,111562,1,0,0:0:0:0:
208,12,111750,1,8,0:0:0:0:
220,96,111937,1,0,0:0:0:0:
280,160,112125,1,2,0:0:0:0:
360,192,112312,1,0,0:0:0:0:
264,192,112500,6,0,L|344:192,1,69.6000005841065
416,192,112875,2,0,L|336:192,1,69.6000005841065,2|0,0:0|0:0,0:0:0:0:
444,192,113250,1,0,0:0:0:0:
360,192,113437,1,2,0:0:0:0:
360,108,113625,1,2,0:0:0:0:
444,108,113812,1,2,0:0:0:0:
193,149,114000,6,0,P|151:168|195:242,1,139.200001168213,12|8,0:0|0:0,0:0:0:0:
260,255,114562,1,0,0:0:0:0:
428,237,114750,2,0,L|276:220,1,139.200001168213,8|2,0:0|3:2,0:0:0:0:
399,163,115500,2,0,P|412:202|407:237,1,69.6000005841065,0|0,3:0|3:0,0:0:0:0:
308,264,115875,1,0,3:0:0:0:
401,311,116062,1,2,3:2:0:0:
234,331,116250,2,0,L|91:328,1,139.200001168213,8|2,0:0|3:2,3:3:0:0:
177,244,116812,6,0,L|187:205,2,34.8000002920532,0|0|2,3:0|3:0|3:2,0:0:0:0:
65,239,117187,2,0,P|36:219|74:128,1,139.200001168213,0|0,3:0|3:0,0:0:0:0:
227,140,117750,2,0,L|63:127,1,139.200001168213,8|2,0:0|3:2,0:0:0:0:
164,70,118312,1,0,3:0:0:0:
339,106,118500,2,0,L|345:181,1,69.6000005841065,8|2,3:2|3:2,3:3:0:0:
236,187,118875,2,0,L|228:267,1,69.6000005841065,8|2,3:2|3:2,3:3:0:0:
397,292,119250,1,8,0:0:0:0:
485,209,119437,1,2,0:0:0:0:
476,95,119625,1,2,0:0:0:0:
389,41,119812,1,2,0:0:0:0:
123,74,120000,6,0,P|79:92|131:268,1,278.400002336426,8|8,0:0|0:0,0:0:0:0:
369,303,121500,2,0,L|107:161,1,278.400002336426,8|10,0:0|0:0,0:0:0:0:
12,116,122625,1,2,0:0:0:0:
328,104,123000,6,0,P|472:97|514:31,2,208.800001752319,10|2|0,0:0|0:0|0:0,0:0:0:0:
104,148,124500,2,0,P|68:180|117:313,1,208.800001752319,10|2,0:0|0:0,0:0:0:0:
281,330,125250,1,8,0:0:0:0:
270,235,125437,1,8,0:0:0:0:
194,171,125625,1,8,0:0:0:0:
104,148,125812,1,8,0:0:0:0:
375,213,126000,6,0,P|456:192|499:83,1,208.800001752319,8|2,0:0|0:0,0:0:0:0:
416,44,126750,2,0,L|269:39,1,139.200001168213,10|2,0:0|0:0,0:0:0:0:
108,161,127500,2,0,P|215:161|296:100,1,208.800001752319,10|2,0:0|0:0,0:0:0:0:
212,79,128250,2,0,P|129:122|108:177,1,139.200001168213,10|2,0:0|0:0,0:0:0:0:
420,127,129000,6,0,P|456:152|416:290,1,208.800001752319,10|2,0:0|0:0,0:0:0:0:
339,287,129750,2,0,L|184:277,1,139.200001168213,10|2,0:0|0:0,0:0:0:0:
341,123,130500,2,0,L|117:93,1,208.800001752319,10|0,0:0|0:0,0:0:0:0:
302,215,131250,2,0,L|306:294,1,69.6000005841065,10|8,0:0|0:0,0:0:0:0:
195,318,131625,2,0,L|119:318,1,69.6000005841065,8|8,0:0|0:0,0:0:0:0:
408,330,132000,6,0,P|481:277|425:183,1,208.800001752319,8|2,0:0|0:0,0:0:0:0:
335,183,132750,2,0,P|326:116|331:94,1,69.6000005841065,8|0,0:0|0:0,0:0:0:0:
415,88,133125,1,2,0:0:0:0:
329,49,133312,1,0,0:0:0:0:
140,104,133500,6,0,P|108:139|199:237,1,208.800001752319,8|2,0:0|0:0,0:0:0:0:
322,234,134250,1,8,0:0:0:0:
411,175,134437,1,2,0:0:0:0:
410,77,134625,1,2,0:0:0:0:
325,31,134812,1,2,0:0:0:0:
136,164,135000,6,0,P|62:121|94:14,1,208.800001752319,10|2,0:0|0:0,0:0:0:0:
201,23,135750,1,8,0:0:0:0:
102,93,135937,2,0,P|93:131|92:175,1,69.6000005841065,2|0,0:0|0:0,0:0:0:0:
190,199,136312,1,2,0:0:0:0:
379,201,136500,6,0,P|414:181|365:49,1,208.800001752319,8|2,0:0|0:0,0:0:0:0:
269,61,137250,1,8,0:0:0:0:
366,163,137437,2,0,L|285:173,2,69.6000005841065,8|8|8,0:0|0:0|0:0,0:0:0:0:
183,289,138000,6,0,P|224:264|386:274,1,208.800001752319,8|2,0:0|0:0,0:0:0:0:
292,212,138750,1,8,0:0:0:0:
276,100,138937,1,2,0:0:0:0:
344,24,139125,1,0,0:0:0:0:
440,20,139312,1,0,0:0:0:0:
249,147,139500,6,0,P|197:145|36:188,1,208.800001752319,8|2,0:0|0:0,0:0:0:0:
119,231,140250,2,0,P|133:278|135:314,1,69.6000005841065,8|2,0:0|0:0,0:0:0:0:
28,302,140625,2,0,P|16:344|19:374,1,69.6000005841065,0|2,0:0|0:0,0:0:0:0:
207,372,141000,6,0,P|253:326|175:225,1,208.800001752319,8|2,0:0|0:0,0:0:0:0:
75,221,141750,2,0,P|55:179|52:140,2,69.6000005841065,8|2|0,0:0|0:0|0:0,0:0:0:0:
268,168,142312,1,8,0:0:0:0:
268,168,142500,1,8,0:0:0:0:
418,255,143250,5,8,0:0:0:0:
384,129,143437,1,8,0:0:0:0:
277,60,143625,1,8,0:0:0:0:
148,60,143812,1,8,0:0:0:0:
428,114,144000,6,0,P|468:144|421:233,1,160,6|0,0:0|3:0,0:0:0:0:
337,248,144562,1,0,3:0:0:0:
145,258,144750,2,0,P|102:227|129:134,1,160,8|2,0:0|3:2,0:0:0:0:
357,131,145500,6,0,L|370:45,1,80,0|0,0:0|3:0,0:0:0:0:
266,79,145875,2,0,L|261:-11,1,80,0|0,3:0|0:0,0:0:0:0:
454,43,146250,2,0,P|484:77|428:160,1,160,8|2,0:0|3:2,0:0:0:0:
264,166,146812,2,0,L|259:212,1,40,0|0,3:0|3:0,0:0:0:0:
332,224,147000,6,0,P|370:250|327:337,1,160,0|0,3:0|3:0,0:0:0:0:
248,332,147562,1,0,3:0:0:0:
56,235,147750,2,0,L|215:259,1,160,8|2,0:0|3:2,0:0:0:0:
410,256,148500,6,0,L|415:175,1,80,0|0,0:0|3:0,0:0:0:0:
333,149,148875,1,0,3:0:0:0:
422,129,149062,1,0,0:0:0:0:
229,132,149250,2,0,P|152:161|118:235,1,160,8|0,0:0|3:0,0:0:0:0:
186,294,149812,1,2,3:2:0:0:
449,311,150000,6,0,P|459:275|449:231,1,80,2|0,3:2|0:0,0:0:0:0:
366,224,150375,1,0,0:0:0:0:
280,212,150562,1,0,3:0:0:0:
473,161,150750,2,0,P|473:95|386:38,1,160,8|2,0:0|3:2,0:0:0:0:
47,164,151500,5,0,3:0:0:0:
68,265,151687,1,0,3:0:0:0:
152,328,151875,1,0,0:0:0:0:
263,334,152062,1,0,3:0:0:0:
71,211,152250,2,0,P|27:267|71:331,1,160,8|2,0:0|3:2,0:0:0:0:
211,323,152812,2,0,L|219:280,1,40,0|0,3:0|3:0,0:0:0:0:
146,255,153000,6,0,L|44:248,1,80,2|0,3:2|3:2,0:0:0:0:
202,183,153375,2,0,L|290:180,1,80,2|0,3:2|3:2,0:0:0:0:
164,86,153750,1,8,3:2:0:0:
277,52,153937,1,0,3:2:0:0:
84,158,154125,2,0,P|85:218|96:244,1,80,2|0,3:2|3:2,0:0:0:0:
310,273,154500,5,8,3:2:0:0:
348,264,154593,1,0,3:2:0:0:
377,237,154687,1,2,3:2:0:0:
391,199,154781,1,0,3:2:0:0:
389,159,154875,1,8,3:2:0:0:
366,130,154968,1,0,3:2:0:0:
327,110,155062,1,2,3:2:0:0:
32,138,155250,2,0,L|34:224,1,80,8|2,3:2|0:0,0:0:0:0:
121,269,155625,1,2,0:0:0:0:
33,335,155812,1,2,0:0:0:0:
314,336,156000,6,0,P|327:275|321:243,1,80,6|0,0:0|0:0,0:0:0:0:
241,236,156375,1,0,0:0:0:0:
155,217,156562,1,2,0:0:0:0:
348,183,156750,2,0,P|347:141|331:98,1,80,8|0,0:0|0:0,0:0:0:0:
207,109,157125,2,0,L|122:81,2,80,2|2|0,0:0|0:0|0:0,0:0:0:0:
334,166,157687,5,2,0:0:0:0:
207,168,157875,2,0,L|205:248,1,80,2|0,0:0|0:0,0:0:0:0:
398,290,158250,2,0,L|399:200,1,80,8|0,0:0|0:0,0:0:0:0:
308,190,158625,1,2,0:0:0:0:
381,129,158812,1,0,0:0:0:0:
109,118,159000,6,0,P|88:159|82:215,1,80,2|0,0:0|0:0,0:0:0:0:
161,229,159375,1,2,0:0:0:0:
77,275,159562,1,2,0:0:0:0:
345,283,159750,1,8,0:0:0:0:
265,282,159937,1,0,0:0:0:0:
345,283,160125,1,2,0:0:0:0:
425,281,160312,1,2,0:0:0:0:
233,184,160500,6,0,L|230:85,1,80,0|2,0:0|0:0,0:0:0:0:
349,90,160875,2,0,L|421:54,1,80,2|0,0:0|0:0,0:0:0:0:
241,71,161250,2,0,L|152:71,3,80,8|0|2|2,0:0|0:0|0:0|0:0,0:0:0:0:
354,245,162000,5,2,0:0:0:0:
453,201,162187,1,0,0:0:0:0:
452,60,162375,1,2,0:0:0:0:
335,32,162562,1,2,0:0:0:0:
151,148,162750,2,0,L|155:240,1,80,8|0,0:0|0:0,0:0:0:0:
243,243,163125,1,2,0:0:0:0:
335,255,163312,1,2,0:0:0:0:
143,288,163500,6,0,L|126:206,1,80,0|2,0:0|0:0,0:0:0:0:
239,219,163875,2,0,L|249:136,1,80,2|0,0:0|0:0,0:0:0:0:
55,141,164250,2,0,L|59:237,1,80,8|0,0:0|0:0,0:0:0:0:
156,250,164625,1,2,0:0:0:0:
67,290,164812,1,0,0:0:0:0:
340,296,165000,6,0,P|346:257|334:206,1,80,2|0,0:0|0:0,0:0:0:0:
226,206,165375,1,2,0:0:0:0:
115,190,165562,1,2,0:0:0:0:
370,161,165750,1,8,0:0:0:0:
487,221,165937,1,0,0:0:0:0:
370,161,166125,1,2,0:0:0:0:
487,221,166312,1,2,0:0:0:0:
301,278,166500,5,0,0:0:0:0:
402,234,166687,2,0,P|398:186|394:155,1,80,2|2,0:0|0:0,0:0:0:0:
294,120,167062,1,0,0:0:0:0:
103,123,167250,1,8,0:0:0:0:
53,196,167437,1,2,0:0:0:0:
66,276,167625,1,2,0:0:0:0:
147,317,167813,1,2,0:0:0:0:
427,313,168000,6,0,P|440:252|434:220,1,80,6|0,0:0|0:0,0:0:0:0:
312,238,168375,2,0,P|296:196|302:155,1,80,2|2,0:0|0:0,0:0:0:0:
493,150,168750,2,0,P|502:107|492:67,1,80,8|0,0:0|0:0,0:0:0:0:
361,37,169125,2,0,L|446:9,2,80,2|2|0,0:0|0:0|0:0,0:0:0:0:
260,73,169687,5,2,0:0:0:0:
377,157,169875,2,0,L|375:237,1,80,2|2,0:0|0:0,0:0:0:0:
181,291,170250,2,0,L|170:198,1,80,8|0,0:0|0:0,0:0:0:0:
307,216,170625,2,0,L|401:216,1,80,2|0,0:0|0:0,0:0:0:0:
71,125,171000,6,0,L|67:206,1,80,2|0,0:0|0:0,0:0:0:0:
182,241,171375,1,2,0:0:0:0:
56,301,171562,1,2,0:0:0:0:
248,300,171750,1,8,0:0:0:0:
352,255,171937,1,0,0:0:0:0:
336,128,172125,1,2,0:0:0:0:
226,95,172312,1,2,0:0:0:0:
327,105,172500,6,0,L|330:6,1,80,0|2,0:0|0:0,0:0:0:0:
200,27,172875,2,0,L|116:26,1,80,2|0,0:0|0:0,0:0:0:0:
314,111,173250,2,0,L|331:211,1,80,8|0,0:0|0:0,0:0:0:0:
241,230,173625,1,2,0:0:0:0:
344,265,173812,1,2,0:0:0:0:
74,275,174000,6,0,P|71:234|75:190,1,80,2|0,0:0|0:0,0:0:0:0:
197,198,174375,2,0,P|220:157|225:108,1,80,2|2,0:0|0:0,0:0:0:0:
32,129,174750,2,0,L|36:221,1,80,8|0,0:0|0:0,0:0:0:0:
132,218,175125,1,2,0:0:0:0:
224,230,175312,1,2,0:0:0:0:
410,269,175500,6,0,L|427:187,1,80,0|2,0:0|0:0,0:0:0:0:
324,200,175875,2,0,L|314:117,1,80,2|2,0:0|0:0,0:0:0:0:
505,123,176250,2,0,L|501:219,1,80,8|0,0:0|0:0,0:0:0:0:
407,231,176625,1,2,0:0:0:0:
496,271,176812,1,0,0:0:0:0:
166,301,177000,6,0,P|156:258|171:213,1,80,2|0,0:0|0:0,0:0:0:0:
292,210,177375,1,2,0:0:0:0:
419,196,177562,1,2,0:0:0:0:
145,165,177750,1,8,0:0:0:0:
28,225,177937,1,0,0:0:0:0:
145,165,178125,1,2,0:0:0:0:
28,225,178312,1,2,0:0:0:0:
214,282,178500,5,8,0:0:0:0:
113,238,178687,2,0,P|117:190|121:159,1,80,0|8,0:0|0:0,0:0:0:0:
221,124,179062,1,0,0:0:0:0:
413,127,179250,1,8,0:0:0:0:
486,188,179437,1,2,0:0:0:0:
486,267,179625,1,2,0:0:0:0:
408,320,179813,1,2,0:0:0:0:
119,330,180000,5,2,0:0:0:0:
298,293,180375,2,0,L|398:282,1,80,0|0,3:0|3:0,0:0:0:0:
185,169,180750,1,8,0:0:0:0:
343,102,181125,2,0,P|359:150|357:191,1,80,0|0,3:0|3:0,0:0:0:0:
108,221,181875,6,0,P|97:263|105:300,1,80,0|0,3:0|3:0,0:0:0:0:
297,193,182250,2,0,L|293:281,1,80,8|0,0:0|3:0,0:0:0:0:
187,303,182625,1,0,3:0:0:0:
273,346,182812,1,0,3:0:0:0:
378,308,183000,6,2,L|214:291,1,160
303,221,183562,1,0,3:0:0:0:
110,197,183750,1,8,0:0:0:0:
280,234,184125,2,0,P|296:186|288:135,1,80,0|0,3:0|3:0,0:0:0:0:
198,140,184500,6,0,P|154:125|195:24,1,160,2|0,0:0|3:0,3:3:0:0:
267,31,185062,1,0,3:0:0:0:
89,170,185250,2,0,L|87:249,1,80,8|2,0:0|0:0,0:0:0:0:
279,276,185625,2,0,L|367:278,1,80,2|2,0:0|0:0,0:0:0:0:
63,311,186000,6,0,P|61:272|173:204,1,160,4|8,0:0|0:0,0:0:0:0:
248,209,186562,1,0,0:0:0:0:
56,162,186750,2,0,L|215:143,1,160,8|0,0:0|0:0,0:0:0:0:
440,145,187500,5,8,3:2:0:0:
444,265,187687,1,0,3:0:0:0:
360,328,187875,1,0,3:0:0:0:
249,334,188062,1,0,0:0:0:0:
441,211,188250,2,0,P|485:267|441:331,1,160,8|2,0:0|3:2,0:0:0:0:
311,327,188812,2,0,L|303:284,1,40,0|0,3:0|3:0,0:0:0:0:
366,255,189000,6,0,L|468:248,1,80,2|0,3:2|3:0,0:0:0:0:
310,183,189375,2,0,L|222:180,1,80,0|0,0:0|3:0,0:0:0:0:
348,86,189750,1,8,0:0:0:0:
235,52,189937,1,0,0:0:0:0:
429,158,190125,2,0,P|428:218|417:244,1,80,2|0,3:2|3:0,0:0:0:0:
226,275,190500,5,8,3:2:0:0:
188,266,190593,1,0,3:2:0:0:
159,239,190687,1,2,3:2:0:0:
145,201,190781,1,0,3:2:0:0:
147,161,190875,1,8,3:2:0:0:
170,132,190968,1,0,3:2:0:0:
209,112,191062,1,2,3:2:0:0:
480,138,191250,2,0,L|478:224,1,80,8|2,3:2|0:0,0:0:0:0:
348,268,191625,1,2,0:0:0:0:
479,335,191812,1,2,0:0:0:0:
256,192,192000,12,0,198187,0:0:0:0:
